#TITLE:End of Desire;
#SUBTITLE:;
#ARTIST:HiTECH NINJA;
#TITLETRANSLIT:;
#SUBTITLETRANSLIT:;
#ARTISTTRANSLIT:;
#GENRE:;
#CREDIT:;
#BANNER:;
#BACKGROUND:End of desire-bg.png;
#LYRICSPATH:;
#CDTITLE:;
#MUSIC:End of Desire.mp3;
#OFFSET:-0.030000;
#SAMPLESTART:49.408581;
#SAMPLELENGTH:12.000000;
#SELECTABLE:YES;
#BPMS:0.000000=165.000000
;
#STOPS:
;
#BGCHANGES:;
#KEYSOUNDS:;
#ATTACKS:;

//---------------dance-single - ----------------
#NOTES:
     dance-single:
     :
     Hard:
     16:
     0.885454,1.121351,0.099303,0.198606,1.084060,749.000000,737.000000,12.000000,24.000000,0.000000,0.000000,0.885454,1.121351,0.099303,0.198606,1.084060,749.000000,737.000000,12.000000,24.000000,0.000000,0.000000:
0000
0000
0000
0000
,
0000
0000
0000
0000
0000
0000
0000
0000
0010
0100
0010
0100
0010
0000
1000
0000
,
0001
0000
0000
0010
0000
0000
0001
0000
1000
0000
0010
0100
0000
0000
0001
0000
,
1000
0000
0000
0010
0000
0000
2000
0000
0002
0000
0000
0000
3003
0000
0100
0001
,
1000
0000
0000
0001
0000
0000
0010
0000
0001
0000
1000
0100
0000
0000
1000
0000
,
0010
0000
0000
0100
0000
0000
0001
0000
1000
0000
0000
0010
0000
0000
0000
0000
,
0100
0000
0000
0001
0000
0000
0010
0000
0001
0000
1000
0010
1000
0000
0001
0100
,
0001
0000
0000
1000
0000
0000
0010
0000
0100
0000
0000
0000
0000
0000
0001
1000
,
0100
0000
0000
0010
0000
0000
0001
0000
0010
0000
0000
0001
0000
0000
1000
0000
,
0100
0000
0000
1000
0000
0000
0001
0000
0100
0000
0000
0010
0000
0000
0100
0000
,
1001
0000
0010
0000
0000
1000
0000
0000
0001
0000
0000
0010
0000
0001
0100
0001
,
1000
0000
0100
0000
0000
0010
0000
0000
0001
0000
0000
0010
0000
0100
1000
0100
,
0010
0000
0001
0000
0000
1000
0000
0000
0001
0000
0000
0100
0000
0001
1000
0001
,
0010
0000
0100
0000
0000
0010
0000
0000
0001
0000
0000
1000
0000
0010
0100
0010
,
1000
0000
0100
0000
0000
0010
0000
0000
0001
0000
0000
1000
0000
0100
0010
0100
,
1000
0000
0001
0000
0000
0100
0000
0000
0010
0000
0000
1000
0000
0001
1000
0001
,
0100
0000
0010
0000
0000
1000
0000
0000
0010
0000
0000
0100
0000
0010
0100
0001
,
1000
0001
1000
0001
1000
0001
1000
0001
1000
0001
1000
0001
1001
0000
0110
0000
,
1001
0000
0000
0000
0001
0010
0001
0010
0100
1000
0100
1000
0010
0100
0010
0100
,
0001
1000
0001
1000
0100
0010
0100
0010
0001
0010
0100
1000
0001
0010
0100
1000
,
0001
0000
1000
0001
0100
0000
0100
0000
0001
0000
0010
0100
1000
0000
1000
0000
,
0100
0000
0010
0001
0100
0000
0100
0000
0001
0000
0100
0010
1000
0000
1000
0000
,
2002
0000
3003
0000
0001
0100
0010
1000
0100
0010
0100
1000
0001
0010
0001
0100
,
0010
0100
0001
1000
0100
1000
0001
0010
0001
0100
0010
1000
0100
0010
0100
1000
,
0001
0010
0100
0010
0001
0100
0010
1000
0001
0100
0010
1000
0100
1000
0001
0010
,
0001
0100
0010
1000
0100
0010
0001
0100
0010
0001
0010
1000
0100
0010
0100
1000
,
0001
0000
0000
0000
1000
0100
1000
0100
0010
0001
0010
0001
0100
0010
0100
0010
,
1000
0001
1000
0001
0010
0100
0010
0100
1000
0100
0010
0001
1000
0100
0010
0001
,
1000
0000
0001
1000
0010
0000
0010
0000
1000
0000
0100
0010
0001
0000
0001
0000
,
0010
0000
0100
1000
0010
0000
0010
0000
1000
0000
0010
0100
0001
0000
0001
0000
,
1001
0000
0100
0010
0000
0000
1000
0010
0100
0000
0001
0100
0000
0000
0001
0010
,
0100
0000
1000
0100
0000
0000
1000
0001
0010
0000
0100
0010
0000
0000
0100
1000
,
0001
1000
0100
1000
0001
1000
0100
1000
0001
1000
0100
1000
0001
1000
0100
1000
,
0001
0100
0010
0100
0001
0100
0010
0100
0001
0100
0010
0100
0001
0000
0000
0000
,
1000
0001
0100
0001
0010
0100
1000
0100
,
1000
0000
0000
0010
0100
0000
0010
0000
1000
0000
0000
0001
0010
0000
0100
0000
,
1000
0100
0010
0001
0200
0000
0320
0000
,
2030
3200
0320
0032
,
1003
0010
0100
0001
0100
0001
1000
0010
,
1000
0000
0000
0001
0100
0000
0001
0000
0010
0000
0000
0100
1000
0000
0010
0000
,
1000
0010
0100
0001
0200
0000
0320
0000
,
2030
0000
3200
0000
0320
0000
0031
0010
,
0100
0000
1000
0010
0100
0000
0010
0100
,
0001
0010
0100
1000
0100
0000
0011
0000
,
1100
0000
1000
0001
0010
0000
0100
1000
,
0100
0010
0001
0100
0010
0000
1000
0001
,
0001
0200
0000
0310
0010
2000
0000
3100
,
0100
0010
0001
0000
0010
0000
0001
0000
,
0200
0010
0001
0310
,
1000
0001
1000
0001
1000
0001
1000
0001
1000
0001
1000
0000
0110
0000
1001
0000
,
0000
0000
2000
0000
0000
0010
0000
0000
0100
0000
0000
3010
0000
0100
0001
0100
,
0001
0000
0020
0000
0000
0100
0000
0000
0001
0000
0000
0130
0000
1000
0010
1000
,
0010
0000
0200
0000
0000
0001
0000
0000
0010
0000
0000
0301
0000
0010
0100
0010
,
0100
0000
2000
0000
0000
0010
0000
0000
0001
0000
0000
3010
0000
0100
0010
0100
,
0010
0000
1000
0001
0000
0100
0001
1000
0100
0000
0010
0001
0000
1000
0010
0100
,
0001
0000
0010
0100
0000
1000
0100
0010
0001
0000
1000
0001
0000
1000
0010
0100
,
0001
1000
0001
1000
0001
1000
0001
1000
0001
1000
0001
1000
0001
1000
0001
1000
,
0010
0100
0010
0100
0010
0100
0010
0100
0010
0100
0010
0000
0110
0000
0000
0000
,
1001
0000
0000
0001
1000
0000
0100
0000
0010
0000
0001
0100
0001
0000
1000
0000
,
0010
0000
1000
0000
0100
0000
0010
0000
0001
0000
0010
0100
1000
0010
0100
0001
,
0010
0000
0000
0100
1000
0000
0001
0000
0010
0000
0100
1000
0100
0000
0010
0000
,
0001
0000
1000
0000
0010
0000
0100
0000
0001
0000
0100
0010
1000
0001
0010
0100
,
1000
0000
0000
0010
0100
0000
0001
0000
1000
0000
0010
0100
0010
0000
1000
0000
,
0001
0000
0100
0000
0010
0000
0100
0000
0001
0000
1000
0001
0100
0010
1000
0001
,
0010
0000
0000
0001
0100
0000
0010
0000
0100
0000
0001
1000
0001
0000
0010
0000
,
0100
0000
1000
0000
0010
0000
0100
0000
0001
0000
1000
0010
0100
0001
0010
0100
,
1000
0000
0000
1000
0001
0000
0010
0000
0100
0000
1000
0010
1000
0000
0001
0000
,
0100
0000
0001
0000
0010
0000
0100
0000
1000
0000
0100
0010
0001
0100
0010
1000
,
0100
0000
0000
0010
0001
0000
1000
0000
0100
0000
0010
0001
0010
0000
0100
0000
,
1000
0000
0001
0000
0100
0000
0010
0000
1000
0000
0010
0100
0001
1000
0100
0010
,
0001
0000
0000
0100
0010
0000
1000
0000
0001
0000
0100
0010
0100
0000
0001
0000
,
1000
0000
0010
0000
0100
0000
0010
0000
1000
0000
0001
1000
0010
0100
0001
1000
,
0100
0000
0000
1000
0010
0000
0100
0000
0010
0000
1000
0001
1000
0000
0100
0000
,
0010
0000
0000
0001
0000
0000
0010
0000
0100
0000
0000
1000
0000
0000
0001
0000
,
1000
0000
0001
0000
0000
0001
0000
0000
0100
0000
0000
0100
0000
0010
1000
0001
,
0000
0000
1000
0000
0000
1000
0000
0000
0001
0000
0000
0001
0000
1000
0001
0100
,
0000
0000
0010
0000
0000
0010
0000
0000
0100
0000
0000
0100
0000
0001
0010
0100
,
0000
0000
1000
0000
0000
1000
0000
0000
0010
0000
0000
0010
0000
1000
0001
0100
,
0000
0000
0001
0000
0000
0001
0000
0000
1000
0000
0000
1000
0000
0010
0100
0001
,
0000
0000
0100
0000
0000
0100
0000
0000
0010
0000
0000
0010
0000
1000
0100
0010
,
0000
0000
0001
0000
0000
0001
0000
0000
1000
0000
0000
1000
0000
0010
0100
0001
,
0000
0000
0100
0000
0000
0100
0000
0000
0001
0000
0000
0001
0000
0100
0002
2000
,
0000
3003
0000
0000
0000
0000
0000
0000
;

//---------------dance-single - ----------------
#NOTES:
     dance-single:
     :
     Medium:
     12:
     0.602912,0.612577,0.049652,0.148955,0.339286,510.000000,504.000000,6.000000,18.000000,0.000000,0.000000,0.602912,0.612577,0.049652,0.148955,0.339286,510.000000,504.000000,6.000000,18.000000,0.000000,0.000000:
0000
0000
0000
0000
,
0000
0000
0000
0000
0000
0000
0000
0100
,
0001
0000
0000
0010
0000
0000
0001
0000
1000
0000
0000
0100
0000
0000
1000
0000
,
0010
0000
0000
0100
0000
0000
0001
0000
2000
0000
0000
0000
3000
0000
0001
0000
,
0100
0000
0000
0001
0000
0000
0010
0000
0100
0000
0000
1000
0000
0000
0010
0000
,
0100
0000
0000
0010
0000
0000
1000
0000
0001
0000
0000
0020
0000
0000
0030
0000
,
0100
0000
0000
1000
0000
0000
0001
0000
1000
0000
0000
0010
0000
0000
0100
0000
,
0001
0000
0000
1000
0000
0000
0010
0000
0200
0000
0000
0000
0300
0000
0001
0000
,
1000
0000
0000
0010
0000
0000
1000
0000
0100
0000
0000
0010
0000
0000
0001
0000
,
0100
0000
0000
0010
0000
0000
0100
0000
0001
0000
0000
0010
0000
0000
0100
0000
,
1000
0000
0001
0000
0000
0001
0000
0000
0100
0000
0000
0020
0000
0000
0000
0000
,
1030
0000
0100
0000
0000
0100
0000
0000
0010
0000
0000
0002
0000
0000
0000
0000
,
0013
0000
0100
0000
0000
0100
0000
0000
1000
0000
0000
0020
0000
0000
0000
0000
,
0130
0000
0001
0000
0000
0001
0000
0000
0010
0000
0000
0200
0000
0000
0000
0000
,
1300
0000
0001
0000
0000
0001
0000
0000
0100
0000
0000
0002
0000
0000
0000
0000
,
0013
0000
0100
0000
0000
0100
0000
0000
1000
0000
0000
0200
0000
0000
0000
0000
,
1300
0000
0001
0000
0000
0001
0000
0000
0010
0000
0000
0100
0000
0000
0100
0000
,
1000
0100
0010
0001
1000
0100
0010
0010
,
0011
0000
0001
1000
0001
0100
0010
0100
,
0001
1000
0001
1000
0100
1000
0010
0100
,
0001
0000
0000
1000
0010
0000
0010
0000
0100
0000
0000
0001
1000
0000
1000
0000
,
0100
0000
0000
0010
0001
0000
0001
0000
0010
0000
0000
0100
1000
0000
1000
0000
,
2002
3003
0001
0010
0100
0001
1000
0100
,
1000
0010
0100
1000
0100
0001
0010
0100
,
1000
0001
0010
0001
1000
0010
0100
0001
,
1000
0100
1000
0001
1000
0001
0100
0001
,
1001
0000
1000
0001
1000
0010
0100
0010
,
1000
0001
1000
0001
0010
0001
0100
0010
,
1000
0000
0000
0001
0100
0000
0100
0000
0010
0000
0000
1000
0001
0000
0001
0000
,
0010
0000
0000
0100
1000
0000
1000
0000
0100
0000
0000
0010
0001
0000
0001
0000
,
1001
0000
0000
1000
0000
0000
0010
0000
0010
0000
0000
0100
0000
0000
0001
0000
,
0001
0000
0000
0010
0000
0000
0100
0000
0100
0000
0000
1000
0000
0000
0100
0000
,
0010
0001
1000
0100
0010
0001
1000
0001
,
0010
0100
1000
0001
0010
0100
1000
0000
,
0001
1000
0001
0100
0010
0000
1000
0001
,
0100
0000
0000
0010
0000
0000
1000
0000
0001
0000
0000
0010
0000
0000
0100
0000
,
1000
0001
0010
0001
2000
0000
0010
0000
,
0001
0010
0001
3010
,
1000
0100
0010
0001
0100
0000
0001
0010
,
0100
0000
0000
1000
0000
0000
0001
0000
0010
0000
0000
0100
0000
0000
0010
0000
,
1000
0001
0010
0100
0020
0000
0100
0000
,
0001
0000
0100
0000
0001
0000
0130
1000
,
0100
0000
1000
0001
1000
0000
0010
0100
,
0001
1000
0001
0100
0010
0000
0100
0000
,
0010
0000
1000
0001
0100
0000
0001
0010
,
0001
1000
0100
1000
0010
0000
1000
0001
,
1000
0002
0000
0103
0010
2000
0000
3100
,
0010
0100
1000
0000
0010
0000
0100
0000
,
0002
0010
1000
0013
,
0200
0000
0010
0000
0001
0000
0310
0110
,
0000
0000
0100
0000
0000
0001
0000
0000
0100
0000
0000
0010
0000
0000
1000
0000
,
0001
0000
0010
0000
0000
0100
0000
0000
1000
0000
0000
0100
0000
0000
0010
0000
,
0001
0000
1000
0000
0000
0001
0000
0000
0010
0000
0000
0001
0000
0000
0100
0000
,
0010
0000
1000
0000
0000
0010
0000
0000
0100
0000
0000
0001
0000
0000
1000
0000
,
0001
0000
0010
0000
0000
0100
0000
0000
0010
0000
0010
0000
0000
0001
0000
0000
,
0100
0000
0100
0000
0000
0010
0000
0000
1000
0000
1000
0000
0000
0100
0000
0000
,
0010
0001
1000
0010
1000
0001
0100
0001
,
1000
1000
1000
1000
1000
1000
1001
0000
,
0001
0000
1000
0001
0010
0000
0100
1000
,
0001
0000
0100
0010
0100
0001
0010
0100
,
1000
0000
0001
0100
0010
0000
1000
0010
,
0100
0000
0001
0100
0001
1000
0010
0100
,
0001
0000
0010
0100
1000
0000
0001
0100
,
0001
0000
1000
0100
0010
0001
0010
0100
,
1000
0000
0001
1000
0010
0000
1000
0001
,
0100
0000
0010
0100
0001
0100
0010
1000
,
0001
0000
0001
1000
0100
0000
0010
0001
,
1000
0000
0010
0100
0010
1000
0100
0010
,
0001
0000
1000
0010
0100
0000
0001
0100
,
0010
0000
1000
0010
1000
0001
0100
0010
,
1000
0000
0100
0010
0001
0000
0100
0010
,
1000
0000
0001
0010
0100
1000
0100
0010
,
0001
0000
1000
0001
0100
0000
0001
1000
,
0010
0000
0000
0100
0000
0000
0010
0000
1000
0000
0000
0001
0000
0000
0100
0000
,
0001
0000
1000
0000
0000
0001
0000
0000
0100
0000
0000
0100
0000
0010
0100
0000
,
0000
0000
0001
0000
0000
1000
0000
0000
0001
0000
0000
0001
0000
0010
0001
0000
,
0000
0000
0010
0000
0000
0100
0000
0000
1000
0000
0000
1000
0000
0001
1000
0000
,
0000
0000
0100
0000
0000
0010
0000
0000
0100
0000
0000
0100
0000
1000
0100
0000
,
0000
0000
0010
0000
0000
0001
0000
0000
0010
0000
0000
0010
0000
0001
0010
0000
,
0000
0000
0100
0000
0000
0010
0000
0000
1000
0000
0000
1000
0000
0001
1000
0000
,
0000
0000
0001
0000
0000
0010
0000
0000
0001
0000
0000
0001
0000
1000
0001
0000
,
0000
0000
0100
0000
0000
0010
0000
0000
0100
0000
0000
0100
0000
0100
0020
0000
,
0000
0030
0000
0000
;

//---------------dance-single - ----------------
#NOTES:
     dance-single:
     :
     Easy:
     4:
     0.380662,0.442417,0.000000,0.057927,0.016551,322.000000,322.000000,0.000000,7.000000,0.000000,0.000000,0.380662,0.442417,0.000000,0.057927,0.016551,322.000000,322.000000,0.000000,7.000000,0.000000,0.000000:
0000
0000
0000
0000
,
0000
0000
0000
0000
0000
0000
0000
0001
,
1000
0000
0000
0010
0100
0000
0000
0010
,
1000
0000
0000
0100
0010
0000
0000
0001
,
0010
0000
0000
0100
1000
0000
0000
0100
,
0010
0000
0000
0001
1000
0000
0000
0000
,
0010
0000
0000
1000
0001
0000
0000
0100
,
0001
0000
0000
1000
0100
0000
0000
0010
,
0001
0000
0000
1000
0010
0000
0000
0100
,
0001
0000
0000
1000
0010
0000
0000
0100
,
0010
0001
0000
0000
0010
0000
0000
0000
,
0100
1000
0000
0000
0100
0000
0000
0000
,
0010
0001
0000
0000
0100
0000
0000
0000
,
0010
1000
0000
0000
0100
0000
0000
0000
,
0001
0010
0000
0000
0100
0000
0000
0000
,
1000
0100
0000
0000
0010
0000
0000
0000
,
0001
1000
0000
0000
0100
0000
0000
0000
,
0001
0000
0010
0000
0001
0000
0100
0100
,
0100
0010
1000
0100
,
0001
1000
0010
0100
,
0001
0000
1000
0010
1000
0000
0001
1000
,
0001
0000
1000
0001
1000
0000
0001
0001
,
0001
1000
0010
0100
,
0001
0010
0001
1000
,
0001
0100
0010
1000
,
0100
0010
0001
0010
,
0100
1000
0001
0010
,
0001
1000
0010
0100
,
0001
0000
0100
0010
0100
0000
0001
1000
,
0001
0000
1000
0001
1000
0000
0010
0010
,
0010
0000
0000
0100
0100
0000
0000
0001
,
0001
0000
0000
1000
1000
0000
0000
0010
,
0010
0100
0001
1000
,
0001
0000
1000
0000
0100
0010
0100
0000
,
1000
0001
0100
0001
,
0010
0001
1000
0100
,
1000
0000
0001
1000
0002
0000
0000
0000
,
0000
0000
0000
0103
,
0001
0100
0010
1000
,
0010
1000
0001
0010
,
0001
0000
0100
0010
0200
0000
0000
0000
,
0000
0000
0000
0310
,
1000
0001
1000
0100
,
0010
0000
0001
0010
0001
0000
0010
0000
,
0100
1000
0010
1000
,
0001
0000
0100
0010
0100
0000
0001
0000
,
1000
2000
0000
3000
0001
0002
0000
0003
,
0100
0001
0100
0010
,
2000
0000
0000
3100
,
0020
0000
0000
0000
0000
0000
0130
0100
,
0000
0010
0000
0000
0001
0000
0000
0100
,
1000
0100
0000
0000
0010
0000
0000
0001
,
0010
0001
0000
0000
1000
0000
0000
0010
,
0100
0010
0000
0000
0100
0000
0000
0001
,
1000
0001
0000
0000
0100
0100
0000
0000
,
0010
0010
0000
0000
1000
1000
0000
0000
,
0001
0100
0010
1000
,
0001
1000
0001
1000
0001
1000
0001
0000
,
1000
0001
0100
0010
,
1000
0000
0010
0000
1000
0000
0001
0100
,
0001
1000
0100
0010
,
0001
0000
1000
0000
0001
0000
1000
0100
,
1000
0010
0100
0001
,
0010
0000
0001
0000
1000
0000
0010
0100
,
0010
1000
0001
0010
,
0001
0000
1000
0000
0010
0000
1000
0001
,
1000
0001
0010
0001
,
1000
0000
0100
0000
1000
0000
0001
1000
,
0001
0100
0010
1000
,
0001
0000
0010
0000
0100
0000
1000
0100
,
1000
0010
0100
0010
,
0100
0000
0001
0000
1000
0000
0010
0100
,
0010
0100
0001
0010
,
0001
0000
0000
0100
1000
0000
0000
0001
,
0100
0001
0000
0000
0010
0000
0000
0100
,
0000
1000
0000
0000
0100
0000
0000
0010
,
0000
0001
0000
0000
0100
0000
0000
0010
,
0000
1000
0000
0000
0010
0000
0000
0100
,
0000
0000
0001
0000
0000
0000
0000
0000
0100
0000
0000
0100
0000
0000
0100
0000
,
0000
0000
0010
0000
0000
0000
0000
0000
0001
0000
0000
0001
0000
0000
0001
0000
,
0000
0000
1000
0000
0000
0000
0000
0000
1000
0000
0000
1000
0000
0000
1000
0000
,
0000
0000
0010
0000
0000
0000
0000
0000
0010
0000
0000
0010
0000
0000
0020
0000
,
0000
0030
0000
0000
;

//---------------dance-single - ----------------
#NOTES:
     dance-single:
     :
     Beginner:
     2:
     0.185602,0.238224,0.000000,0.074477,0.000000,157.000000,157.000000,0.000000,9.000000,0.000000,0.000000,0.185602,0.238224,0.000000,0.074477,0.000000,157.000000,157.000000,0.000000,9.000000,0.000000,0.000000:
// measure 0
0000
0000
0000
0000
,  // measure 1
0000
0000
0000
0000
,  // measure 2
0001
0000
0010
0000
,  // measure 3
0001
0000
0100
0000
,  // measure 4
0100
0000
0001
0000
,  // measure 5
0100
0000
0001
0000
,  // measure 6
0100
0000
0001
0000
,  // measure 7
1000
0000
0010
0000
,  // measure 8
1000
0000
0010
0000
,  // measure 9
1000
0000
0100
0000
,  // measure 10
0200
0000
0000
0000
,  // measure 11
0000
0000
0000
0000
,  // measure 12
0301
0000
0010
0000
,  // measure 13
0100
0000
0010
0000
,  // measure 14
1000
0000
0010
0000
,  // measure 15
0001
0000
0100
0000
,  // measure 16
1000
0000
0010
0000
,  // measure 17
1000
0100
1000
0020
,  // measure 18
0030
0100
0000
0010
,  // measure 19
0000
0001
0000
0010
,  // measure 20
0000
0000
0001
0000
,  // measure 21
1000
0000
0001
0000
,  // measure 22
1000
0000
0100
0000
,  // measure 23
1000
0000
1000
0000
,  // measure 24
1000
0000
0100
0000
,  // measure 25
0010
0000
1000
0000
,  // measure 26
0010
0000
1000
0000
,  // measure 27
1000
0000
0100
0000
,  // measure 28
1000
0000
0010
0000
,  // measure 29
1000
0000
0001
0000
,  // measure 30
0100
0000
0010
0000
,  // measure 31
1000
0000
0001
0000
,  // measure 32
0100
0000
1000
0000
,  // measure 33
1000
0000
0010
0000
,  // measure 34
0001
0000
0010
0000
,  // measure 35
0100
0000
0001
0000
,  // measure 36
0001
0000
2000
0000
,  // measure 37
0000
0000
0000
3010
,  // measure 38
0000
0010
0000
0001
,  // measure 39
0000
0001
0000
0100
,  // measure 40
0000
0010
0020
0000
,  // measure 41
0000
0000
0000
0130
,  // measure 42
0000
1000
0000
0010
,  // measure 43
0000
0000
1000
0000
,  // measure 44
0010
0000
0100
0000
,  // measure 45
1000
0000
0010
0000
,  // measure 46
0001
0002
0000
0003
1000
2000
0000
3000
,  // measure 47
0010
0000
0010
0000
,  // measure 48
0002
0000
0000
0003
,  // measure 49
0200
0000
0000
0000
0000
0000
0310
0010
,  // measure 50
0000
0000
1000
0000
,  // measure 51
0001
0000
0100
0000
,  // measure 52
0100
0000
0001
0000
,  // measure 53
0010
0000
0010
0000
,  // measure 54
0001
0000
0010
0000
,  // measure 55
0100
0000
0001
0000
,  // measure 56
1000
0000
0100
0000
,  // measure 57
1000
0000
1000
0000
,  // measure 58
0001
0000
0010
0000
,  // measure 59
0001
0000
0001
0000
,  // measure 60
1000
0000
0010
0000
,  // measure 61
1000
0000
1000
0000
,  // measure 62
0001
0000
0010
0000
,  // measure 63
0100
0000
0001
0000
,  // measure 64
0100
0000
1000
0000
,  // measure 65
1000
0000
0100
0000
,  // measure 66
0001
0000
0100
0000
,  // measure 67
0001
0000
0001
0000
,  // measure 68
1000
0000
0100
0000
,  // measure 69
1000
0000
0010
0000
,  // measure 70
0001
0000
0010
0000
,  // measure 71
0010
0000
0001
0000
,  // measure 72
0100
0000
1000
0000
,  // measure 73
1000
0000
0001
0000
,  // measure 74
0010
0000
0100
0000
,  // measure 75
0000
0001
0000
0000
0010
0000
0000
0100
,  // measure 76
0000
0000
0000
0000
0010
0000
0000
0100
,  // measure 77
0000
0000
0000
0000
0100
0000
0000
0010
,  // measure 78
0000
0000
0010
0000
,  // measure 79
0000
0100
0000
0000
1000
0000
0000
0000
,  // measure 80
0000
0001
0000
0000
0001
0000
0000
0000
,  // measure 81
0000
0100
0000
0000
0100
0000
0000
0200
,  // measure 82
0000
0300
0000
0000
;
