#TITLE:Eclipse Zero;
#SUBTITLE:;
#ARTIST:tumahaB;
#TITLETRANSLIT:;
#SUBTITLETRANSLIT:;
#ARTISTTRANSLIT:;
#GENRE:;
#CREDIT:;
#BANNER:Eclipse Zero-bn.png;
#BACKGROUND:Eclipse Zero-bg.png;
#LYRICSPATH:;
#CDTITLE:;
#MUSIC:Eclipse Zero.mp3;
#OFFSET:-0.420000;
#SAMPLESTART:87.979958;
#SAMPLELENGTH:12.000000;
#SELECTABLE:YES;
#BPMS:0.000000=199.000000
;
#STOPS:
;
#BGCHANGES:;
#KEYSOUNDS:;
#ATTACKS:;

//---------------dance-single - ----------------
#NOTES:
     dance-single:
     :
     Hard:
     16:
     0.995034,1.000000,0.443903,0.282484,0.573038,773.000000,55.000000,35.000000,0.000000,0.000000,0.000000,0.995034,1.000000,0.443903,0.282484,0.573038,773.000000,55.000000,35.000000,0.000000,0.000000,0.000000:
0000
0000
0000
0000
,
0000
0000
0000
0000
,
0000
0000
0000
0000
,
1000
0001
0100
0010
1000
0001
0100
0001
,
1000
0100
0010
0001
0100
1000
0100
0001
,
0010
0100
1000
0100
0001
0100
1000
0010
,
1000
0001
0100
0001
0010
0100
0010
1000
,
0010
0001
0100
1000
0100
0010
1000
0001
,
0100
0010
1000
0001
0100
0010
1000
0001
,
2000
3200
0320
0032
,
0203
0320
2030
3200
,
0320
0230
2300
3002
,
0203
2300
3200
0302
,
1003
0010
0100
0010
1000
0001
0010
0100
,
0010
0001
1000
0100
1000
0010
0100
0001
,
0100
0010
0100
0010
0100
0010
0100
0010
0100
0001
1000
0001
1000
0001
1000
0001
,
0200
0000
0000
0000
,
0302
1000
0100
1000
,
0100
0000
0000
0000
1003
0000
0000
0000
0010
0000
0100
0001
0100
0000
0000
0000
,
0001
1000
0001
0100
0010
1000
0100
0010
,
0100
1000
0010
0100
0010
1000
0001
1000
,
0010
0100
0001
0010
1000
0001
0100
1000
,
0010
0100
0001
0100
1000
0001
0010
1000
,
0010
0100
0001
0010
0100
1000
0010
0100
,
0010
0100
0001
1000
0001
1000
0100
0010
,
0100
1000
0001
0010
0100
0010
0001
1000
,
0010
0100
1000
0100
0010
0100
0001
1000
,
1001
0000
0000
0000
0110
0000
0000
0000
0101
0000
0000
0000
0001
1000
0001
1000
,
0100
0000
0000
0000
1100
0000
0000
0000
0110
0000
0000
0000
0010
0001
0010
0001
,
1000
0000
0000
0000
1010
0000
0000
0000
0101
0000
0000
0000
0001
0100
0001
0100
,
0010
0000
0000
0000
0110
0000
0000
0000
1000
0001
0000
0100
0010
0000
0100
0010
,
0100
0001
1000
0100
1000
0001
0100
0001
,
1000
0010
1000
0010
0100
0001
1000
0010
,
0100
0001
0100
0001
0100
0001
0100
0001
0100
0001
0100
0001
0100
0001
0100
0001
,
1000
0010
0100
0001
0010
0001
1000
0100
1000
0010
0100
0010
1000
0001
1000
0000
,
2002
0000
0000
0003
,
3020
0000
0000
0000
0000
0000
0000
0000
0130
0000
0001
1000
0001
0000
0000
0000
,
1001
0000
0000
1100
0000
0000
1001
0000
0000
0101
0000
0000
0001
0000
0100
0000
,
0010
0000
0000
1010
0000
0000
0100
0000
0001
0000
0000
0101
0000
0000
1000
0000
,
0001
0010
1000
0001
0100
1000
0010
0001
,
1000
0100
0010
0100
0001
0000
0010
0000
0100
0000
1000
0000
0100
0000
0010
0000
,
1001
0000
0000
0011
0000
0000
1001
0000
0000
1010
0000
0000
1000
0000
0010
0000
,
0100
0000
0000
0101
0000
0000
0010
0000
1000
0000
0000
1010
0000
0000
0002
0000
,
0100
0103
0020
1000
1030
0200
0010
0310
,
0001
0000
1000
0001
1000
0000
0100
0000
0010
0001
0010
0000
0100
0000
1000
0000
,
0001
0100
0001
1000
0100
1000
0010
0100
,
1000
0001
0010
0100
0001
0010
0100
1000
,
0010
0100
0001
1000
0100
0001
1000
0010
,
0001
1000
0010
0001
1000
0100
0001
1000
,
0100
0001
0100
1000
0010
0100
0001
1000
,
0010
0100
0001
0010
0100
1000
0001
1000
,
0001
1000
1000
0010
0010
0100
0100
0001
,
1000
0010
1000
0001
0100
0001
0010
0100
1000
0010
0100
0010
0100
0000
0000
0000
,
1001
0100
0010
1010
0100
0001
0011
1000
,
0010
0000
0110
0000
1000
0000
0001
0000
1000
0010
0100
0001
0010
0000
0000
0000
,
1100
0010
0001
0101
0010
0100
1010
0001
,
1000
0000
1001
0000
0010
0100
0001
0100
0010
1000
0001
1000
0100
0000
0000
0000
,
1000
0000
0001
0000
1000
0000
0010
0100
0010
0000
0100
0000
0001
0000
1000
0000
,
0010
0000
1000
0000
0001
0000
0100
0010
0100
0010
0100
0000
0010
0000
1000
0000
,
0001
0100
0010
0100
0001
0100
0010
0100
0001
0100
0010
0100
0001
0100
0010
0000
,
1000
0000
0001
0000
0100
0000
0001
0010
0001
0000
1000
0000
0001
0000
1000
0000
,
1001
0000
0000
0000
0110
0000
0000
0000
1010
0000
0000
0000
1000
0001
1000
0001
,
0010
0000
0000
0000
0011
0000
0000
0000
0110
0000
0000
0000
0100
1000
0100
1000
,
0001
0000
0000
0000
0101
0000
0000
0000
1010
0000
0000
0000
1000
0010
1000
0010
,
0100
0000
0000
0000
0110
0000
0000
0000
0001
1000
0000
0010
0100
0000
0010
0100
,
0010
1000
0001
0010
0001
1000
0010
1000
,
0001
0100
0001
0100
0010
1000
0001
0100
,
0010
1000
0010
1000
0010
1000
0010
1000
0010
1000
0010
1000
0010
1000
0010
1000
,
0001
0100
0010
1000
0100
1000
0001
0010
0001
0100
0010
0100
0001
1000
0001
0100
,
0020
0000
0000
0000
,
1030
0001
1000
0001
0100
0001
0100
0001
0010
0100
0010
0100
1000
0010
1000
0010
,
0100
0001
0100
0001
0010
0100
0010
0100
1000
0001
1000
0001
0100
0010
0100
0010
,
2000
0000
0000
0000
0000
0000
0000
0000
0000
0000
3001
0100
0001
0000
0000
0000
,
1001
0000
0000
0011
0000
0000
1001
0000
0000
1100
0000
0000
1000
0000
0010
0000
,
0100
0000
0000
0101
0000
0000
0010
0000
1000
0000
0000
1010
0000
0000
0001
0000
,
1000
0100
0001
1000
0010
0001
0100
1000
,
0001
0010
0100
0010
1000
0000
0100
0000
0010
0000
0001
0000
0010
0000
0100
0000
,
1001
0000
0000
1100
0000
0000
1001
0000
0000
0011
0000
0000
0001
0000
0100
0000
,
0010
0000
0000
1010
0000
0000
0100
0000
0001
0000
0000
0101
0000
0000
2000
0000
,
0010
0000
3010
0000
0200
0000
0001
0000
0301
0000
0010
0100
0010
0000
0100
0000
,
0000
1001
1001
0000
2010
0000
3002
0000
,
1003
0010
1000
0001
0010
0001
0100
0010
,
0001
1000
0100
0010
1000
0100
0010
0001
,
0100
0010
1000
0001
0010
1000
0001
0100
,
1000
0001
0100
1000
0001
0010
1000
0001
,
0010
1000
0010
0001
0100
0010
1000
0001
,
0100
0010
1000
0100
0010
0001
1000
0001
,
1000
0001
0001
0100
0100
0010
0010
1000
,
0001
0100
0001
1000
0010
1000
0100
0010
0001
0100
0010
0100
0010
0000
0000
0000
,
1000
0001
1000
1020
0000
0130
0001
0010
,
0100
1000
0001
0010
0100
1000
2002
3003
,
0001
0100
1000
0100
0001
0010
1000
0010
,
0001
1000
0010
1000
0001
0100
0001
1000
,
0100
0000
0010
0000
1000
0000
0001
0000
0100
0000
1000
0000
0001
0000
0100
0010
,
0100
0000
0001
0000
1000
0000
0100
0000
0010
0000
0001
0000
1000
0001
0000
0001
,
1000
0010
0100
0001
1000
0010
0100
0001
1000
0010
0100
0001
0010
0100
1000
0001
,
0010
0100
1000
0001
0010
0100
1000
0000
0010
0000
0010
0000
2002
0000
0000
0000
,
0000
0000
0000
0000
,
0000
0000
0000
0000
,
0000
0000
0000
3003
;

//---------------dance-single - ----------------
#NOTES:
     dance-single:
     :
     Medium:
     12:
     0.705633,0.684317,0.161419,0.145277,0.064568,574.000000,20.000000,18.000000,0.000000,0.000000,0.000000,0.705633,0.684317,0.161419,0.145277,0.064568,574.000000,20.000000,18.000000,0.000000,0.000000,0.000000:
0000
0000
0000
0000
,
0000
0000
0000
0000
,
0000
0000
0000
0000
,
0100
0001
1000
0010
,
1000
0001
1000
0010
,
0100
0001
1000
0000
0001
1000
0100
0000
,
0010
0001
0010
0000
0100
1000
0100
0000
,
0010
0001
1000
0000
0100
0010
0100
0000
,
0010
0001
1000
0000
0010
1000
0001
1000
,
0002
1000
0010
1000
,
0203
0010
0001
0010
,
0302
0010
1000
0010
,
2003
0010
0100
0010
,
3001
0100
0001
0100
0001
0100
0001
0100
,
0010
1000
0010
1000
0010
1000
0010
1000
,
0001
1000
0001
1000
0001
1000
0001
1000
,
0200
0000
0000
0000
,
0310
0000
0000
0000
,
0000
0000
0000
0000
,
0001
1000
0001
1000
0010
1000
0010
1000
,
0100
1000
0100
1000
0100
1000
0100
0010
,
0001
0010
0001
0010
0001
0010
0001
1000
,
0010
1000
0001
0100
0001
0100
0010
1000
,
0010
1000
0001
0100
0001
0010
0100
0010
,
0001
0010
0100
1000
0001
1000
0001
1000
,
0010
0100
0010
0100
0010
1000
0100
1000
,
0010
0100
0010
1000
0001
1000
0010
1000
,
0001
0000
0100
0000
0010
0000
1000
0010
,
1000
0000
0100
0000
0010
0000
0001
1000
,
0100
0000
1000
0000
0001
0000
0100
0010
,
1000
1001
0100
0010
,
1000
0001
1000
0001
1000
0001
1000
0001
,
0100
0010
0100
0010
0100
0010
0100
0010
,
0200
0001
0001
0001
0001
0001
0001
0001
,
0301
1000
0010
1000
0010
1000
0010
1000
,
2002
0000
0000
0000
,
0000
3003
0000
0000
,
0001
0000
0000
0001
0000
0000
0100
0000
0000
0100
0000
0000
0001
0000
0100
0000
,
0010
0000
0000
1000
0000
0000
0010
0000
0100
0000
0000
0001
0000
0000
1000
0000
,
0001
0010
0100
1000
0001
0010
0100
1000
,
0001
0100
0001
0010
0100
1000
0100
0010
,
0001
0000
0000
0001
0000
0000
1000
0000
0000
1000
0000
0000
0001
0000
0010
0000
,
0100
0000
0000
1000
0000
0000
0010
0000
0100
0000
0000
0001
0000
0000
1000
0000
,
0100
0100
0000
0010
0010
0000
0001
0001
,
0000
1000
1000
0000
1001
0000
0110
0000
,
0010
0100
0001
0100
0000
0001
1000
0001
,
1000
0100
1000
0100
0010
0100
1000
0000
,
0001
0100
0001
0100
0010
0100
0010
1000
,
0001
1000
0001
0010
0100
1000
0100
1000
,
0100
0010
0001
0010
0000
0001
1000
0001
,
1000
0010
1000
0010
0100
0010
0100
0000
,
0001
0001
1000
1000
0010
0010
0100
0100
,
0000
0001
1001
0000
1000
0010
0100
0000
,
1001
0000
0000
1001
0000
0000
0101
0000
,
0000
0101
0000
0000
0100
0010
1000
0000
,
1010
0000
0000
1010
0000
0000
0110
0000
,
0000
0110
0100
0001
1000
0001
0100
0000
,
0001
0010
0100
0010
0010
0100
1000
0000
,
0001
1000
0010
0100
0100
0010
1000
0000
,
0001
1000
0001
1000
0001
1000
0001
1000
,
2002
0000
0000
0000
0000
0000
0000
3003
,
1000
0000
0010
0000
0100
0000
0001
0100
,
0001
0000
0010
0000
0100
0000
1000
0001
,
0010
0000
0001
0000
1000
0000
0010
0100
,
0001
1001
0010
0100
,
0001
1000
0001
1000
0001
1000
0001
1000
,
0010
0100
0010
0100
0010
0100
0010
0100
,
0020
1000
1000
1000
1000
1000
1000
1000
,
1030
0001
0100
0001
0100
0001
0100
0001
,
2002
0000
0000
0000
0000
0000
0000
3003
,
0001
0100
1000
0100
0001
0100
1000
0100
,
0001
0100
1000
0100
0001
0100
1000
0100
,
0001
0000
0000
0000
0000
1000
0001
0000
,
1000
0000
0000
1000
0000
0000
0010
0000
0000
0010
0000
0000
1000
0000
0010
0000
,
0100
0000
0000
0001
0000
0000
0100
0000
0010
0000
0000
1000
0000
0000
0001
0000
,
1000
0100
0010
0001
1000
0100
0010
0001
,
1000
0010
1000
0100
0010
0001
0010
0100
,
1000
0000
0000
1000
0000
0000
0001
0000
0000
0001
0000
0000
1000
0000
0100
0000
,
0010
0000
0000
0001
0000
0000
0100
0000
0010
0000
0000
1000
0000
0000
0001
0000
,
0010
0010
0000
0100
0100
0000
1000
1000
,
0000
0001
0001
0000
1001
0000
0110
0000
,
0100
0010
1000
0010
0000
1000
0001
1000
,
0001
0010
0001
0010
0100
0010
0001
0000
,
1000
0010
1000
0010
0100
0010
0100
0001
,
1000
0001
1000
0100
0010
0001
0010
0001
,
0010
0100
1000
0100
0000
1000
0001
1000
,
0001
0100
0001
0100
0010
0100
0010
0000
,
1000
1000
0001
0001
0100
0100
0010
0010
,
0000
1000
1001
0000
0001
1000
0010
0000
,
0100
0010
0100
0002
0000
1003
0010
1000
,
0001
0100
0001
0010
0100
0010
0002
0000
,
1003
0010
1000
0010
0100
0001
0010
0001
,
0010
0100
1000
0001
1000
0100
1000
0001
,
0100
0010
0100
0002
0000
1003
0001
1000
,
0010
1000
0001
0100
0001
0100
0010
0000
,
1000
0001
0100
0001
1000
0010
1000
0100
,
0010
0001
0010
0100
1000
0001
2002
0000
,
0000
0000
0000
0000
,
0000
0000
0000
0000
,
0000
0000
0000
3003
;

//---------------dance-single - ----------------
#NOTES:
     dance-single:
     :
     Easy:
     5:
     0.365499,0.402539,0.040355,0.201774,0.000000,287.000000,5.000000,25.000000,0.000000,0.000000,0.000000,0.365499,0.402539,0.040355,0.201774,0.000000,287.000000,5.000000,25.000000,0.000000,0.000000,0.000000:
0000
0000
0000
0000
,
0000
0000
0000
0000
,
0000
0000
0000
0000
,
0001
0000
0100
0000
,
0010
0000
1000
0000
,
0100
0100
0000
0010
,
0010
0000
0001
0001
,
0000
1000
1000
0000
,
0010
0010
0000
0100
,
0002
0000
0100
0000
,
2003
0000
0010
0000
,
3002
0000
0100
0000
,
2003
0000
0001
0000
,
3010
0000
0100
0000
,
0010
0000
0100
0000
,
0001
1000
0001
1000
,
0020
0000
0000
0000
,
0130
0000
0000
0000
,
0000
0000
0000
0000
,
0001
0001
1000
1000
,
0010
0010
0100
0100
,
0001
0001
0010
0010
,
0100
0100
1000
1000
,
0100
0100
0010
0010
,
0001
0010
0100
1000
,
0100
0010
0001
1000
,
0001
1000
0100
1000
,
0010
0000
1000
0000
,
0001
0100
0001
0000
,
1000
0010
1000
0000
,
0010
0100
0010
0000
,
1000
0001
1000
0001
,
0100
0010
0100
0010
,
0200
0000
0320
0000
,
2030
0000
0000
0000
0002
0000
0000
3003
,
0200
0000
0000
0000
,
0000
0300
0000
0000
0000
0000
0000
0000
,
0001
0000
0000
1000
0000
0000
0000
0100
,
0010
0000
0000
0010
0001
0000
0000
0000
,
0100
0001
0100
0010
,
1000
0010
1000
0001
,
0100
0000
0000
0010
0000
0000
0000
1000
,
0001
0000
0000
0001
0100
0000
0000
0000
,
0010
0000
0000
1000
0000
0000
0100
0000
,
0000
0010
0000
0000
0001
0000
0001
0000
,
0000
0000
1000
0010
0000
0000
0100
0000
,
0010
0100
0010
0100
,
0001
1000
0100
1000
,
0001
0100
0001
1000
,
0010
0000
1000
0001
0000
0000
0100
0000
,
0010
0100
0001
1000
,
0100
0000
0000
1000
0000
0000
0010
0000
,
0000
1000
0001
0000
0100
0000
0010
0000
,
0002
0000
0000
2003
0000
0000
3020
0000
,
0000
0130
0000
0000
0010
0000
0010
0000
,
0210
0000
0000
0302
0000
0000
2003
0000
,
0000
3100
0000
0000
0010
0000
0010
0000
,
0001
0000
0000
0010
0000
0000
0100
0000
,
0000
1000
0000
0000
0010
0000
0100
0000
,
0001
1000
0001
1000
,
2002
0000
0000
0000
0000
0000
0000
3003
,
1000
0000
0010
0000
,
1000
0001
0010
0000
,
0100
1000
0100
0000
,
0010
0001
1000
0000
,
0001
0100
0001
0100
,
0010
1000
0010
1000
,
0020
0000
0000
0000
,
0230
0000
0000
0000
0000
0000
0000
0300
,
2002
0000
0000
0000
0000
0000
0000
3003
,
0001
1000
0001
1000
,
0001
1000
0001
1000
,
0001
0000
0000
1001
,
1000
0000
0000
0001
0000
0000
0000
0010
,
0100
0000
0000
0100
1000
0000
0000
0000
,
0010
1000
0010
0100
,
0001
0100
0001
1000
,
0010
0000
0000
0100
0000
0000
0000
0001
,
1000
0000
0000
1000
0010
0000
0000
0000
,
0100
0000
0000
0001
0000
0000
0010
0000
,
0000
0100
0000
0000
1000
0000
1000
0000
,
0000
0000
0001
0100
0000
0000
0010
0000
,
0100
0010
0100
0010
,
1000
0001
0010
0001
,
1000
0010
1000
0001
,
0100
0000
0001
1000
0000
0000
0010
0000
,
0100
0010
1000
0001
,
0010
0000
0000
0001
0000
0000
0100
0000
,
0000
0001
1000
0000
0010
0000
0100
0000
,
0010
0000
0000
1000
0000
0000
0010
0000
,
0100
0001
1000
0002
,
1003
0010
1000
0001
,
0100
0001
1000
0010
,
0100
0000
0001
1000
0000
0000
1000
0000
,
0001
0010
0100
0010
,
0001
1000
0100
1000
,
0010
0100
0010
2002
,
0000
0000
0000
0000
,
0000
0000
0000
0000
,
0000
0000
0000
3003
;

//---------------dance-single - ----------------
#NOTES:
     dance-single:
     :
     Beginner:
     2:
     0.229446,0.241523,0.016142,0.112993,0.000000,183.000000,2.000000,14.000000,0.000000,0.000000,0.000000,0.229446,0.241523,0.016142,0.112993,0.000000,183.000000,2.000000,14.000000,0.000000,0.000000,0.000000:
// measure 0
0000
0000
0000
0000
,  // measure 1
0000
0000
0000
0000
,  // measure 2
0000
0000
0000
0000
,  // measure 3
1000
0000
0000
0000
,  // measure 4
0100
0000
0000
0000
,  // measure 5
0010
0000
0000
0100
,  // measure 6
0000
0000
1000
0000
,  // measure 7
0000
0001
0000
0000
,  // measure 8
0100
0000
0000
0010
,  // measure 9
2000
0000
0000
0000
,  // measure 10
3002
0000
0000
0000
,  // measure 11
2003
0000
0000
0000
,  // measure 12
3002
0000
0000
0000
,  // measure 13
1003
0000
0000
0000
,  // measure 14
0100
0000
0000
0000
,  // measure 15
1000
0000
0001
0000
,  // measure 16
2000
0000
0000
0000
,  // measure 17
3001
0000
0000
0000
,  // measure 18
0000
0000
0000
0000
,  // measure 19
1000
0000
0001
0000
,  // measure 20
0010
0000
0100
0000
,  // measure 21
1000
0000
0100
0000
,  // measure 22
0010
0000
0001
0000
,  // measure 23
1000
0000
0001
0000
,  // measure 24
0100
0000
0010
0000
,  // measure 25
0100
0000
0001
0000
,  // measure 26
1000
0000
0010
0000
,  // measure 27
1000
0000
0100
0000
,  // measure 28
1000
0000
1000
0000
,  // measure 29
0001
0000
0001
0000
,  // measure 30
0100
0000
0100
0000
,  // measure 31
0001
0000
0100
0000
,  // measure 32
0010
0000
0100
0000
,  // measure 33
0001
0000
1000
0000
,  // measure 34
0002
0000
1003
0000
,  // measure 35
2000
0000
0000
0000
,  // measure 36
3000
0000
0000
0000
,  // measure 37
1000
0000
0000
0001
0000
0000
0000
0000
,  // measure 38
0100
0000
1000
0000
,  // measure 39
0010
0000
1000
0000
,  // measure 40
0001
0000
0100
0000
,  // measure 41
0010
0000
0000
0100
0000
0000
0000
0001
,  // measure 42
1000
0000
0010
0000
,  // measure 43
0100
0000
0000
0001
0000
0000
0010
0000
,  // measure 44
0000
0100
0000
0000
1000
0000
1000
0000
,  // measure 45
0000
0000
0001
0100
0000
0000
0010
0000
,  // measure 46
0000
0100
0000
0010
,  // measure 47
0000
0001
0000
0100
,  // measure 48
0000
0010
0000
1000
,  // measure 49
0000
0000
0001
1000
0000
0000
0010
0000
,  // measure 50
0000
0100
0000
0001
,  // measure 51
0000
0000
0000
0010
0000
0000
0100
0000
,  // measure 52
0000
1000
0001
0000
0010
0000
0000
0000
,  // measure 53
1000
0000
0000
0001
0000
0000
0100
0000
,  // measure 54
0000
0010
0000
0000
0100
0000
0000
0000
,  // measure 55
0010
0000
0000
1000
0000
0000
0001
0000
,  // measure 56
0000
0010
0000
0000
0100
0000
0000
0000
,  // measure 57
1000
0000
0000
0100
0000
0000
0010
0000
,  // measure 58
0000
0001
0000
0000
0100
0000
0000
0000
,  // measure 59
1000
0000
0001
0000
,  // measure 60
2000
0000
0000
0000
,  // measure 61
3001
0000
0100
0000
,  // measure 62
0001
0000
0100
0000
,  // measure 63
0010
0000
0010
0000
,  // measure 64
0100
0000
0001
0000
,  // measure 65
1000
0000
0001
0000
,  // measure 66
0100
0000
0001
0000
,  // measure 67
2000
0000
0000
0000
,  // measure 68
3002
0000
0000
0000
,  // measure 69
0203
0000
0000
0000
,  // measure 70
0310
0000
1000
0000
,  // measure 71
0001
0000
0100
0000
,  // measure 72
0010
0000
0000
1001
,  // measure 73
0001
0000
0000
1000
0000
0000
0000
0000
,  // measure 74
0010
0000
0001
0000
,  // measure 75
0100
0000
0100
0000
,  // measure 76
1000
0000
1000
0000
,  // measure 77
0100
0000
0000
0010
0000
0000
0000
0000
,  // measure 78
0001
0000
0100
0000
,  // measure 79
0010
0000
0000
1000
0000
0000
0100
0000
,  // measure 80
0000
0010
0000
0000
0001
0000
0000
0000
,  // measure 81
0000
0000
1000
0010
0000
0000
0100
0000
,  // measure 82
0000
0100
0000
0100
,  // measure 83
0000
1000
0000
1000
,  // measure 84
0000
0100
0000
1000
,  // measure 85
0000
0000
1000
0001
0000
0000
0100
0000
,  // measure 86
0000
0100
0000
1000
,  // measure 87
0000
0000
0000
1000
0000
0000
0010
0000
,  // measure 88
0000
1000
0001
0000
0100
0000
0000
0000
,  // measure 89
0100
0000
0000
0001
0000
0000
0100
0000
,  // measure 90
0000
1000
0000
2000
,  // measure 91
3001
0000
0001
0000
,  // measure 92
0010
0000
0001
0000
,  // measure 93
1000
0000
1000
0001
0000
0000
0001
0000
,  // measure 94
0000
0100
0000
0010
,  // measure 95
0000
1000
0000
0010
,  // measure 96
0000
0100
0000
2002
,  // measure 97
0000
0000
0000
0000
,  // measure 98
0000
0000
0000
0000
,  // measure 99
0000
0000
0000
3003
;
