#TITLE:EVOLUTION;
#SUBTITLE:;
#ARTIST:TERRA;
#TITLETRANSLIT:;
#SUBTITLETRANSLIT:;
#ARTISTTRANSLIT:;
#CREDIT:;
#BANNER:EVOLUTION-bn.PNG;
#BACKGROUND:EVOLUTION-bg.png;
#LYRICSPATH:;
#CDTITLE:;
#MUSIC:EVOLUTION.mp3;
#OFFSET:0.000;
#SAMPLESTART:48.700;
#SAMPLELENGTH:12.000;
#SELECTABLE:YES;
#BPMS:0.000=165.000;
#STOPS:66.000=0.160
,66.500=0.020
,263.500=0.100
,264.000=0.080
,264.500=0.020
,265.000=0.140
;
#BGCHANGES:0.000=EVOLUTION.avi=1.000=1=0=0,
99999=-nosongbg-=1.000=0=0=0 // don't automatically add -songbackground-
;

//---------------dance-single - ----------------
#NOTES:
     dance-single:
     :
     Hard:
     15:
     0.791,0.872,0.357,0.376,0.366:
0000
0000
0000
0000
,
1001
0000
0001
0010
0002
0000
2003
0000
,
0002
0000
0000
3003
0110
0000
0010
0100
,
2000
0000
3200
0000
0002
0000
0000
0303
,
1010
0000
1000
0010
0001
0010
1000
0100
,
0010
0001
0010
0100
0010
0100
0010
0001
,
1001
1000
0001
1000
0001
1000
0001
1000
,
0001
1000
0001
1000
1001
0001
0100
0010
,
0100
0000
0010
0000
0100
0000
0010
0000
0100
0000
0010
0000
0100
0001
1000
0000
,
0001
0000
0000
1000
0000
0000
0010
0000
0100
0000
0000
0010
0000
0000
1000
0000
,
0001
0000
0000
0010
0000
0000
0100
0000
1000
0000
0000
0001
0000
0000
0100
0000
,
0010
0000
0000
1000
0000
0000
0100
0000
0010
0000
0000
0001
0000
0000
0010
0000
,
0100
0000
0000
1000
0000
0000
0010
0000
1010
0000
0000
0000
0000
0000
0001
1000
,
0001
0000
0000
1000
0000
0000
0010
0000
0100
0000
0000
1000
0000
0000
0100
0000
,
0001
0000
0000
0010
0000
0000
1000
0000
0010
0000
0000
0001
0000
0000
0010
0000
,
0100
0000
0000
1000
0000
0000
0100
0000
0010
0000
0000
0001
0000
0000
0010
0000
,
0100
0000
0000
1000
0000
0000
0010
0000
1001
0000
0110
0000
1000
0010
0100
0000
,
0001
0000
1000
0000
0100
1000
0100
0000
0010
0001
0010
0000
0100
0000
1000
0000
,
0010
0000
0100
0000
0001
0100
0001
0000
1000
0010
1000
0000
0001
0000
0010
0000
,
0100
0000
0010
0000
0001
0010
0100
0000
0010
0001
1000
0000
0010
0000
0100
0000
,
0001
0000
0010
0000
1000
0010
0001
0000
0000
0000
0001
0000
0010
0000
1000
0000
,
0001
0100
1000
0001
0000
1000
0100
0010
,
0001
1000
0100
0010
0000
0001
1000
0010
,
0100
0001
0010
0100
1000
0100
0010
0002
,
0000
0000
0000
0000
0000
0000
0000
0000
0013
0000
0001
0010
0001
0100
0001
0000
,
0000
1000
0000
0000
1001
0000
1000
0000
0001
0000
0100
0000
0010
0000
1000
0000
,
0000
0010
0000
0000
0110
0000
0010
0000
0100
0000
0001
0000
0010
0000
0100
0000
,
0000
1100
0000
0000
1000
0000
0100
0000
0010
0000
0001
0000
0010
0000
0200
0000
,
0000
0000
0000
0000
1300
0100
0010
0001
,
0000
0010
0000
0000
0011
0000
0000
0000
0001
0000
0100
0000
0010
0000
1000
0000
,
0000
1001
0000
0000
0001
0000
0100
0000
0010
0000
1000
0000
0001
0000
0020
0000
,
0000
0000
0130
0100
1000
1000
0001
0002
,
0000
0000
0103
0000
0000
0000
1000
0001
0100
0001
1000
0000
0010
0000
1000
0010
,
0100
0001
1000
0010
0100
0001
1000
0000
0001
0000
0100
0000
0010
0000
0000
0000
,
0120
1030
0000
1010
1000
0001
0201
0000
,
0301
1000
1002
0000
1003
0010
0100
0102
,
0000
0000
1003
0010
0100
0010
0210
0000
,
0301
1001
0000
1000
0010
1000
1200
0000
,
0310
0011
0000
0001
0010
0100
2100
0000
,
3001
0000
0010
0000
0022
0000
0000
0033
1000
0000
0100
0000
2200
0000
0000
3300
,
0001
0000
0100
0000
0220
0000
0000
0330
0001
0000
1000
0010
0100
0001
0010
0000
,
0100
0000
1000
0000
2002
0000
0000
0000
0000
0000
3003
0000
0001
1000
0010
0000
,
0000
0210
0000
0000
0310
0000
1000
0000
0000
1002
0000
0000
0103
0000
0010
0000
,
0000
2010
0000
0000
3001
0000
1000
0000
0000
0120
0000
0000
0130
0000
0001
0000
,
0000
0102
0000
0000
0103
0000
0010
0000
0001
0000
1000
0000
0100
0000
0001
0000
,
1000
0000
0010
0000
0001
0000
2000
0000
0000
0000
0000
0000
3100
0010
1000
0000
,
0000
0010
0000
0000
0100
0000
0001
0000
0000
0010
0000
0000
0100
0000
1000
0000
,
0000
0100
0000
0000
0010
0000
0000
0000
0001
0000
1000
0000
0100
0000
0011
0000
,
0010
0000
0000
0000
0001
0000
1000
0000
0000
0010
0000
0000
0100
0000
0101
0000
,
0000
0000
0110
0000
0000
0000
1001
0000
0000
0000
1010
0000
1000
0010
0100
0000
,
0001
0010
0100
1000
0010
0100
0001
0010
,
0100
1000
0100
0220
0000
0330
0000
2001
,
0000
0000
0000
3002
0000
0000
1003
0010
,
1000
0001
0100
0202
0000
0000
0003
0320
,
0000
1000
0000
1030
0010
0100
0001
1000
,
0100
1000
0001
2002
0000
0000
0003
3020
,
0000
0100
0000
0230
0000
0000
0310
1000
,
0010
0000
0001
0000
1000
0000
0100
0000
0000
0000
0001
0100
0002
0000
2000
0000
,
0000
0000
0000
0000
0000
0000
0000
0000
0003
0000
3001
1000
0010
0100
0001
0000
,
0000
0010
0000
0000
1000
0000
0010
0000
0000
0001
0000
0000
0100
0000
1000
0000
,
0000
0100
0000
0000
0001
0000
0010
0000
0000
0100
0000
0000
1000
0000
0010
0000
,
0000
0100
0000
0000
0001
0000
0010
0000
0000
0001
0000
0000
1000
0000
0100
0000
,
0000
0010
0000
0000
0001
0000
1001
0000
0000
0000
0000
0000
0001
1000
0010
0000
,
0000
0100
0010
0000
1000
0000
0001
0000
0000
0100
0010
0000
1000
0000
0001
0000
,
0000
0010
0100
0000
1000
0000
0010
0000
0000
0100
0001
0000
1000
0000
0100
0000
,
0000
0001
0100
0000
1000
0000
0001
0000
0000
1000
0010
0000
0100
0000
0110
0000
,
1010
0000
0101
0000
0011
0000
1001
0000
0001
0100
0010
0000
1000
0000
0001
0000
,
0010
0001
0010
0000
0100
1000
0100
0000
0010
0000
0001
0000
0100
0000
0010
0000
,
1000
0010
1000
0000
0001
0100
0001
0000
1000
0000
0100
0000
0010
0000
0100
0000
,
1000
0100
0010
0000
0100
1000
0001
0000
0100
0000
0010
0000
1000
0000
0100
0000
,
0001
0100
1000
0000
0000
0000
1000
0000
0100
0000
0001
0000
1000
0000
0010
0000
,
0001
1000
0000
0001
0010
0100
1000
0001
,
0010
0100
0000
1000
0001
0100
0010
1000
,
0100
0010
0001
0010
0100
2000
0000
0000
,
0000
0000
0000
0000
3100
0000
1000
0100
1000
0010
1000
0000
0000
0001
0000
0000
,
1001
0000
0001
0000
1000
0000
0010
0000
0100
0000
0001
0000
0000
0100
0000
0000
,
0110
0000
0100
0000
0010
0000
1000
0000
0100
0000
0010
0000
0000
0011
0000
0000
,
0001
0010
0100
1000
0100
0020
0000
0000
,
0000
0000
0000
0000
0031
0000
0010
0000
0100
0000
1000
0000
0000
0100
0000
0000
,
1100
0000
0100
0000
1000
0000
0010
0000
0100
0000
0001
0000
0000
1001
0000
0000
,
1000
0010
0100
0001
1000
0200
0000
0000
,
0310
0010
0001
0001
1000
1000
0000
1001
,
0000
0001
1000
0010
0100
0000
0210
0301
,
0000
0101
0001
1000
1020
0000
1030
0001
,
2001
0000
3001
0100
0010
2010
0000
0000
,
3001
0100
0010
0100
0120
0000
1030
1001
,
0000
0001
0100
0001
0021
0000
0130
1100
,
0000
1000
0100
0010
0012
0000
1003
0100
,
2200
0000
0000
3300
0001
0000
0010
0000
0022
0000
0000
0033
1000
0000
0010
0000
,
0220
0000
0000
0330
1000
0000
0001
0100
0010
1000
0100
0000
0010
0000
0001
0000
,
2002
0000
0000
0000
0000
0000
3000
0000
1003
0001
0100
0000
0000
0100
0010
0000
,
0100
0000
0001
0000
0000
0001
1000
0000
0010
0000
0100
0000
0000
0100
0001
0000
,
1000
0000
0001
0000
0000
0001
0100
0000
0010
0000
1000
0000
0000
1000
0010
0000
,
0001
0010
1000
0001
0010
1000
0001
0100
,
1000
0000
0002
0000
0000
0000
0000
0000
0013
0100
1000
0000
0000
0100
0000
0000
,
0010
0000
0001
0000
0000
1000
0000
0000
0010
0000
0100
0000
0000
0001
0000
0000
,
1000
0000
0001
1000
0100
1100
0000
0000
,
1000
0000
0001
0000
0000
0100
0000
0000
0010
0000
1010
0000
0000
0000
1001
0000
,
0000
0000
0110
0000
0000
0000
1001
0000
0001
0010
0100
0000
1000
0000
0001
0000
,
0100
0000
0010
1000
0010
0100
0000
0001
,
0010
1000
0010
0001
1000
0010
0000
0100
,
0001
0010
0100
1000
0100
0010
0000
0001
,
1000
0010
0100
0010
1000
0100
0000
0100
,
0010
0001
1000
0001
0010
0100
0000
1000
,
0100
0001
0100
0010
0001
0010
0000
0100
,
0010
0001
1000
0010
0100
0010
0000
0010
,
1000
0001
0100
0010
0100
0101
0000
0001
,
1000
0100
1000
0010
0100
0110
0000
0010
,
1000
0100
0010
0001
0010
0011
0000
0001
,
1000
0100
1000
0010
0100
1100
0000
1000
,
0100
0001
0010
0100
1000
1010
0000
0010
,
0100
0001
0010
0100
1000
1100
0000
0100
,
0010
0001
0010
0100
1000
1100
0000
0100
,
0010
0001
1000
0010
0001
0011
0000
0010
,
1000
0001
0100
0010
1000
1010
0010
0100
,
0001
1000
0001
0000
0100
0000
0010
0000
1000
0010
1000
0000
0001
0000
0100
0000
,
0001
1000
0001
0000
0010
0000
0100
0000
1000
0001
0100
0000
0010
0000
1000
0000
,
0010
0100
0001
0000
0010
0000
1000
0000
0010
0001
0100
0000
1000
0000
0100
0000
,
0001
0010
1000
0000
0010
0000
0001
0000
0100
1000
0001
0000
0010
0000
1000
0000
,
0100
0010
0001
0000
0010
0000
0100
0000
1000
0010
0001
0000
0010
0000
1000
0000
,
0001
0100
1000
0000
0100
0000
0001
0000
0010
0100
1000
0000
0001
0000
0010
0000
,
0100
1000
0100
0000
0010
0000
0001
0000
1000
0010
0100
0000
0001
0000
0010
0000
,
0100
1000
0010
0000
0001
0000
0010
0000
1000
0001
1000
0000
0010
0000
0100
0000
,
0001
1000
0001
0000
0100
0000
0010
0000
1000
0010
1000
0000
0001
0000
0100
0000
,
0001
1000
0001
0000
0010
0000
0100
0000
1000
0001
0100
0000
0010
0000
1000
0000
,
0010
0100
0001
0000
0010
0000
1000
0000
0010
0001
0100
0000
1000
0000
0100
0000
,
0001
0010
1000
0000
0010
0000
0001
0000
0100
1000
0001
0000
0010
0000
1000
0000
,
0100
0010
0001
0000
0010
0000
0100
0000
1000
0010
0001
0000
0010
0000
1000
0000
,
0001
0100
1000
0000
0100
0000
0001
0000
0010
0100
1000
0000
0001
0000
0100
0000
,
0010
0100
0001
0000
1000
0000
0001
0000
0100
0010
1000
0000
0001
0100
0010
0000
,
1000
0010
0100
0001
0010
0100
1000
0010
0200
0000
0000
0000
0301
0000
0020
0000
,
0000
0130
1000
0010
0200
0000
0310
0100
,
0002
0000
1003
0010
0100
0002
0000
0000
,
1003
0010
0001
0010
2000
0000
3001
0200
,
0000
0301
1000
0100
2000
0000
3001
0020
,
0000
0130
1000
0001
0020
0000
0130
1000
,
0002
0000
1003
0010
0002
0000
1003
0100
,
0002
0000
1003
0010
0002
0000
0013
0100
,
0001
0000
1000
0001
0100
0010
1000
0100
0010
0001
0100
0010
0100
0001
2000
0000
,
0000
3001
1000
0010
0200
0000
0310
0100
,
0002
0000
1003
0010
0100
0020
0000
0000
,
0130
0001
0010
1000
0020
0000
0031
2000
,
0000
3010
0100
0001
2000
0000
3010
2000
,
0000
3001
0100
0001
0020
0000
0130
1000
,
0020
0000
0130
0010
2001
0000
3010
0100
,
1002
0000
1003
0010
0201
0000
0301
1000
,
0020
0000
0000
0000
0000
0000
0000
0000
0130
0010
0100
0000
0000
0001
1000
0000
,
0001
0100
0001
0000
0000
1000
0010
0000
0100
0010
0100
0000
0000
0001
0010
0000
,
0100
1000
0100
0000
0000
0010
0001
0000
1000
0010
0100
0000
0000
0001
1000
0000
,
0010
0001
1000
0100
0001
0010
0100
1000
,
0010
0000
0200
0000
0000
0000
0000
0000
0310
1000
0001
0000
0000
0101
0000
0000
,
1010
0000
0101
0000
0000
0011
0000
0000
1100
0000
1001
0000
0000
0110
0000
0000
,
1001
0000
0001
0100
0010
2000
0000
0000
,
3010
0000
0100
0000
0000
0010
0000
0000
0100
0001
1000
0000
0010
0000
0100
0000
,
0001
1000
0010
0000
1000
0000
0010
0100
0001
1000
0001
0000
0000
0100
0010
0000
,
1000
0001
0100
0000
0000
0001
0010
0000
0100
1000
0010
0000
0000
0100
0001
0000
,
1000
0010
0100
0000
0000
0001
1000
0000
0100
0010
0001
0000
0000
0010
1000
0000
,
0010
0001
1000
0000
0010
0000
0100
0000
0001
0000
0010
0000
0100
0000
1000
0000
,
0010
0000
0100
0000
0001
0000
1000
0000
0010
1000
0001
0000
0000
0100
0010
0000
,
0001
0010
1000
0000
0000
0001
0100
0000
0010
1000
0001
0000
0000
0010
1000
0000
,
0010
0001
0100
0000
0000
0010
1000
0000
0001
0100
0001
0000
0000
1000
0001
0000
,
0100
0010
1000
0000
0000
0001
0100
0000
0010
1000
0010
0000
0000
0100
0001
0000
,
1000
0010
0100
0000
0001
0000
1000
0010
0100
0001
2000
0000
0000
0000
0000
0000
,
3001
1000
0020
0000
0000
0000
0000
0000
0130
0001
1000
0000
0010
0100
0001
0000
,
1000
0010
0100
0000
0001
0010
0100
1000
0100
0010
0002
0000
0000
0000
1003
0000
,
0010
0100
0001
0010
0100
1000
0010
0100
,
0010
0100
0001
0010
0100
0001
0000
1000
,
0010
0100
1000
0100
0010
0001
1000
0001
,
1000
0010
0100
1000
0100
0001
0000
0010
,
1000
0010
0001
0100
1000
0100
0000
0010
,
1000
0001
0010
0100
1000
0010
0000
0100
,
0001
0010
0100
1000
0010
0100
0010
1000
,
0001
0100
0000
2002
0000
0000
0000
0000
,
0000
0000
0000
0000
,
0000
0000
0000
0000
,
3003
0000
0000
0000
;

//---------------dance-single - Copied from----------------
#NOTES:
     dance-single:
     Copied from:
     Medium:
     12:
     0.549,0.570,0.088,0.222,0.023:
0000
0000
0000
0000
,
2000
0000
3001
0010
0002
0000
0203
0000
,
0302
0000
0000
0000
0203
0000
0301
1000
,
0002
0023
0230
0000
,
2300
0000
3001
1000
0001
1000
0001
1000
,
0020
0000
0000
0000
0000
0000
0000
0030
,
2020
0000
0000
0000
,
0000
0000
0000
3030
2002
0000
0000
0000
,
0000
0000
0000
0000
0000
0000
0000
0000
0000
0000
3003
0000
1000
0001
1000
0000
,
0010
0000
0000
0010
0100
0000
0000
0100
,
0001
0000
0000
0001
1000
0000
0000
1000
,
0100
0000
0000
0100
0010
0000
0000
0010
,
0001
0000
0000
0000
0000
0000
0001
0000
1001
0000
0000
0000
0000
0000
1000
0001
,
1000
0000
0000
0001
0100
0000
0000
0100
,
0010
0000
0000
0010
1000
0000
0000
1000
,
0001
0000
0000
0001
0100
0000
0000
0100
,
0010
0000
0000
0010
1000
0001
0000
1000
,
0001
1000
0000
0001
0100
0010
0000
1000
,
0010
1000
0000
0001
0100
0001
0000
1000
,
0010
0100
0000
0001
0010
1000
0000
1000
,
0010
0001
0010
0001
0000
1000
0010
1000
,
0000
0000
0001
0100
0000
0001
0010
0001
,
0000
0000
1000
0100
0000
1000
0100
0010
,
0000
0100
0010
0001
1000
0100
0010
0002
,
0000
0000
0000
0000
0013
0100
1000
0100
,
0000
0000
1100
0000
1000
0001
0010
0001
,
0000
0000
0101
0000
0100
0010
1000
0010
,
0000
0000
0100
0001
1000
0010
0100
0020
,
0000
0000
0000
0000
1030
0001
0100
0010
,
0000
0000
0110
0000
0100
0001
1000
0001
,
0000
0000
1000
0010
0100
0001
1000
0002
,
0000
0000
0000
1003
0010
0100
0000
0002
,
0000
2003
0000
3020
0000
0230
0000
0301
,
0000
1001
0000
1000
0100
1000
0010
0000
,
0100
0100
0000
0001
1000
0010
0100
0000
,
0001
1000
0001
0000
0100
0010
0100
0020
,
0000
0000
1030
0001
0010
0100
1000
0000
,
0001
0001
0000
1000
0010
1000
0100
0000
,
0010
0010
0000
0001
0010
0100
1000
0000
,
0001
0010
0001
0000
1000
0100
1000
0000
,
0010
0100
0020
0000
1030
0001
0200
0000
,
0310
0000
1000
0000
0002
0000
0000
0000
0000
0000
0000
0000
1003
0010
1000
0000
,
0000
0000
0001
0100
0000
0000
0100
0010
,
0000
0000
0010
1000
0000
0000
1000
0001
,
0000
0000
0001
0100
0000
0010
1000
0001
,
0000
0000
0000
0000
0100
0000
0020
0000
0000
0000
0000
0000
0130
0001
0100
0000
,
0000
0000
0001
1000
0000
0000
1000
0010
,
0000
0000
0110
0000
0100
0001
1000
0010
,
0000
0000
0000
0000
0100
0000
0100
0000
0000
0010
0000
0000
1000
0000
1001
0000
,
0000
0110
0000
1001
0000
1000
0010
0100
,
0001
0000
1000
0010
0100
0000
0001
0010
,
0100
0000
1000
0002
0000
0000
0000
0203
,
0000
0000
0000
0302
0000
0000
0103
0001
,
0100
0000
0010
2000
0000
0000
0000
3020
,
0000
0100
0000
0130
0001
0100
0000
0010
,
1000
0010
0100
0002
0000
0000
0000
2003
,
0000
3020
0000
0230
0000
0000
0310
1000
,
0001
0000
0100
0001
0000
1000
0002
2000
,
0000
0000
0000
0000
0000
0000
0000
0000
0003
0000
3001
1000
0001
0000
0100
0000
,
0000
0000
0100
0010
0000
0000
0010
1000
,
0000
0000
1000
0001
0000
0000
0001
0010
,
0000
0000
0010
0100
0000
0000
0100
1000
,
0000
0000
0000
0000
1000
0000
1001
0000
0000
0000
0000
0000
0001
1000
0001
0000
,
0000
0000
1000
0010
0000
0000
0010
0100
,
0000
0000
0100
0001
0000
0000
0001
1000
,
0000
0000
1000
0010
0000
0000
0010
0100
,
0100
0010
0100
0000
0000
0001
1000
0001
,
0000
1000
0010
0100
0000
0001
0100
0001
,
0000
1000
0010
1000
0000
0001
0100
0010
,
0000
1000
0100
0001
0000
0001
0100
1000
,
0100
1000
0000
0001
0100
0001
0000
0000
,
1000
0010
0000
1000
0100
1000
0000
0000
,
0001
0010
0000
0001
0010
0100
0000
0010
,
0100
1000
0001
0010
0100
2000
0000
0000
,
0000
0000
3100
0010
0001
0010
0000
0000
,
0011
0000
0001
1000
0100
1000
0000
0000
,
1010
0000
0010
0100
0001
0100
0000
0000
,
0010
1000
0001
0100
0010
0200
0000
0000
,
0000
0000
0301
1000
0010
0100
0000
0000
,
0010
0100
0010
1000
0001
1000
0000
0000
,
0001
0100
0010
1000
0001
2000
0000
0000
,
0000
3001
1000
0001
0000
1000
0000
1001
,
0000
0001
0010
0001
0100
0000
0010
0010
,
0000
1000
0001
0100
0010
0000
1000
0001
,
1000
0000
0010
0100
0010
0200
0000
0000
,
0301
1000
0100
0010
0001
0000
1000
1000
,
0000
0001
0100
0001
0010
0000
0100
0100
,
0000
1000
0100
0010
0001
0000
1000
0100
,
1000
0000
0001
0010
0001
0000
0100
0010
,
0200
0000
0301
1000
0020
0000
0130
0001
,
2000
0000
0000
0000
0000
0000
0000
0000
3001
0100
0001
0000
0000
0000
0000
0000
,
1000
0010
0000
0000
0010
0100
0000
0000
,
0100
0001
0000
0000
0001
1000
0000
0000
,
1000
0010
0000
0100
0001
1000
0000
0000
,
0010
0000
0200
0000
0000
0000
0000
0000
0310
1000
0010
0000
0000
0000
0000
0000
,
1000
0001
0000
0000
0001
0100
0000
0000
,
0110
0000
0010
1000
0001
0100
0000
0000
,
0010
0000
0010
0000
0000
0100
0000
0000
0001
0000
1001
0000
0000
0000
0110
0000
,
0000
1001
0000
0010
0100
0010
0000
1000
,
0001
1000
0000
0010
0100
0010
0000
0100
,
0001
1000
0000
0001
1000
0010
0000
0100
,
0001
1000
0000
0001
1000
0100
0000
0010
,
0001
1000
0000
0100
1000
0010
0000
0100
,
0010
0100
0000
0010
0100
0010
0000
1000
,
0100
0001
0000
0001
0100
1000
0000
0001
,
0100
0001
0000
1000
0010
1000
0000
0010
,
1000
0001
0000
0100
0010
1001
0000
0001
,
1000
0010
0000
1000
0000
1000
0000
0001
,
0100
0010
0000
0100
0000
0100
0000
0001
,
1000
0001
0000
1000
0000
1000
0000
0010
,
0100
0010
0000
0100
0000
0100
0000
0001
,
0010
0100
0000
1000
0000
1000
0000
0100
,
0010
0001
0000
0010
0000
0010
0000
0100
,
1000
0100
0000
0010
0000
0010
0000
0001
,
1000
0001
0000
0100
0000
0100
0010
0100
,
0001
0001
1000
0000
0000
1000
0001
0100
,
0001
0001
0100
0000
0000
0100
0001
0100
,
0010
0010
1000
0000
0000
0001
0100
0010
,
1000
1000
0001
0000
0000
0100
0010
1000
,
0100
0100
0010
0000
0000
0001
0010
0100
,
1000
1000
0001
0000
0000
0100
0010
1000
,
0100
0100
0010
0000
0000
0001
0010
0001
,
0100
0100
0010
0000
0000
0100
0001
1000
,
0010
0010
0100
0000
0000
0001
1000
0001
,
0010
0010
0100
0000
0000
1000
0010
1000
,
0001
0001
1000
0000
0000
0010
1000
0010
,
0100
0100
0001
0000
0000
1000
0001
0010
,
0100
0100
0010
0000
0000
0001
0010
1000
,
0010
0010
0001
0000
0000
1000
0010
0100
,
0010
0010
0200
0000
0301
0002
1003
2000
,
3010
0010
0100
0001
1000
0000
0001
1000
,
0000
0001
0100
0010
1000
0000
0010
1000
,
0100
0000
0010
0001
1000
0200
0000
0000
,
1300
0010
0100
0001
1000
0000
0010
0100
,
0000
0001
0100
0010
1000
0000
0001
1000
,
0000
0010
0100
0001
1000
0000
0100
1000
,
0010
0000
0100
0001
0100
0000
0010
1000
,
0001
0000
0100
0010
1000
0000
0001
1000
,
0010
0100
0001
1000
0020
0000
1030
1000
,
0000
0001
1000
0010
0100
0000
0010
0100
,
0001
0000
1000
0010
0100
0010
0000
0000
,
0100
0010
1000
0001
0010
0000
0001
0001
,
0000
1000
0010
0100
0001
0000
1000
1000
,
0000
0001
0100
0001
0010
0000
0100
1000
,
0010
0000
0100
0010
1000
0000
0010
0100
,
0001
0000
1000
0010
0100
0000
0001
1000
,
0020
0000
0000
0000
0000
0000
0000
0000
0130
0010
1000
0000
0000
0000
0010
0000
,
0000
0100
0000
0001
1000
0010
0000
0100
,
0000
0001
0000
1000
0010
0100
0000
0010
,
0000
1000
0000
0010
0100
0001
1000
0010
,
1000
0000
0002
0000
0000
0000
0000
0000
1003
0010
0100
0000
0000
0000
0010
0000
,
0100
0101
0000
0001
1000
1001
0000
1000
,
0001
0100
0000
0100
0001
2000
0000
0000
,
3010
0100
0000
0000
0100
0001
0000
0000
,
0001
1000
0000
0000
1000
0001
0100
0010
,
0100
0010
1000
0001
0010
0001
0100
0010
,
1000
0100
0010
0001
0010
0100
1000
0010
,
0100
0001
1000
0100
1000
0001
0010
0001
,
1000
0100
0000
0000
0100
0001
0100
0010
,
1000
0001
0100
0010
1000
0100
0010
0100
,
1000
0000
1000
0001
1000
0010
0000
0000
,
0100
0010
0000
0010
1000
0010
1000
0001
,
0010
0100
1000
0001
0100
0020
0000
0000
,
1030
2000
0000
0000
3001
0001
1000
0010
,
1000
0010
0100
0010
0100
0002
0000
1003
,
0010
1000
0000
0001
0100
0001
0000
1000
,
0010
0100
0000
0001
1000
0001
0000
1000
,
0010
0100
0000
0010
0100
0001
0000
1000
,
0010
1000
0000
0010
0100
0001
0000
0010
,
0100
1000
0000
0100
0010
0001
0000
0010
,
0100
1000
0000
0001
1000
0001
0000
0100
,
0010
0100
0000
0010
1000
0001
0000
1000
,
0010
1000
0000
2002
0000
0000
0000
0000
,
0000
0000
0000
0000
,
0000
0000
0000
0000
,
3003
0000
0000
0000
;

//---------------dance-single - Copied from Copied f----------------
#NOTES:
     dance-single:
     Copied from Copied f:
     Easy:
     6:
     0.435,0.436,0.115,0.188,0.000: // measure 1
0000
0000
0000
0000
,  // measure 2
2000
3001
0002
2003
,  // measure 3
3002
0000
2003
3001
,  // measure 4
2000
3002
0203
0000
,  // measure 5
0302
1003
0010
0100
,  // measure 6
0020
0000
0000
0000
,  // measure 7
2030
0000
0000
0000
,  // measure 8
0000
0000
3002
0000
,  // measure 9
0000
0000
0000
1003
,  // measure 10
0100
0000
0000
0100
0010
0000
0000
0010
,  // measure 11
1000
0000
0000
1000
0001
0000
0000
0001
,  // measure 12
0010
0000
0000
0010
0100
0000
0000
0100
,  // measure 13
1000
0000
0000
1000
0001
0000
0000
0001
,  // measure 14
1000
0000
0000
1000
0010
0000
0000
0010
,  // measure 15
0100
0000
0000
0100
0001
0000
0000
0001
,  // measure 16
1000
0000
0000
1000
0010
0000
0000
0010
,  // measure 17
0100
0000
0000
0020
1000
1030
0000
1000
,  // measure 18
0000
0001
0000
1000
0000
0010
0000
0100
,  // measure 19
0000
0001
0000
1000
0000
0001
0000
0100
,  // measure 20
0000
0010
0000
0001
0000
0100
0000
1000
,  // measure 21
0000
0010
0000
0100
0000
0001
1000
0001
,  // measure 22
0000
0010
0000
0100
0000
1000
0001
1000
,  // measure 23
0000
0010
0000
1000
0000
0100
0000
0010
,  // measure 24
0000
0001
0000
1000
0000
0010
1000
0002
,  // measure 25
0000
0000
0000
0000
1003
0010
0000
0010
,  // measure 26
0000
0000
1001
0000
0001
0100
0000
0100
,  // measure 27
0000
0000
0110
0000
0010
1000
0000
1000
,  // measure 28
0000
0001
0000
1000
0000
0010
0000
0200
,  // measure 29
0000
0000
0000
0000
0310
1000
0000
1000
,  // measure 30
0000
0000
0110
0000
0001
0100
0000
0100
,  // measure 31
0000
0010
0000
1000
0000
0001
0000
0200
,  // measure 32
0000
0000
0000
0301
1000
0001
0000
2002
,  // measure 33
0000
0000
0000
0000
0000
0000
0003
0001
,  // measure 34
3000
1001
0000
1000
0000
0001
0100
0000
,  // measure 35
0000
0100
0000
0001
0000
1000
0010
0000
,  // measure 36
0000
0100
0010
0000
0000
0100
0000
0020
,  // measure 37
0000
0000
1030
0001
0000
0001
1000
0000
,  // measure 38
0000
0010
0000
1000
0010
0000
0100
0000
,  // measure 39
0000
0010
0000
1000
0000
0001
0000
0100
,  // measure 40
0000
0001
1000
0000
0001
0001
0001
0000
,  // measure 41
0100
0100
0100
0000
0010
0010
0010
0000
,  // measure 42
1000
0001
0100
0000
0000
0010
0000
1000
,  // measure 43
0000
0001
0000
0100
0000
0010
0000
1000
,  // measure 44
0000
0001
0000
1000
0000
0010
0000
0100
,  // measure 45
0000
0001
0000
1000
0000
0010
0000
0001
,  // measure 46
0000
1000
0000
0200
0000
0000
0000
0301
,  // measure 47
0000
1000
0000
0001
0000
0100
0000
1000
,  // measure 48
0000
0001
0000
0010
0000
1000
0000
0010
,  // measure 49
0000
0000
0000
0100
0000
0000
0000
1001
,  // measure 50
0000
1001
0000
1001
0000
0000
0000
1000
,  // measure 51
0001
0000
0000
0001
0100
0000
0000
0100
,  // measure 52
0010
0000
1000
0020
0000
0000
0000
2030
,  // measure 53
0000
0000
0000
3200
0000
0000
0000
0310
,  // measure 54
0001
0000
0001
2000
0000
0000
0000
3010
,  // measure 55
0000
0100
0000
0001
0000
1000
0000
0010
,  // measure 56
0000
1000
0000
0020
0000
0000
0000
2030
,  // measure 57
0000
3020
0000
0230
0000
0000
0301
1000
,  // measure 58
0000
0001
0000
0100
0000
0010
0000
2002
,  // measure 59
0000
0000
0000
0000
0000
3003
0001
0100
,  // measure 60
0000
0000
0100
0010
0000
0000
0010
1000
,  // measure 61
0000
0000
1000
0001
0000
0000
0001
0010
,  // measure 62
0000
0000
0010
0100
0000
0000
0100
1000
,  // measure 63
0000
0010
0000
1001
0000
0000
0000
0001
,  // measure 64
0000
1000
0000
0010
0000
0100
0000
0001
,  // measure 65
0000
1000
0000
0001
0000
0010
0000
1000
,  // measure 66
0000
0100
0000
0001
0000
0100
0000
0001
,  // measure 67
1000
0001
1000
0000
0000
0010
0000
0001
,  // measure 68
0000
1000
0000
0100
0000
0010
0000
0001
,  // measure 69
0000
1000
0000
0100
0000
0010
0000
1000
,  // measure 70
0000
0001
0000
1000
0000
0001
0000
0100
,  // measure 71
0000
0010
0000
1000
0001
1000
0000
0010
,  // measure 72
0000
0100
0000
0001
1000
0001
0000
1000
,  // measure 73
0000
0010
0000
0100
0000
0001
0000
1000
,  // measure 74
0000
0010
0000
0100
0000
0002
0000
0000
,  // measure 75
0000
0000
1003
0010
0000
0010
0000
0000
,  // measure 76
1001
0000
0001
0100
0000
0100
0000
0000
,  // measure 77
0110
0000
0010
1000
0000
1000
0000
0001
,  // measure 78
0000
1000
0000
0010
0000
0200
0000
0000
,  // measure 79
0000
0000
0310
1000
0000
1000
0000
0000
,  // measure 80
0110
0000
0001
0100
0000
0100
0000
0010
,  // measure 81
0000
1000
0000
0001
0000
0200
0000
0000
,  // measure 82
0000
0301
1000
0001
0000
1001
0000
0001
,  // measure 83
0000
1000
0000
0001
0100
0000
0000
0100
,  // measure 84
0000
0001
0000
1000
0010
0000
0000
0100
,  // measure 85
0010
0000
0000
0100
0000
0020
0000
0000
,  // measure 86
1030
0001
0000
0001
1000
0000
0000
0010
,  // measure 87
0000
1000
0010
0000
0100
0000
0000
0010
,  // measure 88
0000
1000
0000
0001
0000
0100
0000
0001
,  // measure 89
1000
0000
0001
0001
0001
0000
0100
0100
,  // measure 90
0100
0000
0010
0010
0010
0000
1000
0001
,  // measure 91
0100
0000
0000
0010
0000
1000
0000
0001
,  // measure 92
0000
0100
0000
0010
0000
1000
0000
0001
,  // measure 93
0000
0100
0000
0010
0000
1000
0000
0001
,  // measure 94
0000
1000
0000
0010
0000
0100
0000
0001
,  // measure 95
0000
2000
0000
0000
0000
3001
0000
1000
,  // measure 96
0000
0010
0000
0100
0000
0001
0000
1000
,  // measure 97
0000
0010
0000
0000
0010
1000
0000
0000
,  // measure 98
0001
0100
0000
0000
0000
1001
0000
1001
,  // measure 99
0000
1001
0000
0000
0000
0010
0000
1000
,  // measure 100
0000
0001
0000
0010
0100
0010
0000
0100
,  // measure 101
0000
1000
0000
0001
1000
0001
0000
0100
,  // measure 102
0000
0010
0000
0100
1000
0100
0000
0010
,  // measure 103
0000
0100
0000
0001
1000
0001
0000
0100
,  // measure 104
0000
0010
0000
1000
0100
1000
0000
0001
,  // measure 105
0000
0100
0000
0001
1000
0001
0000
0100
,  // measure 106
0000
0010
0000
0100
0001
0100
0000
0010
,  // measure 107
0000
1000
0000
0000
0000
1001
0000
0001
,  // measure 108
1000
0001
0000
0000
0000
1010
0000
0010
,  // measure 109
1000
0010
0000
0000
0000
0101
0000
0001
,  // measure 110
0100
0001
0000
0000
0000
0110
0000
0010
,  // measure 111
0100
0010
0000
0000
0000
1001
0000
1000
,  // measure 112
0001
1000
0000
0000
0000
1010
0000
0010
,  // measure 113
1000
0010
0000
0000
0000
0101
0000
0100
,  // measure 114
0001
0100
0000
0000
0000
0110
0000
0010
,  // measure 115
0100
0010
0000
1000
0000
0010
0000
0100
,  // measure 116
0001
0001
1000
0000
0000
1000
0000
0001
,  // measure 117
1000
1000
0100
0000
0000
0100
0000
0010
,  // measure 118
0001
0001
1000
0000
0000
0010
0000
0100
,  // measure 119
0001
0001
1000
0000
0000
0010
0000
1000
,  // measure 120
0100
0100
0010
0000
0000
0001
0000
0010
,  // measure 121
0100
0100
1000
0000
0000
0010
0000
0100
,  // measure 122
0001
0001
1000
0000
0000
0001
0000
1000
,  // measure 123
0100
0100
0010
0000
0000
0001
0000
1000
,  // measure 124
0010
0010
0100
0000
0000
0001
0000
1000
,  // measure 125
0010
0010
0100
0000
0000
0001
0000
0100
,  // measure 126
0001
0001
1000
0000
0000
0010
0000
0100
,  // measure 127
0010
0010
1000
0000
0000
0001
0000
1000
,  // measure 128
0100
0100
0010
0000
0000
0001
0000
0100
,  // measure 129
1000
1000
0100
0000
0000
0001
0000
1000
,  // measure 130
0000
0010
0200
0000
0300
0002
0000
2003
,  // measure 131
0000
3001
0000
1000
0010
0000
0000
0010
,  // measure 132
0000
1000
0000
0001
0100
0000
0000
0010
,  // measure 133
0100
0000
0000
0010
0000
0200
0000
0000
,  // measure 134
0301
1000
0000
1000
0001
0000
0000
0100
,  // measure 135
0000
0001
0100
0000
0010
0000
0000
0100
,  // measure 136
0000
0001
0000
1000
0000
0010
0000
1000
,  // measure 137
0001
0000
1000
1000
1000
0000
0010
0010
,  // measure 138
0010
0000
0100
0100
0100
0000
0001
1000
,  // measure 139
0010
1000
0000
0001
0100
0000
0000
0100
,  // measure 140
0000
0001
0000
1000
0010
0000
0000
0100
,  // measure 141
0010
0000
0000
0100
0000
0020
0000
0000
,  // measure 142
1030
0001
0100
0001
1000
0000
0010
0010
,  // measure 143
0000
1000
0010
0000
0100
0000
0100
0010
,  // measure 144
0000
1000
0000
0001
0000
0100
0000
0001
,  // measure 145
1000
0000
0001
0010
0100
0000
0100
1000
,  // measure 146
0010
0000
0010
0100
0001
0000
0001
1000
,  // measure 147
0020
0000
0000
0000
0030
1000
0000
0010
,  // measure 148
0000
0100
0000
0001
1000
0010
0000
0100
,  // measure 149
0000
0001
0000
1000
0010
0100
0000
0010
,  // measure 150
0000
1000
0000
0010
1000
0001
0000
0000
,  // measure 151
0100
0020
0000
0000
1030
0001
0000
0100
,  // measure 152
0001
0100
0000
0010
1000
0001
0000
0100
,  // measure 153
0001
1000
0000
0010
0100
0002
0000
0000
,  // measure 154
0013
0100
0000
0000
0100
1000
0000
0000
,  // measure 155
1000
0001
0000
0000
1000
0001
0000
0010
,  // measure 156
0000
0100
0000
1000
0000
0001
0000
0100
,  // measure 157
0000
0010
0000
1000
0000
0001
0000
1000
,  // measure 158
0000
0010
0000
1000
0000
0001
0000
0100
,  // measure 159
0010
1000
0000
0000
0000
0001
0000
0100
,  // measure 160
0000
0010
0000
1000
0000
0001
0000
0100
,  // measure 161
0010
0000
1000
0001
1000
0001
0000
0000
,  // measure 162
0100
0010
0000
1000
0010
0100
0000
0000
,  // measure 163
0001
1000
0000
0010
1000
0020
0000
0000
,  // measure 164
0130
0200
0000
0000
0301
0001
0000
1010
,  // measure 165
0000
1010
0000
0101
0000
0202
0000
0303
,  // measure 166
0000
1000
0000
0001
0100
0001
0000
1000
,  // measure 167
0000
0010
0000
0100
0001
1000
0000
0010
,  // measure 168
0000
0100
0000
0001
0100
0010
0000
1000
,  // measure 169
0000
0001
0000
0100
0010
1000
0000
0001
,  // measure 170
0000
0100
0000
0010
1000
0001
0000
0010
,  // measure 171
0000
0100
0000
1000
0001
1000
0000
0010
,  // measure 172
0000
0100
0000
0010
1000
0001
0000
0100
,  // measure 173
0000
0010
0000
2002
0000
0000
0000
0000
,  // measure 174
0000
0000
0000
0000
,  // measure 175
0000
0000
0000
0000
,  // measure 176
3003
0000
0000
0000
;
