#VERSION:0.81;
#TITLE:ダブステ列島恋物語;
#SUBTITLE:;
#ARTIST:kanone feat. せんざい;
#TITLETRANSLIT:Dubstep rettou koi monogatari;
#SUBTITLETRANSLIT:;
#ARTISTTRANSLIT:kanone feat. Sennzai;
#GENRE:;
#ORIGIN:;
#CREDIT:;
#BANNER:Dubstep rettou koi monogatari-bn.png;
#BACKGROUND:Dubstep rettou koi monogatari-bg.png;
#PREVIEWVID:;
#JACKET:Dubstep rettou koi monogatari-jacket.png;
#CDIMAGE:;
#DISCIMAGE:;
#LYRICSPATH:;
#CDTITLE:;
#MUSIC:Dubstep rettou koi monogatari.mp3;
#OFFSET:0.240000;
#SAMPLESTART:58.952927;
#SAMPLELENGTH:12.000000;
#SELECTABLE:YES;
#BPMS:0.000=74.000,
65.000=148.000;
#STOPS:;
#DELAYS:;
#WARPS:;
#TIMESIGNATURES:0.000=4=4;
#TICKCOUNTS:0.000=4;
#COMBOS:0.000=1;
#SPEEDS:0.000=1.000=0.000=0;
#SCROLLS:0.000=1.000;
#FAKES:;
#LABELS:0.000=Song Start;
#BGCHANGES:;
#KEYSOUNDS:;
#ATTACKS:
;

//---------------dance-single - ----------------
#NOTEDATA:;
#CHARTNAME:;
#STEPSTYPE:dance-single;
#DESCRIPTION:;
#CHARTSTYLE:;
#DIFFICULTY:Hard;
#METER:14;
#RADARVALUES:0.680222,0.713822,0.304279,0.197370,0.727802,518.000000,37.000000,24.000000,0.000000,0.000000,0.000000,0.000000,0.000000,0.680222,0.713822,0.304279,0.197370,0.727802,518.000000,37.000000,24.000000,0.000000,0.000000,0.000000,0.000000,0.000000;
#CREDIT:;
#NOTES:
0000
0000
0000
0000
1000
0000
0000
0001
1001
0000
1000
0010
1000
0000
0000
0010
,
0110
0000
0001
0000
1000
0000
0000
0100
1100
0000
1000
0001
1000
0000
0001
0010
,
0100
1000
0001
0010
0100
0000
0000
1000
1010
0000
0010
0000
0110
0000
0000
0100
,
0101
0000
0000
0000
0000
0000
0001
0000
0000
0000
0000
0000
1000
0000
0000
0000
0010
0000
0000
0000
0100
0000
0000
0000
0001
0000
0000
0000
0010
0000
0000
0000
0100
0000
0000
0000
1000
0000
0000
0000
0000
0000
0010
0000
0000
0100
0000
0000
,
0010
1000
0001
1000
0100
0000
0100
0010
0011
0000
1000
0000
0010
0000
0100
0001
,
0100
0000
0010
0000
1000
0000
0001
1000
0100
0000
0010
0000
0001
0000
1000
0010
,
0100
0001
1000
0010
0200
0000
0302
0000
0023
0000
0230
0000
2300
0000
0000
0000
,
3020
0000
0130
0001
2000
0000
3200
0000
2300
0000
3002
0000
0023
0000
0031
1000
,
0001
1000
0100
0010
0100
0000
0000
1000
1100
0000
0010
0100
0010
0000
1000
0001
,
0101
0000
0000
0000
0000
0000
0100
0000
0000
0000
0001
0000
0010
0000
0000
0000
0000
0000
0100
0000
0000
1000
0000
0000
0100
0000
0000
0000
0000
0000
0010
0000
0000
0001
0000
0000
0010
0000
0000
0000
0000
0000
0100
0000
0000
1000
0000
0000
,
0001
0010
0100
1000
0001
0000
0000
1000
1010
0000
0010
0000
0100
0000
0010
0100
,
0010
0000
0000
1000
0001
0000
1000
0000
0000
0000
0010
0000
0100
0000
0000
0000
0000
0000
0001
0000
0000
1000
0000
0000
0100
0000
0000
0000
0000
0000
0010
0000
0000
0000
0000
0000
0001
0000
0000
0000
0000
0000
1000
0000
0000
0010
0000
0000
,
1000
0000
0001
0100
0001
0000
1000
0010
1000
0000
0001
0000
0100
0000
0010
1000
,
0001
0000
0000
0000
0000
0000
0100
0000
0000
0000
0001
0000
0010
0000
0000
0000
0000
0000
0100
0000
0000
1000
0000
0000
0001
0000
0000
0000
0000
0000
0010
0000
0000
0001
0000
0000
1000
0000
0000
0000
0000
0000
0001
0000
0000
0010
0000
0000
,
1000
0001
0100
1000
0010
0000
1000
1000
1000
0000
1001
0000
0000
0010
0000
0000
,
1000
0000
0000
0001
0000
0000
0000
0000
0000
1000
0000
0000
0010
0000
0000
0000
0000
0000
0010
0000
0000
0100
0000
0000
1001
0000
0000
0000
0000
0000
0100
0000
0000
0000
0000
0000
0010
0000
0000
0000
1000
0000
0000
0000
0010
0000
0000
0000
,
0100
0001
1000
2002
0000
0000
0000
0000
0000
0000
0000
0000
,
0000
0000
0000
0000
,
0000
0000
3003
0000
0010
1000
0010
1000
0001
0100
0001
0100
0010
0100
0010
1000
,
0100
0000
0000
1000
0000
0000
0100
0000
0000
0010
0000
0000
0001
0000
0010
0000
0100
0000
1000
0000
0100
0000
1000
0000
0010
0000
0100
0000
0010
0000
0100
0000
0001
0000
1000
0000
0001
0000
0000
0100
0000
0000
0000
0000
0000
0010
0000
0000
,
0100
0000
0010
1000
1002
0000
0000
0000
0103
0000
0000
0000
0101
0000
0001
0100
,
0010
0100
0001
0100
0010
0000
1000
0100
0010
0100
1000
0100
0010
0000
0001
1000
,
0100
1000
0001
1000
0200
0000
0000
0000
0310
0000
0000
0000
0101
0000
0001
1000
,
0001
1000
0100
0000
0100
0000
0010
0001
0010
0001
1000
0000
1000
0000
0010
0100
,
0010
0100
0001
0000
0001
0000
1000
0000
0010
0000
0100
0000
0101
0000
0001
1000
,
0001
1000
0100
0000
0100
0000
0010
0001
0010
0001
1000
0000
1000
0000
0010
0100
,
0010
0100
0001
0000
0001
0000
1000
0000
0010
0000
1000
0000
1001
0000
0001
0000
,
0100
0010
0100
0001
1000
0001
1000
0100
0010
0100
1000
0001
0010
0100
0010
0001
,
1000
0000
0000
0010
0000
0000
0100
0000
0000
1000
0000
0000
0200
0000
0000
0000
0000
0000
0310
0000
1000
0000
0001
0000
1000
0000
0001
0000
0100
0000
0010
0000
0000
0000
0000
0000
1000
0000
0000
0000
0000
0000
0001
0000
0000
0100
0000
0000
,
0001
0100
1000
0100
1000
0000
0001
0010
0001
0010
1000
0010
1000
0000
0001
1000
,
0001
1000
0010
0100
0010
0000
0000
0000
0100
0000
0000
0000
1001
0000
1000
0001
,
1000
0001
0010
0000
0010
0000
0100
1000
0100
1000
0001
0000
0001
0000
0100
0010
,
0100
0010
1000
0000
1000
0000
0001
0000
0100
0000
0010
0000
1010
0000
1000
0001
,
1000
0001
0010
0000
0010
0000
0100
1000
0100
1000
0001
0000
0001
0000
0100
0010
,
0100
0010
1000
0000
1000
0000
0001
0000
0100
0000
0001
0000
1001
0000
1000
0000
,
0010
0000
0000
0100
0000
0000
0010
0000
0000
1000
0000
0000
0001
0000
0000
1000
0000
0000
0001
0000
0000
0010
0000
0000
0100
0000
0000
0010
0000
0000
0001
0000
0000
1000
0000
0000
0100
0000
0010
0000
0100
0000
0010
0000
0001
0000
0000
0000
,
1000
0000
0010
0000
1000
0000
0001
0000
0000
0000
0000
0000
0101
0000
0000
0010
0000
0000
1000
0000
0000
0000
0000
0000
,
1010
0000
0100
0000
0001
0000
0000
0000
1000
0000
0001
1000
0001
0000
0100
0000
,
0010
0000
1000
0010
1000
0000
0001
0000
0101
0000
0100
0000
0110
0000
0010
0000
,
1010
0000
1001
0000
0001
0100
1000
0100
,
0001
0010
1000
0000
0110
0010
0001
0000
,
0101
0000
0010
0000
1000
0000
0000
0000
0010
0000
1000
0000
0001
0000
1000
0010
,
1000
0000
1100
0000
0010
0001
0101
0000
,
1000
0000
0010
0000
0110
0000
0000
0000
0100
0000
0001
0000
1000
0000
0010
0100
,
0001
0010
0100
1000
0001
0000
0000
0000
0100
0000
0010
0000
1010
0000
0000
0000
,
1001
0000
0000
0000
0100
0000
0000
0000
0001
0010
0001
1000
0100
1000
0010
0100
,
1000
0100
0001
0010
0100
0000
0000
0000
1000
0010
1000
0001
0100
0001
0010
0100
,
0010
0001
1000
0010
0100
0001
0010
0001
1000
0100
0010
0001
0100
0000
0100
0000
,
0001
1000
1001
0000
0000
0000
0000
0000
,
0000
0000
0000
0000
,
0000
0000
0000
2001
,
0020
3000
0200
0030
0002
0300
2000
0003
,
0020
0000
0000
3000
0000
0000
0130
0010
0100
0000
0000
0000
0000
0000
0000
0000
0000
0000
0001
0000
0000
0000
0010
0000
,
0000
0000
0100
0000
0000
0000
1000
0000
0000
0000
0010
0000
0000
0100
0000
0000
0000
0001
0000
0000
0000
1000
0000
0000
,
0000
0010
0000
0000
0000
0000
0000
0000
0000
0000
0000
0000
0220
0000
0000
0000
0000
0000
0000
0000
0000
0000
0000
0000
,
0000
0000
0000
0000
,
0330
0000
0000
0000
;

//---------------dance-single - ----------------
#NOTEDATA:;
#CHARTNAME:;
#STEPSTYPE:dance-single;
#DESCRIPTION:;
#CHARTSTYLE:;
#DIFFICULTY:Medium;
#METER:12;
#RADARVALUES:0.447607,0.460530,0.098685,0.148028,0.201482,351.000000,12.000000,18.000000,0.000000,0.000000,0.000000,0.000000,0.000000,0.447607,0.460530,0.098685,0.148028,0.201482,351.000000,12.000000,18.000000,0.000000,0.000000,0.000000,0.000000,0.000000;
#CREDIT:;
#NOTES:
0000
0000
0000
0000
0001
0000
0000
1000
0010
0000
0100
0000
0001
0000
0000
0010
,
0100
0000
0010
0000
0001
0000
0000
1000
0010
0000
0100
0000
0001
0000
1000
0000
,
0100
0000
0010
0000
0001
0000
0000
1000
0100
0000
0010
0000
0001
0000
0000
0100
,
0010
0000
1000
0000
0002
0000
0000
0000
2003
0000
0000
0000
3010
0000
0000
0100
,
0010
0000
1000
0000
0001
0000
0000
0100
0001
0000
1000
0000
0010
0000
0000
1000
,
0001
0000
0100
0000
0010
0000
0000
1000
0100
0000
0010
0000
0001
0000
0000
0010
,
0100
1000
0100
0010
0001
0100
0002
0000
,
1003
0000
0010
0100
0010
0000
0100
0000
0001
0000
1000
0000
0200
0000
0000
0000
,
0310
0000
0001
0000
0100
0000
0000
0010
1000
0000
0010
0000
0100
0000
0000
0001
,
0010
0000
0001
0000
0010
0000
0000
0100
1000
0000
0010
0000
0100
0000
0001
0000
,
1000
0000
0010
0100
0010
0000
0000
1000
0010
0000
0100
0000
0001
0000
1000
0000
,
0001
1000
0001
0000
0100
0000
0001
1000
0100
0000
0010
0000
0001
0000
0100
0010
,
0100
0000
0001
0000
0100
0000
0010
1000
0010
0000
0100
0000
0001
0000
0010
0100
,
0010
0000
0100
0000
1000
0000
0100
1000
0100
0000
0010
0000
0001
0000
1000
0000
,
0010
0000
0100
0001
0100
0000
0010
0010
0010
0000
1001
0000
0000
0010
0000
0000
,
0000
0100
0000
0000
0010
0000
0100
0000
1001
0000
0100
0000
0010
0000
0000
0000
,
0100
2002
0000
0000
,
0000
0000
0000
0000
,
0000
3003
0010
1000
0100
0010
0001
0010
,
0100
0000
1000
0000
0002
0000
0000
0000
0000
0000
0000
0000
1003
0100
0000
0100
,
1000
0000
0001
1000
0020
0000
0000
0000
0130
0000
0000
0000
0001
0000
1000
0000
,
0001
0000
0100
0010
0100
0000
0001
0000
1000
0000
0001
0100
0001
0000
1000
0000
,
0100
0000
0010
0001
0010
0000
0000
0000
0100
0000
0000
0000
1000
0000
0001
1000
,
0001
0000
0100
0000
0100
0000
0010
0100
0010
0000
1000
0000
1000
0000
0001
0100
,
0001
0000
0010
0000
0010
0000
0000
0000
0100
0000
0000
0000
1000
0000
0001
1000
,
0001
0000
0100
0000
0100
0000
0010
0100
0010
0000
1000
0000
1000
0000
0001
0100
,
0001
0010
0010
0000
0100
0000
1000
0000
,
0001
0010
0100
1000
0010
0100
0010
0100
,
0001
1000
0020
0000
0000
0000
1030
0001
,
1000
0000
0010
0100
0010
0000
1000
0000
0001
0000
1000
0010
1000
0000
0001
0000
,
0010
0000
0100
1000
0100
0000
0000
0000
0010
0000
0000
0000
0001
0000
1000
0001
,
1000
0000
0010
0000
0010
0000
0100
0010
0100
0000
0001
0000
0001
0000
1000
0010
,
1000
0000
0100
0000
0100
0000
0000
0000
0010
0000
0000
0000
0001
0000
1000
0001
,
1000
0000
0010
0000
0010
0000
0100
0010
0100
0000
0001
0000
0001
0000
1000
0010
,
1000
0100
0100
0000
0010
0000
0001
0000
,
1000
0100
0010
0001
0100
0010
0100
0010
,
2000
0000
3001
0000
1000
0010
0100
0000
,
1010
0000
0001
0000
0100
0001
0100
0000
,
0001
0000
0101
0000
0001
1000
0100
0000
,
0010
0000
0011
0000
0001
0010
0100
1000
,
0001
0010
0100
0000
1000
0010
1000
0000
,
0001
0000
0010
0000
0100
0010
0001
0000
,
1000
0000
1100
0000
0100
0010
0100
0000
,
0010
0000
1001
0000
0100
0001
1000
0000
,
0001
0100
0010
0000
0100
0010
1000
0000
,
1001
0000
0100
0000
0001
0100
0010
0000
,
1000
0000
0110
0000
0100
0001
0100
0010
,
1000
0010
1000
0001
0100
0001
0010
0001
,
1000
0001
1001
0000
0000
0000
0000
0000
,
0000
0000
0000
0000
,
0000
0000
0000
2000
,
3200
0000
0320
0000
0032
0000
2000
0003
,
3020
0000
0000
0000
0000
0000
1030
0001
1000
0000
0000
0000
0000
0000
0000
0000
0000
0000
0000
0000
0000
0000
0000
0000
,
0000
0000
0000
0000
,
0000
0000
2002
0000
,
0000
0000
0000
0000
,
3003
0000
0000
0000
;

//---------------dance-single - ----------------
#NOTEDATA:;
#CHARTNAME:;
#STEPSTYPE:dance-single;
#DESCRIPTION:;
#CHARTSTYLE:;
#DIFFICULTY:Easy;
#METER:4;
#RADARVALUES:0.293705,0.299345,0.090461,0.106909,0.004112,226.000000,11.000000,13.000000,0.000000,0.000000,0.000000,0.000000,0.000000,0.293705,0.299345,0.090461,0.106909,0.004112,226.000000,11.000000,13.000000,0.000000,0.000000,0.000000,0.000000,0.000000;
#CREDIT:;
#NOTES:
0000
0000
1000
0000
0001
1000
0100
0000
,
0010
0001
0010
0000
0100
1000
0100
0000
,
0010
0001
0010
0000
1000
0010
1000
0000
,
0001
0100
0010
0000
0200
0000
0301
0000
,
1000
0010
1000
0000
0001
1000
0100
0000
,
0010
0001
0010
0000
0100
1000
0100
0000
,
0010
0001
0100
0000
0010
1000
0001
0000
,
1000
0010
1000
0000
0001
1000
0020
0000
,
0130
0001
1000
0000
1000
0010
0000
0100
,
0010
0100
0001
0000
1000
0010
0100
0000
,
1000
0001
0100
0000
0010
0100
0001
0000
,
1000
0001
0000
1000
0010
0100
0010
0000
,
1000
0001
1000
0000
0010
0100
0000
0010
,
0100
0001
0000
0100
0001
1000
0010
0000
,
1000
0000
0100
0000
0010
0000
0000
0000
0001
0000
1000
0000
0000
0100
0000
0000
,
0000
0010
1001
0010
,
1000
0220
0000
0000
,
0000
0000
0000
0000
,
0000
0330
0010
0000
1000
0000
0001
0000
,
0100
0020
0000
0130
,
0001
2000
0000
3001
,
0100
0010
0010
0000
1000
0100
0100
0000
,
0010
0001
0001
0000
1000
0000
0010
0000
,
1000
0010
0010
0000
0010
1000
1000
0000
,
0001
0010
0010
0000
0100
0000
1000
0000
,
0001
0100
0010
1000
,
0001
0010
0100
1000
,
0001
1000
0001
0100
,
0010
0200
0000
0301
,
1000
0010
0010
0000
0100
0001
0001
0000
,
1000
0100
0100
0000
0010
0000
0001
0000
,
1000
0010
0010
0000
0100
0001
0001
0000
,
1000
0100
0100
0000
0010
0000
0001
0000
,
1000
0010
0100
0001
,
1000
0100
0010
0001
,
1000
0010
0100
0001
,
0020
0031
1000
0100
,
0101
0001
0100
0010
,
1000
1001
0001
1000
,
0100
0110
0010
0001
,
1000
0100
1000
0010
,
0100
0001
1000
0100
,
0010
0011
0001
1000
,
0001
1001
1000
0010
,
0100
0001
0100
0010
,
1010
1000
0001
0100
,
0001
0101
0100
0010
,
1000
0100
0010
0001
,
1000
1001
0000
0000
,
0000
0000
0000
0000
,
0000
0000
0000
2000
,
0000
3002
0000
2003
,
3000
0000
0000
0000
,
0000
0000
0000
0000
,
0000
0000
2002
0000
,
0000
0000
0000
0000
,
3003
0000
0000
0000
;

//---------------dance-single - ----------------
#NOTEDATA:;
#CHARTNAME:;
#STEPSTYPE:dance-single;
#DESCRIPTION:;
#CHARTSTYLE:;
#DIFFICULTY:Beginner;
#METER:2;
#RADARVALUES:0.159776,0.207239,0.024671,0.074014,0.000000,124.000000,3.000000,9.000000,0.000000,0.000000,0.000000,0.000000,0.000000,0.159776,0.207239,0.024671,0.074014,0.000000,124.000000,3.000000,9.000000,0.000000,0.000000,0.000000,0.000000,0.000000;
#CREDIT:;
#NOTES:
// measure 0
0000
0001
1000
0010
,  // measure 1
0100
0100
0010
0010
,  // measure 2
0100
0100
0001
0001
,  // measure 3
1000
0100
0020
1030
,  // measure 4
0001
0001
1000
0010
,  // measure 5
0100
0100
0010
0010
,  // measure 6
0100
0010
0100
1000
,  // measure 7
0001
0001
1000
0100
,  // measure 8
0010
0001
0001
0000
,  // measure 9
0100
1000
0001
0010
,  // measure 10
0001
0010
0100
1000
,  // measure 11
0001
0000
0100
0100
,  // measure 12
0001
0001
0100
0000
,  // measure 13
0010
0000
1000
0100
,  // measure 14
0001
0100
1000
0000
,  // measure 15
0000
0100
1001
0100
,  // measure 16
0001
0020
0000
0000
,  // measure 17
0000
0000
0000
0000
,  // measure 18
0000
0030
0100
0000
0000
0000
1000
0000
,  // measure 19
0000
0200
0000
0310
,  // measure 20
0000
0002
0000
1003
,  // measure 21
0000
0100
0000
0010
,  // measure 22
0000
1000
0000
0100
,  // measure 23
0000
0100
0000
0001
,  // measure 24
0000
0100
0000
0001
,  // measure 25
0000
0010
0000
0001
,  // measure 26
0000
0100
0000
0001
,  // measure 27
0000
0001
0000
0010
,  // measure 28
0000
0020
0000
1030
,  // measure 29
0000
0100
0000
1000
,  // measure 30
0000
0010
0000
1000
,  // measure 31
0000
0100
0000
1000
,  // measure 32
0000
0010
0000
1000
,  // measure 33
0000
0100
0000
1000
,  // measure 34
0000
0010
0000
1000
,  // measure 35
0000
0100
0000
1000
,  // measure 36
0200
1300
0000
0010
,  // measure 37
0000
1000
0000
0100
,  // measure 38
0000
0001
0000
0001
,  // measure 39
0000
0010
0000
1000
,  // measure 40
0000
0010
0000
0100
,  // measure 41
0000
1000
0000
0010
,  // measure 42
0000
0100
0000
0001
,  // measure 43
0000
1000
0000
0100
,  // measure 44
0000
1000
0000
0100
,  // measure 45
0000
0001
0000
0010
,  // measure 46
0000
1000
0000
0100
,  // measure 47
0000
0010
0000
1000
,  // measure 48
0000
1001
0000
0000
,  // measure 49
0000
0000
0000
0000
,  // measure 50
0000
0000
0000
0020
,  // measure 51
0000
0000
0000
0130
,  // measure 52
0000
0000
0000
0000
,  // measure 53
0000
0000
0000
0000
,  // measure 54
0000
0000
2002
0000
,  // measure 55
0000
0000
0000
0000
,  // measure 56
3003
0000
0000
0000
;
