#TITLE:Dream Control;
#SUBTITLE:;
#ARTIST:C-YA;
#TITLETRANSLIT:;
#SUBTITLETRANSLIT:;
#ARTISTTRANSLIT:;
#GENRE:;
#CREDIT:;
#BANNER:_courier new 20px [alt] 10x10.png;
#BACKGROUND:;
#LYRICSPATH:;
#CDTITLE:;
#MUSIC:Dream Control.mp3;
#OFFSET:-0.020000;
#SAMPLESTART:35.519974;
#SAMPLELENGTH:12.000000;
#SELECTABLE:YES;
#DISPLAYBPM:128.000000:197.000000;
#BPMS:0.000000=197.000000
;
#STOPS:
;
#BGCHANGES:;
#KEYSOUNDS:;
#ATTACKS:;

//---------------dance-single - ----------------
#NOTES:
     dance-single:
     :
     Hard:
     14:
     0.844357,0.883395,0.763277,0.890489,0.234854,435.000000,78.000000,91.000000,0.000000,0.000000,0.000000,0.844357,0.883395,0.763277,0.890489,0.234854,435.000000,78.000000,91.000000,0.000000,0.000000,0.000000:
// measure 0
0000
0000
0000
0000
,  // measure 1
0000
2010
0000
0001
,  // measure 2
0000
3020
0000
0100
,  // measure 3
0000
2030
0000
0100
,  // measure 4
0000
0000
0000
0000
3002
0000
0000
0000
0000
0000
1003
0001
0100
0001
0100
0001
,  // measure 5
0010
0020
0000
0001
,  // measure 6
0000
2030
0000
0001
,  // measure 7
0000
3020
0000
0001
,  // measure 8
0030
0000
0001
1000
0001
1000
0010
0100
,  // measure 9
0001
0100
0101
0001
0010
0100
1000
0100
,  // measure 10
0010
0001
0011
0010
0100
1000
0100
0010
,  // measure 11
0001
0000
0010
0000
0001
1000
0001
1000
0001
1000
0001
1000
0001
1000
0001
1000
,  // measure 12
0001
1000
0001
1000
0020
0000
0000
0000
0000
0000
0000
0000
0130
0001
0100
0001
,  // measure 13
1000
0010
1000
0001
0100
0000
0000
0000
0000
0000
0010
0000
0100
0000
0000
0000
,  // measure 14
0100
0000
0010
0000
0000
0000
0010
1000
0010
1000
0010
1000
0001
0100
0001
0100
,  // measure 15
0001
1000
0100
0000
0100
0010
0000
0001
,  // measure 16
0000
0000
0010
0000
0000
0000
0100
0000
1000
0000
0001
0000
0000
0000
1000
0010
,  // measure 17
1000
0010
0100
0001
0100
0000
0000
0000
0000
0000
0010
0000
0100
0000
0020
0000
,  // measure 18
0000
2030
0000
3002
0000
0203
0000
0320
,  // measure 19
0000
0000
0130
0000
0000
0000
0001
1000
0020
0000
0000
0000
0000
0000
0000
0000
,  // measure 20
0000
0000
0000
0000
0000
0000
0130
0001
0100
0010
0100
0010
1000
0001
1000
0010
,  // measure 21
0100
0010
1000
0001
1000
0000
0000
0000
0000
0000
0100
0000
0010
0000
0000
0000
,  // measure 22
0010
0000
0001
0000
0000
0000
1000
0100
0010
0001
0010
0100
1000
0000
0010
0000
,  // measure 23
1000
0000
1001
0000
0001
0100
0000
2010
,  // measure 24
0000
3002
0000
0023
0000
2030
0000
3020
,  // measure 25
0000
0000
0031
0000
0000
0000
1000
0100
1000
0100
1000
0100
1000
0000
0100
0000
,  // measure 26
0010
0001
0000
1001
0000
1000
0010
0100
,  // measure 27
0000
0220
0000
0000
0000
0000
0000
0330
,  // measure 28
1001
0000
0010
1000
0001
1000
0010
0100
,  // measure 29
0010
0000
1001
0110
1001
0220
0330
2020
,  // measure 30
3030
0202
0303
1010
0100
2002
3003
1100
,  // measure 31
0100
0010
0001
0001
0100
1010
0000
0101
,  // measure 32
0000
0110
0000
1100
0100
2002
0000
0000
,  // measure 33
3003
0000
1010
0101
1010
0101
0000
0110
,  // measure 34
0000
1100
0000
0101
0000
0011
0000
1100
,  // measure 35
1000
0100
0010
0001
0001
0110
0000
0110
,  // measure 36
0100
0001
1000
1000
0001
0202
0000
0000
,  // measure 37
0303
0000
1001
0110
1001
0220
0330
0202
,  // measure 38
0303
2020
3030
0101
0010
2002
3003
0011
,  // measure 39
0010
0100
1000
1000
0010
0110
0000
1100
,  // measure 40
0000
0202
0000
0000
0000
0303
1020
0000
,  // measure 41
0230
0302
0000
2003
,  // measure 42
0000
0000
3020
0000
0130
0001
0000
1000
,  // measure 43
0000
0001
0000
0100
0010
0100
0000
0010
,  // measure 44
1000
1002
0000
0000
0000
0000
0000
0000
,  // measure 45
0000
0000
0000
0000
0100
0000
0100
0000
0103
0000
0000
0000
0010
0100
0010
0000
,  // measure 46
0100
0010
0100
0000
2002
0000
0000
0000
0000
0000
0000
0000
0000
0000
3003
0000
,  // measure 47
1001
1000
1010
0010
0110
0100
0101
0001
,  // measure 48
0101
0100
2100
0000
0000
0100
3100
0000
,  // measure 49
0000
0010
0100
0001
0000
0000
1001
0010
,  // measure 50
0110
0100
0101
0001
1000
0010
0001
1000
,  // measure 51
0100
1000
0001
0010
0100
0010
1000
0001
,  // measure 52
0100
0000
0010
0000
1000
0000
0100
0000
0010
0000
0001
1000
0001
0000
0000
0000
,  // measure 53
1000
0200
0010
0000
0310
0000
0101
0100
,  // measure 54
0101
0001
1001
0100
0010
1000
0001
0100
,  // measure 55
0001
1000
0100
1000
0010
0100
0001
0010
,  // measure 56
0001
1000
0200
0000
0000
0310
0001
1000
,  // measure 57
0000
2010
0000
0000
3001
0000
0100
0000
,  // measure 58
0001
0001
2100
0000
0010
0000
3001
0100
,  // measure 59
0000
0100
0220
0000
0000
0330
2000
0000
,  // measure 60
3001
0000
0201
0000
0000
0310
0010
1000
,  // measure 61
0001
0000
0100
0000
0001
1000
0001
1000
0001
1000
0010
0100
0010
0100
0010
1000
,  // measure 62
0010
1000
0001
0100
0002
0000
0000
0000
0000
0000
0003
0000
1001
0000
0000
0000
,  // measure 63
1010
0000
0220
0000
0000
0330
1000
0001
,  // measure 64
0100
0001
0000
0000
0100
0000
1001
0000
,  // measure 65
0001
0100
0010
0000
0010
2000
0000
3002
,  // measure 66
0000
0203
0000
0310
0100
0000
0100
0000
,  // measure 67
0220
0000
0000
0000
0000
0330
0001
1000
,  // measure 68
0100
0010
0000
0000
0001
0000
0101
0000
,  // measure 69
1000
0010
0100
0000
0100
0002
0000
0023
,  // measure 70
0000
0230
0000
2300
0000
3200
0000
0320
,  // measure 71
0000
0030
2002
0000
0000
3003
0001
1000
,  // measure 72
0010
0100
0000
0000
0010
0000
1001
0000
,  // measure 73
1000
0010
0100
0000
0100
0002
0000
2003
,  // measure 74
0000
3020
0000
0130
0010
0000
0100
0000
,  // measure 75
2002
0000
0000
0000
0000
3003
1000
0010
,  // measure 76
1000
1001
0000
0001
0201
0000
0320
0000
,  // measure 77
0130
1001
0000
0002
2003
3020
0230
0302
,  // measure 78
2003
3010
2002
0000
3003
0000
0000
0000
;

//---------------dance-single - ----------------
#NOTES:
     dance-single:
     :
     Medium:
     12:
     0.633268,0.768169,0.489280,0.733920,0.004893,328.000000,50.000000,75.000000,0.000000,0.000000,0.000000,0.633268,0.768169,0.489280,0.733920,0.004893,328.000000,50.000000,75.000000,0.000000,0.000000,0.000000:
0000
0000
0000
0000
,
0000
0002
0000
1000
,
0000
0203
0000
0010
,
0000
0320
0000
0100
,
0000
2030
0000
0001
,
0000
3002
0000
0100
,
0000
0023
0000
0100
,
0000
0032
0000
1000
,
0000
1003
0001
1000
,
0010
0110
0100
0001
,
0010
0110
0100
1000
,
0001
1000
0010
0100
0010
0100
0010
0100
,
0010
0100
0020
0000
0000
0000
0230
0000
,
0000
0000
0310
0000
0000
0001
1000
0000
,
0001
1000
0000
0010
0100
0010
1000
0100
,
0010
0001
1000
0000
0100
0010
0000
0001
,
0000
0010
0000
0100
1000
0100
0000
0010
,
0001
0010
0100
0000
0000
1000
0001
0200
,
0000
0320
0000
2030
0000
3002
0000
0203
,
0000
0310
0000
0010
0200
0000
0000
0000
,
0000
0000
0300
0010
1000
0010
1000
0010
,
1000
0010
0100
0000
0000
0001
1000
0000
,
1000
0001
0000
0100
0001
0100
0010
1000
,
0010
0000
1001
0000
0100
0010
0000
0200
,
0000
0302
0000
0023
0000
0230
0000
2300
,
0000
3001
0000
1000
0100
0010
0001
1000
,
0100
0010
0000
0011
0000
0001
1000
0001
,
0000
0201
0000
0000
0000
0000
0000
0300
,
1001
0000
0000
0000
,
0000
0000
1000
1000
0010
0010
0000
2002
,
3003
2002
3003
0010
0100
2002
3003
0001
,
0010
0100
1000
0001
1000
1000
0000
1010
,
0000
1010
0000
0010
0100
0202
0000
0000
,
0303
0000
0010
0010
0100
0100
0000
0202
,
0303
0202
0303
0202
0303
2002
3003
0010
,
0100
0010
1000
0001
1000
1000
0000
0010
,
0100
0001
0100
0001
0010
0010
0000
0000
,
0000
0000
0001
0001
0100
0100
0000
2002
,
3003
2002
3003
0100
0010
2002
3003
1000
,
0100
0010
0001
1000
0001
0001
0000
0101
,
0000
0202
0000
0000
0000
0303
0020
0000
,
2030
3002
0000
2003
,
0000
0000
3100
0000
0010
0001
0000
1000
,
0000
0001
0000
0100
0010
0100
0000
0010
,
0100
0020
0000
0000
0000
0000
0000
0000
,
0000
0000
0100
0100
0130
0000
0010
0000
,
0100
0000
2002
0000
0000
0000
0000
3003
,
1001
0110
0101
1100
,
0101
0000
1010
0000
0000
0100
0010
0000
,
0000
1000
0001
0100
0000
0000
0101
0000
,
1010
0000
2002
0000
0000
0000
0000
3003
,
0110
0101
0110
1010
,
1001
0000
0000
0000
0200
0000
0000
0000
0000
0000
0301
1000
0001
0000
0000
0000
,
1000
0020
0000
0000
0000
0000
0130
0000
,
1001
0000
0220
0000
0000
0000
0000
0330
,
1001
1010
1100
0011
,
0011
0000
2200
0000
3300
0010
0001
0010
,
0000
2002
0000
3003
0001
0000
0100
0000
,
0010
1000
0010
0000
0100
0000
0001
0100
,
0000
0220
0000
0000
0000
0330
2000
0000
,
3002
0000
0203
0000
0000
0310
0100
0010
,
0100
0001
1000
0001
1000
0010
1000
0010
,
1000
0001
0200
0000
0000
0300
1001
0000
,
0110
0000
0202
0000
0000
0303
0001
1000
,
0001
1000
0000
0000
0010
0000
0100
0000
,
0010
0100
0010
0000
1000
0001
0000
0100
,
0000
0010
0000
0100
0010
0000
0010
0000
,
0200
0000
0000
0000
0000
0000
0301
1000
,
0001
0100
0000
0000
0100
0000
0010
0000
,
1000
0100
0010
0000
0001
0010
0000
0010
,
0000
0100
0000
0100
0000
1000
0000
1000
,
0000
0000
0020
0000
0000
0000
0130
0001
,
0100
0010
0000
0000
0100
0000
0010
0000
,
0100
0010
0100
0000
0001
1000
0000
0010
,
0000
0100
0000
0001
1000
0000
0010
0000
,
0200
0000
0000
0000
0000
0000
0310
0100
,
0010
0010
0000
0100
0100
0000
0010
0000
,
1000
1000
0000
0001
0001
1000
1000
0010
,
0010
0100
2002
0000
3003
0000
0000
0000
;

//---------------dance-single - ----------------
#NOTES:
     dance-single:
     :
     Easy:
     6:
     0.408199,0.499310,0.078285,0.665421,0.000000,216.000000,8.000000,68.000000,0.000000,0.000000,0.000000,0.408199,0.499310,0.078285,0.665421,0.000000,216.000000,8.000000,68.000000,0.000000,0.000000,0.000000:
0000
0000
0000
0000
,
0000
0002
0000
0000
,
0000
0203
0000
0000
,
0000
0320
0000
0000
,
0000
2030
0000
0000
,
0000
3002
0000
0000
,
0000
0023
0000
0000
,
0000
0032
0000
0000
,
0000
1003
1000
1000
,
1000
0101
1000
1000
,
1000
0110
1000
1000
,
0001
0200
0000
0000
,
0000
0320
0000
0230
,
0000
0000
0301
0000
0000
0001
0000
0000
,
0001
0000
0000
1000
0000
0000
0010
0000
,
0010
0000
0010
0000
0000
0000
0000
0100
,
0000
0000
0000
0100
0000
0000
0001
0000
,
1000
0000
0001
0000
0000
0000
0000
2000
,
0000
3002
0000
2003
0000
3002
0000
2003
,
0000
3002
0000
0103
0200
0000
0000
0000
,
0000
0000
0000
0320
0000
0000
0000
0000
,
0000
0130
0000
0100
,
0000
0001
0000
0000
0100
0000
0100
0000
,
0100
0000
0001
0000
0000
1000
0000
0020
,
0000
0230
0000
0320
0000
0230
0000
0320
,
0000
0230
0000
0320
0000
0000
0000
0000
,
0000
0030
0000
0100
0000
0010
0000
0010
,
0000
0200
0000
0000
0000
0000
0000
0300
,
1001
0000
0000
0000
,
0000
0000
0001
0000
1000
0000
0000
0002
,
0000
2003
0000
3002
0000
2003
0000
3010
,
0000
0010
0000
0100
0000
0100
0000
0020
,
0000
0230
0000
0310
0000
2002
0000
0000
,
3003
0000
0010
0000
0100
0000
0000
0002
,
0000
0203
0000
0302
0000
0203
0000
0310
,
0000
1000
0000
0001
0000
0001
0000
0100
,
0000
0001
0000
0001
0000
0100
0000
0000
,
0000
0000
0001
0000
1000
0000
0000
0002
,
0000
2003
0000
3020
0000
0230
0000
0310
,
0000
0010
0000
1000
0000
0001
0000
0100
,
0000
2002
0000
0000
0000
3003
0020
0000
,
0000
0230
0000
0320
,
0000
0000
0130
0000
0010
0010
0000
0100
,
0000
0001
0000
0000
0000
1001
0000
0000
,
0000
0020
0000
0000
0000
0000
0000
0000
,
0000
0100
0130
0010
,
0010
0020
0000
0000
,
0130
0100
0100
0100
,
0100
0000
0020
0000
0000
0100
0130
0000
,
0000
0010
0000
0100
,
0100
0200
0000
0000
,
0310
0010
0010
0010
,
0010
0101
0000
0010
,
0000
2000
0000
0000
0000
0000
3001
0000
,
0001
0002
0000
0000
,
1003
1000
1000
1000
,
1000
0000
2000
0000
0000
3010
0000
0010
,
0000
0200
0000
0000
0301
0000
0001
0000
,
1000
0002
0000
0000
,
0000
0203
0000
0000
0000
0000
0310
0000
,
0010
0000
2000
0000
0000
3001
0000
0001
,
0000
0002
0000
0000
0000
0000
0000
0000
,
0000
0203
0000
0310
,
0010
0200
0000
0301
,
0001
0000
0100
0100
,
0010
0000
0010
0000
0000
0100
0000
0100
,
0000
0001
0000
1000
0000
0000
0010
0000
,
2000
0000
0000
3100
,
0100
0000
0010
0010
,
0001
0000
0001
0000
0000
0100
0000
0100
,
0000
0010
0000
0010
0000
1000
0000
1000
,
0000
0020
0000
0130
,
0100
0000
0001
0001
,
0100
0000
0100
0000
0000
0010
0000
0010
,
0000
0100
0000
0100
0000
0000
0010
0000
,
0020
0000
0000
0130
,
0010
0010
0000
0100
0100
0000
0010
0000
,
1000
1000
0000
0001
0001
0200
0000
0302
,
0000
1003
2002
0000
3003
0000
0000
0000
;

//---------------dance-single - ----------------
#NOTES:
     dance-single:
     :
     Beginner:
     3:
     0.273997,0.502490,0.029357,0.557779,0.000000,136.000000,3.000000,57.000000,0.000000,0.000000,0.000000,0.273997,0.502490,0.029357,0.557779,0.000000,136.000000,3.000000,57.000000,0.000000,0.000000,0.000000:
0000
0000
0000
0000
,
0000
2000
0000
0000
,
0000
3020
0000
0000
,
0000
0230
0000
0000
,
0000
0302
0000
0000
,
0000
2003
0000
0000
,
0000
3200
0000
0000
,
0000
2300
0000
0000
,
0000
3001
0000
0001
,
0000
1010
0000
0001
,
0000
0110
0000
0001
,
0000
2000
0000
0000
,
0000
3002
0000
0203
,
0000
0000
0300
0000
0000
1000
0000
0000
,
1000
0000
0000
0001
0000
0000
0100
0000
,
0000
0000
0100
0000
0000
0000
0000
0010
,
0000
0000
0000
0010
0000
0000
1000
0000
,
0000
0000
1000
0000
0000
0000
0000
0002
,
0000
0000
0000
2003
0000
0000
0000
3002
,
0000
0000
0203
0000
,
0000
0000
0000
0320
0000
0000
0000
0000
,
0000
0130
0000
0001
,
0000
1000
0000
0000
0001
0000
0000
0000
,
0001
0000
0000
0000
0000
1000
0000
0020
,
0000
0000
0000
0230
0000
0000
0000
0320
,
0000
0000
0000
0230
0000
0000
0000
0000
,
0000
0300
0000
0010
0000
0000
0000
0100
,
0000
0020
0000
0000
0000
0000
0000
0000
,
0230
0300
0000
0000
,
0000
0000
1000
0000
0000
0000
0000
2000
,
0000
0000
0000
3002
0000
0000
0000
0103
,
0000
0000
0000
0010
0000
0000
0000
0200
,
0000
0000
0000
0310
0000
0020
0000
0000
,
0000
0000
0130
0000
0000
0000
0000
0200
,
0000
0000
0000
0320
0000
0000
0000
0130
,
0000
0000
0000
0100
0000
0000
0000
0001
,
0000
0000
0000
1000
0000
0001
0000
0000
,
0000
0000
1000
0000
0001
0000
0000
2000
,
0000
0000
0000
3002
0000
0000
0000
0103
,
0000
0000
0000
0010
0000
0000
0000
0010
,
0000
2000
0000
0000
0000
0000
3002
0000
,
0000
0203
0000
0310
,
0000
0000
0010
0000
0000
0100
0000
0000
,
0000
0100
0000
0000
0000
0010
0000
0000
,
0000
0200
0000
0000
0000
0000
0000
0000
,
0000
0000
0300
0010
,
0000
2000
0000
0000
,
3000
0010
0000
0010
,
0000
0200
0000
0310
,
0000
0100
0000
0010
,
0000
0002
0000
0000
,
0003
0100
0000
0100
,
0000
0010
0000
1000
,
0000
0002
0000
0000
0000
0000
1003
0000
,
0000
0002
0000
0000
,
0003
1000
0000
1000
,
0000
0000
0002
0000
0000
0103
0000
0000
,
0000
0020
0000
0000
0030
0000
0100
0000
,
0000
0200
0000
0000
,
0000
0302
0000
0000
0000
0000
0003
0000
,
0100
0000
0002
0000
0000
0103
0000
0000
,
0000
0200
0000
0000
0000
0000
0000
0000
,
0000
0320
0000
0130
,
0000
0200
0000
0300
,
0010
0000
0000
0100
,
0000
0000
0010
0000
0000
0000
0000
0100
,
0000
0000
0000
0001
0000
0000
1000
0000
,
0002
0000
0000
0003
,
1000
0000
0000
0001
,
0000
0000
1000
0000
0000
0000
0000
0001
,
0000
0000
0000
1000
0000
0000
0000
0001
,
0000
0200
0000
0300
,
0010
0000
0000
1000
,
0000
0000
0001
0000
0000
0000
0000
0100
,
0000
0000
0000
0010
0000
0000
0000
0000
,
0200
0000
0000
0310
,
0100
0000
0000
0020
0000
0000
0230
0000
,
0000
0302
0000
2003
0000
3020
0000
0230
,
0000
0300
2002
0000
0000
0000
0000
0000
,
3003
0000
0000
0000
;
