#VERSION:0.83;
#TITLE:Dogeza Stairs;
#SUBTITLE:;
#ARTIST:ビートまりお(COOL&CREATE);
#TITLETRANSLIT:Dogeza Stairs;
#SUBTITLETRANSLIT:;
#ARTISTTRANSLIT: beatMARIO(COOL&CREATE);
#GENRE:;
#ORIGIN:;
#CREDIT:;
#BANNER:Dogeza Stairs-bn.png;
#BACKGROUND:Dogeza Stairs-bg.png;
#PREVIEWVID:;
#JACKET:Dogeza Stairs-jacket.png;
#CDIMAGE:;
#DISCIMAGE:;
#LYRICSPATH:;
#CDTITLE:;
#MUSIC:Dogeza Stairs.mp3;
#OFFSET:0.000000;
#SAMPLESTART:13.180017;
#SAMPLELENGTH:12.000000;
#SELECTABLE:YES;
#BPMS:0.000=190.010;
#STOPS:70.000=0.780,
363.000=0.780;
#DELAYS:;
#WARPS:;
#TIMESIGNATURES:0.000=4=4;
#TICKCOUNTS:0.000=4;
#COMBOS:0.000=1;
#SPEEDS:0.000=1.000=0.000=0;
#SCROLLS:0.000=1.000;
#FAKES:;
#LABELS:0.000=Song Start;
#BGCHANGES:;
#KEYSOUNDS:;
#ATTACKS:
;

//---------------dance-single - ----------------
#NOTEDATA:;
#CHARTNAME:;
#STEPSTYPE:dance-single;
#DESCRIPTION:;
#CHARTSTYLE:;
#DIFFICULTY:Hard;
#METER:17;
#RADARVALUES:0.948057,1.044596,0.177065,0.191230,0.697637,937.000000,912.000000,25.000000,27.000000,0.000000,0.000000,0.000000,0.000000,0.000000,0.948057,1.044596,0.177065,0.191230,0.697637,937.000000,912.000000,25.000000,27.000000,0.000000,0.000000,0.000000,0.000000,0.000000;
#CREDIT:;
#NOTES:
// measure 0
0000
0000
0000
0000
1001
0000
0001
1000
,  // measure 1
0001
1000
0000
0010
0000
0100
0001
1000
,  // measure 2
0010
0000
0000
0000
1001
0000
0000
0000
0001
0000
0000
0000
0100
0000
0000
0100
,  // measure 3
0001
0000
1000
0000
0000
0000
0001
0000
0000
0000
0001
1000
0001
0000
0100
0000
,  // measure 4
0010
0000
1000
0001
1000
0000
0100
0000
0010
0001
0010
0001
0100
0000
0010
1000
,  // measure 5
0010
1000
0100
0000
0010
0001
0010
0001
0100
0000
0010
0000
0000
0000
0100
0000
,  // measure 6
0100
0000
0001
1000
0001
0000
0000
0000
0100
0000
0000
0000
0010
0000
0000
0010
,  // measure 7
0100
0000
0010
0000
0000
0000
1000
0000
0000
0000
1000
0001
1000
0000
0100
0000
,  // measure 8
0010
0000
0001
0010
0001
0000
0100
0000
0010
1000
0010
1000
0100
0000
0010
0001
,  // measure 9
0010
0001
0100
0000
0010
1000
0010
1000
0100
0000
0100
0000
0010
0000
0010
0000
,  // measure 10
0001
0000
0001
1000
0100
0000
0100
0000
1000
0000
0000
0000
0010
0000
0000
0010
,  // measure 11
1000
0000
0001
0000
0000
0000
1000
0000
0000
0000
1000
0001
1000
0000
0010
0000
,  // measure 12
0100
0000
0001
1000
0001
0000
0010
0000
0100
1000
0100
1000
0010
0000
0100
0001
,  // measure 13
0100
0001
0010
0000
0100
1000
0100
1000
0010
0000
0100
0000
0000
0000
0010
0000
,  // measure 14
0010
0000
1000
0001
1000
0000
0000
0000
0010
0000
0000
0000
0100
0000
0000
0100
,  // measure 15
0010
0000
0100
0000
0000
0000
0001
0000
0000
0000
0001
1000
0001
0000
0010
0000
,  // measure 16
0100
0000
1000
0100
1000
0000
0010
0000
0100
0001
0100
0001
0010
0000
0100
1000
,  // measure 17
0100
1000
0010
0000
0100
0001
0100
0001
2000
0000
0001
0000
3001
0000
1000
0000
,  // measure 18
0001
0000
0100
0000
0010
0000
1000
0000
0010
0000
0000
0000
0100
0000
0001
1000
,  // measure 19
0001
0100
0001
1000
0001
0010
0100
1000
,  // measure 20
0000
0010
0010
0100
0000
0001
0010
0100
,  // measure 21
1000
0100
0010
0001
0000
1000
0000
0000
,  // measure 22
0100
0100
0010
0001
1000
0000
0010
0100
,  // measure 23
0001
1000
0001
0000
0010
0000
0100
0000
1000
0000
0010
0000
0100
0000
0010
0000
,  // measure 24
0000
1000
1000
0001
0000
0010
0010
0100
,  // measure 25
0000
0000
1000
0000
0000
0000
0001
0000
0000
0000
1000
0100
0010
0001
1000
0000
,  // measure 26
0100
1000
0010
0100
0001
0000
0010
0100
,  // measure 27
1000
0100
1000
0000
0100
0000
0010
0000
0001
0000
1000
0000
0100
0000
0010
0000
,  // measure 28
0000
0001
0001
1000
0000
0010
0010
0100
,  // measure 29
0001
1000
0100
1000
0000
0100
0010
0000
,  // measure 30
0001
0100
0001
1000
0010
0000
1000
0100
,  // measure 31
0010
0100
1000
0001
0100
0010
0100
0001
,  // measure 32
0001
0010
0010
0100
0100
1000
1000
0002
,  // measure 33
0000
0000
0000
0000
0000
0000
0000
0000
0000
0000
0000
0000
0003
0000
1000
0100
,  // measure 34
0010
0001
0000
0000
1000
0100
0010
0001
0000
0000
0000
0000
0000
0000
1000
0100
,  // measure 35
0010
0001
1000
0000
0100
0000
0010
0000
0001
0010
0100
0000
0000
0000
1000
0010
,  // measure 36
0100
0001
0000
0000
1000
0010
0100
0001
0000
0000
0000
0000
0000
0000
1000
0010
,  // measure 37
0100
0001
1000
0000
0010
0000
1000
0010
0100
0001
0010
0000
0000
0000
0001
0010
,  // measure 38
0100
1000
0000
0000
0001
0010
0100
1000
0000
0000
0000
0000
0000
0000
0001
0010
,  // measure 39
0100
1000
0001
0000
0010
0000
0100
0000
1000
0100
0010
0000
0000
0000
0001
0100
,  // measure 40
0010
1000
0000
0000
0001
0100
0010
1000
0000
0000
0000
0000
0000
0000
0001
0100
,  // measure 41
0010
1000
0001
0000
0100
0000
0001
0100
0010
1000
0100
0000
0000
0000
1000
0100
,  // measure 42
0010
0001
0010
0000
0100
1000
0100
0010
0001
0000
0010
0000
0100
0000
1000
0100
,  // measure 43
0010
0001
1000
0000
0100
0000
0010
0000
0001
0010
0100
0000
1000
0000
0001
0010
,  // measure 44
0100
1000
0010
0000
0100
0001
1000
0100
0010
0000
0001
0000
0010
0000
0100
1000
,  // measure 45
0100
0010
0001
0000
0010
0000
0100
1000
0100
0010
0001
0000
1000
0000
0001
0010
,  // measure 46
0100
1000
0100
0000
0010
0001
0010
0100
1000
0000
0100
0000
0010
0000
0001
0010
,  // measure 47
0100
1000
0001
0000
0010
0000
0100
0000
1000
0100
0010
0000
0001
0000
1000
0010
,  // measure 48
0100
0001
1000
0000
0001
0100
0010
1000
0001
0000
0100
0000
0010
0000
1000
0100
,  // measure 49
0010
0001
0010
0000
0100
0000
1000
0100
0010
0000
0001
0000
0100
0000
0001
0010
,  // measure 50
0100
1000
0100
0000
0010
0001
0010
0100
1000
0000
0100
0000
0010
0000
0001
0010
,  // measure 51
0100
1000
0001
0000
0010
0000
0100
0000
1000
0100
0010
0000
0001
0000
1000
0010
,  // measure 52
0100
0001
1000
0000
0001
0100
0010
1000
0001
0000
0100
0000
0010
0000
1000
0100
,  // measure 53
0010
0001
0010
0000
0100
0000
1000
0100
0010
0001
1000
0000
0001
0000
1000
0100
,  // measure 54
0010
0001
0010
0000
0100
1000
0001
0100
0010
0000
1000
0000
0001
0000
1000
0100
,  // measure 55
0010
0001
1000
0000
0100
0000
0010
0000
0001
0010
0100
0000
1000
0000
0001
0010
,  // measure 56
0001
0010
0100
0000
1000
0100
1000
0100
0010
0000
0001
0100
0001
0100
0010
0000
,  // measure 57
1000
0010
1000
0010
0100
0000
0001
1000
0001
1000
0100
0000
0010
0000
0001
0000
,  // measure 58
0000
1000
0001
0000
0100
0000
0001
0000
0100
0000
1000
0000
0100
0000
0010
0000
,  // measure 59
1000
0001
0010
0100
0000
1000
0100
1000
,  // measure 60
0000
0100
0010
0000
0001
0000
1000
0000
0010
0000
0001
0000
0010
0000
1000
0000
,  // measure 61
0001
1000
0100
0010
0000
0011
0000
1001
,  // measure 62
0000
0001
1000
0000
0010
0000
1000
0000
0010
0000
0001
0000
0010
0000
0100
0000
,  // measure 63
0001
1000
0100
0010
0000
0001
0010
0001
,  // measure 64
0000
0010
0100
0000
1000
0000
0001
0000
0100
0000
1000
0000
0100
0000
0202
0000
,  // measure 65
0303
2020
3030
0220
0000
0000
0330
0101
,  // measure 66
0000
0001
1000
0000
0010
0000
1000
0000
0010
0000
0001
0000
0010
0000
0100
0000
,  // measure 67
0001
1000
0100
0010
0000
0001
0010
0001
,  // measure 68
0000
0010
0100
0000
1000
0000
0001
0000
0100
0000
1000
0000
0100
0000
0001
0000
,  // measure 69
0001
1000
0010
0010
0000
1100
0000
1001
,  // measure 70
0000
1000
0001
0000
0100
0000
0001
0000
0100
0000
1000
0000
0100
0000
0010
0000
,  // measure 71
1000
0001
0010
0100
0000
1000
0100
1000
,  // measure 72
0000
0100
0010
0000
0001
0000
1000
0000
0010
0000
0001
0000
0010
0000
0220
0000
,  // measure 73
0330
2200
3300
2002
3003
0220
0330
0110
,  // measure 74
0000
0100
0001
0000
0100
0000
0010
0000
0100
0000
1000
0000
0100
0000
0001
0010
,  // measure 75
0100
0000
0010
0100
1000
0000
0100
0000
0000
0000
0010
0000
0001
0000
1000
0000
,  // measure 76
0000
0100
0010
0000
0001
0000
1000
0000
0010
0000
0001
0000
0010
0000
1000
0000
,  // measure 77
0001
1000
0100
0010
0000
0011
0000
1001
,  // measure 78
0000
0001
1000
0000
0010
0000
1000
0000
0010
0000
0001
0000
0010
0000
0100
0000
,  // measure 79
0001
1000
0100
0010
0000
0001
0010
0001
,  // measure 80
0000
0010
0100
0000
1000
0000
0001
0000
0100
0000
1000
0000
0100
0000
0220
0000
,  // measure 81
0330
2002
3003
0110
0100
0010
2000
0002
,  // measure 82
0000
0000
3003
0000
1000
0100
0010
0000
0100
0010
0001
0000
1000
0000
0010
0000
,  // measure 83
1000
0000
0001
0000
0100
0000
0001
0000
0010
0000
0100
0000
1000
0001
0010
0000
,  // measure 84
0100
1000
0001
0000
0010
0000
0100
0000
1000
0000
0001
0000
0010
0000
0100
0000
,  // measure 85
0010
0001
1000
0100
0000
1100
0000
1001
,  // measure 86
0000
1000
0001
0000
0100
0000
0001
0000
0100
0000
1000
0000
0100
0000
0010
0000
,  // measure 87
1000
0001
0010
0100
0000
1000
0100
1000
,  // measure 88
0000
0100
0010
0000
0001
0000
1000
0000
0010
0000
0001
0000
0010
0000
1000
0000
,  // measure 89
0000
1000
0100
0000
0010
0000
0001
0000
0010
0000
0100
0000
1000
0000
0001
0000
,  // measure 90
0000
0000
1000
0000
0010
0000
0000
0000
0100
0000
0000
0000
0001
0000
0000
0000
0010
0000
0000
0000
0001
0000
0000
0000
2002
0000
0000
0000
0000
0000
0000
3003
,  // measure 91
1001
0000
0000
0000
1000
0000
0000
0000
0010
0000
0000
0010
1000
0000
0001
0000
,  // measure 92
0000
0000
1000
0000
0000
0000
1000
0001
1000
0000
0010
0000
0100
0000
0001
1000
,  // measure 93
0001
0000
0010
0000
0100
1000
0100
1000
0010
0000
0100
0001
0100
0001
0010
0000
,  // measure 94
0100
1000
0100
1000
0010
0000
0100
0000
0000
0000
0010
0000
0010
0000
1000
0001
,  // measure 95
1000
0000
0000
0000
0010
0000
0000
0000
0100
0000
0000
0100
0010
0000
0100
0000
,  // measure 96
0000
0000
0001
0000
0000
0000
0001
1000
0001
0000
0010
0000
0100
0000
1000
0100
,  // measure 97
1000
0000
0010
0000
0100
0001
0100
0001
0010
0000
0100
1000
0100
1000
0010
0000
,  // measure 98
0100
0001
0100
0001
0010
0000
0010
0000
0100
0000
0100
0000
1000
0000
1000
0001
,  // measure 99
0010
0000
0010
0000
0001
0000
0000
0000
0100
0000
0000
0100
0001
0000
1000
0000
,  // measure 100
0000
0000
0001
0000
0000
0000
0001
1000
0001
0000
0100
0000
0010
0000
1000
0001
,  // measure 101
1000
0000
0100
0000
0010
0001
0010
0001
0100
0000
0010
1000
0010
1000
0100
0000
,  // measure 102
0010
0001
0010
0001
0100
0000
0010
0000
0000
0000
0100
0000
0100
0000
0001
1000
,  // measure 103
0001
0000
0000
0000
0100
0000
0000
0000
0010
0000
0000
0010
0100
0000
0010
0000
,  // measure 104
0000
0000
1000
0000
0000
0000
1000
0001
1000
0000
0100
0000
0010
0000
0001
0010
,  // measure 105
0001
0000
0100
0000
0010
1000
0010
1000
0100
0000
0010
0001
0010
0001
0100
0000
,  // measure 106
0010
1000
0010
1000
0002
0000
0000
0000
0000
0000
0000
0000
1003
0000
0000
0010
,  // measure 107
0100
0010
2002
0000
0000
0000
0000
0000
,  // measure 108
0000
0000
0000
0000
,  // measure 109
0000
3003
0000
0000
;

//---------------dance-single - ----------------
#NOTEDATA:;
#CHARTNAME:;
#STEPSTYPE:dance-single;
#DESCRIPTION:;
#CHARTSTYLE:;
#DIFFICULTY:Medium;
#METER:13;
#RADARVALUES:0.720402,0.657708,0.063743,0.141652,0.063743,712.000000,703.000000,9.000000,20.000000,0.000000,0.000000,0.000000,0.000000,0.000000,0.720402,0.657708,0.063743,0.141652,0.063743,712.000000,703.000000,9.000000,20.000000,0.000000,0.000000,0.000000,0.000000,0.000000;
#CREDIT:;
#NOTES:
0000
0000
0000
0000
0110
0000
0001
0010
,
0100
1000
0000
0010
0000
0100
0001
1000
,
0001
1001
0001
1000
,
0001
0100
0000
0010
0000
1000
0001
0100
,
0010
1000
0001
0100
0001
1000
0100
1000
,
0010
0100
0010
1000
0001
1000
0000
0001
,
0010
0100
1000
0000
0100
0000
0010
0000
,
0001
1000
0000
0001
0100
0010
1000
0100
,
1000
0010
0100
0010
1000
0001
1000
0100
,
0010
0001
1000
0010
1000
0001
0100
0010
,
0100
0001
0001
1000
1000
0000
0001
0000
,
1000
0010
0000
0100
0000
0001
1000
0010
,
0100
0001
1000
0010
1000
0001
0010
0001
,
0100
0010
0100
0001
1000
0001
0000
1000
,
0100
0010
0001
0000
0010
0000
0100
0000
,
1000
0001
0000
1000
0010
0100
0001
0010
,
0001
0100
0010
0100
0001
1000
0001
0010
,
0100
1000
0001
0100
0002
1003
1000
0000
,
0001
1000
0001
1000
0010
0000
0100
0010
,
1000
0100
1000
0001
0010
0100
1000
0010
,
0000
0100
0010
0100
0000
0001
1000
0001
,
1000
0100
1000
0020
0000
0000
0030
0000
,
0100
0010
1000
0001
1000
0000
0001
0010
,
0001
0010
0100
1000
0010
1000
0001
0100
,
0000
0010
1000
0001
0000
0100
0010
0100
,
0000
0001
0000
1000
0000
0000
0000
0000
,
0001
1000
0001
0100
0010
0000
1000
0100
,
1000
0010
0100
0010
1000
0001
1000
0100
,
0000
0010
0001
0010
0000
0100
1000
0100
,
0010
0001
1000
0001
0000
0100
0010
0000
,
0100
0010
1000
0001
0100
0000
0001
1000
,
0010
1000
0001
0010
0100
1000
0100
0001
,
0100
1000
0100
0001
0100
1000
0100
0020
,
0000
0000
0000
0000
0000
0000
0000
0031
,
0100
0000
0100
0001
0000
0000
0000
1000
,
0010
1000
0100
0010
0001
1000
0000
0001
,
1000
0000
1000
0001
0000
0000
0000
1000
,
0100
0010
0001
1000
0100
0010
0000
0001
,
0010
0000
0010
0001
0000
0000
0000
1000
,
0001
1000
0010
0100
0010
1000
0000
0001
,
0100
0000
0100
0010
0000
0000
0000
1000
,
0010
1000
0001
0010
0001
1000
0000
0001
,
0010
0100
1000
0001
0010
0000
0000
0100
,
1000
0100
0010
0001
1000
0100
0000
0010
,
0001
0010
0100
1000
0100
0000
0000
0010
,
0001
0010
0100
1000
0100
0010
0000
0001
,
0010
0100
1000
0001
0010
0000
0000
0100
,
1000
0100
0010
0001
1000
0100
0000
0010
,
0001
0010
0100
1000
0100
0000
0000
0010
,
0001
0010
0100
1000
0100
0010
0000
0001
,
0010
0100
1000
0001
0010
0000
0000
0100
,
1000
0100
0010
0001
1000
0100
0000
0010
,
0001
0010
0100
1000
0100
0000
0000
0010
,
0001
0010
0100
1000
0100
0010
0000
0001
,
0010
0100
1000
0001
0010
0000
0000
0100
,
1000
0100
0010
0001
1000
0100
0000
1000
,
0010
0001
0010
1000
0100
0001
0100
1000
,
0010
0001
0010
1000
0100
0001
0100
1000
,
0000
1000
0001
0000
0010
0000
0001
0000
0100
0000
0010
0000
0100
0000
0001
0000
,
1000
0010
1000
0100
0000
1000
0001
1000
,
0000
0001
0100
0000
0010
0000
1000
0000
0100
0000
1000
0000
0001
0000
0010
0000
,
0001
1000
0100
1000
0000
1001
0000
0001
,
0000
0001
1000
0000
0010
0000
1000
0000
0001
0000
0010
0000
0001
0000
1000
0000
,
0100
1000
0001
0100
0000
0001
1000
0001
,
0000
1000
0100
0000
0010
0000
0100
0000
0010
0000
0001
0000
1000
0000
1002
0000
,
0000
2003
0000
3020
0000
0000
0030
0101
,
0000
0001
1000
0000
0100
0000
1000
0000
0010
0000
0100
0000
0010
0000
1000
0000
,
0001
0100
0001
0010
0000
0001
1000
0001
,
0000
1000
0010
0000
0100
0000
0001
0000
0010
0000
0001
0000
1000
0000
0100
0000
,
1000
0001
0010
0001
0000
1001
0000
1000
,
0000
1000
0001
0000
0100
0000
0001
0000
1000
0000
0100
0000
1000
0000
0001
0000
,
0010
0001
1000
0010
0000
1000
0001
1000
,
0000
0001
0010
0000
0100
0000
0010
0000
0100
0000
1000
0000
0001
0000
2001
0000
,
0000
3002
0000
0203
0000
0000
0300
0110
,
0000
0100
0001
0000
1000
0000
0001
0000
0010
0000
0100
0000
1000
0000
0001
0000
,
0001
1000
1000
0010
0000
0100
0001
1000
,
0000
1000
0001
0000
0010
0000
0001
0000
0100
0000
0010
0000
0100
0000
0001
0000
,
1000
0010
1000
0100
0000
1000
0000
0001
,
0000
0001
0100
0000
0010
0000
1000
0000
0100
0000
1000
0000
0001
0000
0010
0000
,
0001
1000
0100
1000
0000
0001
1000
0001
,
0000
0001
1000
0000
0010
0000
1000
0000
0001
0000
0010
0000
0001
0000
2000
0000
,
0000
3002
0000
0103
0010
0100
0010
2000
,
0000
0000
0000
3001
0000
0001
1000
0200
,
0000
0320
0000
0032
0000
2003
0000
3010
,
0000
0100
0001
0000
1000
0000
0100
0000
1000
0000
0001
0000
0010
0000
0001
0000
,
0100
0010
1000
0010
0000
0100
0000
0010
,
0000
1000
0001
0000
0100
0000
0010
0000
1000
0000
0100
0000
1000
0000
0001
0000
,
0010
0001
1000
0100
0000
0010
0001
1000
,
0000
1000
0001
0000
1000
0000
0010
0000
0100
0000
0010
0000
0100
0000
0001
0000
,
0000
0001
1000
0000
0100
0000
1000
0000
0010
0000
0100
0000
0001
0000
0100
0000
,
0000
0100
0010
0000
1000
0000
0001
0000
0100
0000
0001
0000
2000
0000
0000
0000
,
3001
0000
1000
0000
0001
0000
1000
0010
,
0000
0100
0000
0001
1000
0010
0100
0001
,
1000
0010
1000
0001
0010
0001
0100
0010
,
0100
0001
1000
0001
0000
1000
0100
0010
,
0001
0000
0010
0000
0100
0000
1000
0001
,
0000
1000
0010
0100
0001
0010
0001
0100
,
0010
0100
0001
1000
0001
0010
0100
1000
,
0001
0100
0001
1000
0010
0100
0010
1000
,
1000
0001
0001
0000
1000
0000
0001
0100
,
0000
0010
0000
1000
0001
0100
0010
1000
,
0001
0100
0001
1000
0100
1000
0010
0100
,
0010
1000
0001
1000
0000
0001
0010
0100
,
1000
0000
0100
0000
0010
0000
0001
1000
,
0000
0001
0100
0010
1000
0100
1000
0010
,
0100
0010
1000
0001
1000
0100
0010
0001
,
1000
0000
0001
0000
2000
0000
0000
0000
0000
0000
0000
0000
3001
0000
0000
0100
,
0010
1000
2002
0000
0000
0000
0000
0000
,
0000
0000
0000
0000
,
0000
3003
0000
0000
;

//---------------dance-single - ----------------
#NOTEDATA:;
#CHARTNAME:;
#STEPSTYPE:dance-single;
#DESCRIPTION:;
#CHARTSTYLE:;
#DIFFICULTY:Easy;
#METER:5;
#RADARVALUES:0.332882,0.348199,0.007083,0.141652,0.000000,329.000000,328.000000,1.000000,20.000000,0.000000,0.000000,0.000000,0.000000,0.000000,0.332882,0.348199,0.007083,0.141652,0.000000,329.000000,328.000000,1.000000,20.000000,0.000000,0.000000,0.000000,0.000000,0.000000;
#CREDIT:;
#NOTES:
0000
0000
0001
0000
,
1000
0001
0000
0100
0000
0000
0000
0001
,
1000
0001
0001
0001
,
1000
0000
0010
1000
,
0010
0100
0001
1000
,
0001
0010
0100
0000
,
0100
1000
0001
0000
,
0001
0000
1000
0001
,
1000
0100
1000
0001
,
0100
0001
0100
0000
,
0100
0010
1000
0001
,
1000
0000
0000
0010
0000
0000
0001
0000
,
0010
0001
0010
0100
,
1000
0010
0100
0000
,
0001
1000
1000
0010
,
0001
0000
0000
0001
0000
0000
1000
0000
,
0001
0100
0001
1000
,
0010
1000
0002
0003
,
1000
0000
0000
0001
0000
0000
0000
0100
,
0000
0001
0000
1000
0000
0001
0000
1000
,
0000
0000
0000
0010
0000
0000
0000
1000
,
0000
0001
0000
2000
0000
0000
3000
0000
,
0000
0001
0000
1000
0000
0000
0000
0010
,
0000
0100
0000
0001
0000
1000
0000
0100
,
0000
0000
0000
0001
0000
0000
0000
1000
,
0000
0001
0000
1000
0000
0000
0000
0000
,
0000
0001
0000
0010
0000
0000
0000
0010
,
0000
0100
0000
0100
0000
1000
0000
0010
,
0000
0001
0000
0100
0000
1000
0000
0010
,
0000
0001
0000
1000
0000
0010
0000
0000
,
0000
0100
0000
1000
0000
0000
0000
1000
,
0000
0001
0000
0100
0000
0001
0000
1000
,
0000
0001
0000
1000
0000
0001
0000
0020
,
0000
0000
0000
0000
0000
0000
0000
1030
,
0000
0000
0010
0000
0000
0000
0000
0001
,
0000
1000
0000
0001
0000
1000
0000
0001
,
0000
0000
0001
0000
0000
0000
0000
0001
,
0000
0100
0000
0001
0000
0100
0000
1000
,
0000
0000
0100
0000
0000
0000
0000
0001
,
0000
1000
0000
0010
0000
0001
0000
1000
,
0000
0000
0010
0000
0000
0000
0000
0001
,
0000
1000
0000
0001
0000
1000
0000
0001
,
0000
0000
0001
0000
0000
0000
0000
0010
,
0000
0100
0000
1000
0000
0010
0000
0100
,
0000
0000
0010
0000
0000
0000
0000
0100
,
0000
1000
0000
0001
0000
0100
0000
1000
,
0000
0000
0001
0000
0000
0000
0000
1000
,
0000
0010
0000
1000
0000
0010
0000
0100
,
0000
0000
0010
0000
0000
0000
0000
0100
,
0000
0001
0000
1000
0000
0001
0000
1000
,
0000
0000
0001
0000
0000
0000
0000
0100
,
0000
0010
0000
1000
0000
0001
0000
0010
,
0000
0000
0010
0000
0000
0000
0000
0100
,
0000
1000
0000
0010
0000
0100
0000
0001
,
0000
0000
0001
0000
0000
0000
0000
0010
,
0000
0100
0000
1000
0000
0010
0000
0001
,
0000
0000
0100
0000
0000
0010
0000
0000
,
0100
0000
0000
0001
0000
0000
0000
0001
,
0000
1000
0000
1000
0000
0100
0000
1000
,
0000
0100
0000
0010
0000
0000
0000
0001
,
0000
0000
0000
0001
0000
1000
0000
0100
,
0000
1000
0000
0001
0000
0000
0000
1000
,
0000
0000
0000
0001
0000
0000
0000
1000
,
0000
0001
0000
1000
0000
0000
0000
0100
,
0000
0000
0000
0010
0000
0000
0000
2000
,
0000
3002
0000
0203
0000
0000
0300
1000
,
0000
0001
0000
0001
0000
0010
0000
0001
,
0000
0010
0000
0100
0000
0000
0000
1000
,
0000
0100
0000
1000
0000
1000
0000
0010
,
0000
1000
0000
0001
0000
0000
0000
0001
,
0000
0000
0000
1000
0000
0000
0000
1000
,
0000
0001
0000
0100
0000
0000
0000
0001
,
0000
0000
0000
0100
0000
0000
0000
0002
,
0000
2003
0000
3020
0000
0000
0030
0100
,
0000
0000
0000
1000
0000
0010
0000
1000
,
0000
0001
0000
0100
0000
0000
0000
0001
,
0000
0000
0000
1000
0000
0000
0000
1000
,
0000
0100
0000
0010
0000
0000
0000
0001
,
0000
1000
0000
0010
0000
0001
0000
0100
,
0000
0001
0000
0001
0000
0000
0000
1000
,
0000
0000
0000
0001
0000
0100
0000
0002
,
0000
2003
0000
3010
0000
0000
0000
0002
,
0000
0000
0000
1003
0000
0000
0000
0020
,
0000
0230
0000
2300
0000
3002
0000
0103
,
0000
0000
0000
0010
0000
0000
0000
1000
,
0000
0001
0000
1000
0000
0000
0000
0100
,
0000
0000
0000
0100
0000
0000
0000
1000
,
0000
0001
0000
0010
0000
0000
0000
0001
,
0000
0000
0000
0100
0000
0100
0000
1000
,
0000
0000
0000
0001
0000
0010
0000
0010
,
0000
0000
0000
1000
0000
1000
0002
0000
,
1003
0001
0000
0001
,
0000
1000
0000
0010
,
0000
0001
1000
0010
,
1000
0001
0000
1000
,
0001
1000
0000
0001
,
0000
0100
0000
1000
,
0001
1000
0001
0010
,
0100
1000
0100
0010
,
0001
0100
0001
0100
,
0000
0001
1000
0100
,
1000
0001
1000
0001
,
0100
0010
0000
1000
,
0100
1000
0001
0010
,
0000
0001
0010
0001
,
1000
0100
1000
0010
,
0100
0020
0000
1030
,
0000
2002
0000
0000
,
0000
0000
0000
0000
,
0000
3003
0000
0000
;

//---------------dance-single - ----------------
#NOTEDATA:;
#CHARTNAME:;
#STEPSTYPE:dance-single;
#DESCRIPTION:;
#CHARTSTYLE:;
#DIFFICULTY:Beginner;
#METER:3;
#RADARVALUES:0.213490,0.232132,0.007083,0.099156,0.000000,211.000000,210.000000,1.000000,14.000000,0.000000,0.000000,0.000000,0.000000,0.000000,0.213490,0.232132,0.007083,0.099156,0.000000,211.000000,210.000000,1.000000,14.000000,0.000000,0.000000,0.000000,0.000000,0.000000;
#CREDIT:;
#NOTES:
0000
0000
1000
0000
,
0001
0000
0000
0010
0000
0000
0000
0000
,
0001
1000
0000
1000
,
0000
0000
0100
0000
,
0100
0000
1000
0000
,
1000
0000
0010
0000
,
0010
0000
1000
0000
,
1000
0000
0001
0000
,
1000
0000
0001
0000
,
0010
0000
0010
0000
,
0010
0000
0001
0000
,
0001
0000
0000
0100
0000
0000
1000
0000
,
0000
1000
0000
0010
,
0000
0100
0000
0000
,
1000
0000
0001
0000
,
1000
0000
0000
1000
0000
0000
0001
0000
,
0000
0010
0000
1000
,
0000
0001
2000
3000
,
0001
0000
0000
1000
0000
0000
0000
0010
,
0000
0000
0000
0001
0000
0000
0000
0001
,
0000
0000
0000
0100
0000
0000
0000
0001
,
0000
0000
0000
0002
0000
0000
0003
0000
,
0000
1000
0000
0000
0000
0000
0000
0100
,
0000
0000
0000
1000
0000
0000
0000
0010
,
0000
0000
0000
1000
0000
0000
0000
0001
,
0000
0000
0000
0001
0000
0000
0000
0000
,
0000
1000
0000
0000
0000
0000
0000
0100
,
0000
0000
0000
0010
0000
0000
0000
0100
,
0000
0000
0000
0010
0000
0000
0000
0100
,
0000
0000
0000
0001
0000
0000
0000
0000
,
0000
0010
0000
0000
0000
0000
0000
0001
,
0000
0000
0000
0010
0000
0000
0000
0001
,
0000
0000
0000
0001
0000
0000
0000
0200
,
0000
0000
0000
0000
0000
0000
0000
0301
,
0000
0000
0100
0000
0000
0000
0000
1000
,
0000
0000
0000
0001
0000
0000
0000
1000
,
0000
0000
0000
0000
0000
0000
0000
1000
,
0000
0000
0000
0001
0000
0000
0000
1000
,
0000
0000
0010
0000
0000
0000
0000
1000
,
0000
0000
0000
0100
0000
0000
0000
0001
,
0000
0000
0100
0000
0000
0000
0000
1000
,
0000
0000
0000
0001
0000
0000
0000
1000
,
0000
0000
0000
0000
0000
0000
0000
0100
,
0000
0000
0000
0001
0000
0000
0000
0010
,
0000
0000
0100
0000
0000
0000
0000
0010
,
0000
0000
0000
1000
0000
0000
0000
0001
,
0000
0000
1000
0000
0000
0000
0000
0001
,
0000
0000
0000
1000
0000
0000
0000
0010
,
0000
0000
0100
0000
0000
0000
0000
0010
,
0000
0000
0000
1000
0000
0000
0000
0001
,
0000
0000
1000
0000
0000
0000
0000
0010
,
0000
0000
0000
0001
0000
0000
0000
0100
,
0000
0000
0010
0000
0000
0000
0000
0010
,
0000
0000
0000
0100
0000
0000
0000
1000
,
0000
0000
1000
0000
0000
0000
0000
0100
,
0000
0000
0000
0001
0000
0100
0000
0000
,
0000
0000
0010
0000
0000
0100
0000
0000
,
0010
0000
0000
1000
0000
0000
0000
1000
,
0000
0000
0000
0001
0000
0000
0000
0001
,
0000
0000
0000
0100
0000
0000
0000
1000
,
0000
0000
0000
1000
0000
0000
0000
0010
,
0000
0000
0000
1000
0000
0000
0000
0001
,
0000
0000
0000
1000
0000
0000
0000
0001
,
0000
0000
0000
0001
0000
0000
0000
0010
,
0000
0000
0000
0100
0000
0000
0000
0002
,
0000
0003
0000
0020
0000
0000
0030
0001
,
0000
0000
0000
1000
0000
0000
0000
1000
,
0000
0000
0000
0010
0000
0000
0000
0001
,
0000
0000
0000
0001
0000
0000
0000
0100
,
0000
0000
0000
1000
0000
0000
0000
1000
,
0000
0000
0000
0001
0000
0000
0000
0001
,
0000
0000
0000
0010
0000
0000
0000
1000
,
0000
0000
0000
0010
0000
0000
0000
2000
,
0000
3000
0000
0200
0000
0000
0300
0010
,
0000
0000
0000
0001
0000
0000
0000
0001
,
0000
1000
0000
0000
0000
0000
0000
1000
,
0000
0000
0000
0001
0000
0000
0000
0001
,
0000
0000
0000
0100
0000
0000
0000
1000
,
0000
0000
0000
0100
0000
0000
0000
0010
,
0000
0000
0000
1000
0000
0000
0000
0001
,
0000
0000
0000
1000
0000
0000
0000
2000
,
0000
3000
0000
0001
0000
0000
0000
2000
,
0000
0000
0000
3001
0000
0000
0000
0200
,
0000
0300
0000
0002
0000
0003
0000
0010
,
0000
0000
0000
0100
0000
0000
0000
0001
,
0000
0000
0000
0001
0000
0000
0000
0010
,
0000
0000
0000
0010
0000
0000
0000
0001
,
0000
0000
0000
0100
0000
0000
0000
1000
,
0000
0000
0000
0010
0000
0000
0000
0001
,
0000
0000
0000
1000
0000
0000
0000
0100
,
0000
0000
0000
0001
0000
0000
2000
0000
,
3000
1000
0000
1000
,
0000
0001
0000
0100
,
0000
1000
0000
0100
,
0000
1000
0000
0001
,
0000
0001
0000
1000
,
0000
0010
0000
0001
,
0000
0001
0000
0100
,
0000
0001
0000
0100
,
0000
0010
0000
0010
,
0000
1000
0000
0010
,
0000
1000
0000
0001
,
0000
0100
0000
0001
,
0000
0001
0000
0100
,
0000
0000
0100
0000
,
0001
0000
0001
0000
,
0010
0000
0000
0010
,
0000
2002
0000
0000
,
0000
0000
0000
0000
,
0000
3003
0000
0000
;
