#VERSION:0.81;
#TITLE:ディーナ・シーの踊り;
#SUBTITLE:;
#ARTIST:大嶋啓之;
#TITLETRANSLIT:Daoine Sidhe no odori;
#SUBTITLETRANSLIT:;
#ARTISTTRANSLIT:Hiroyuki Oshima;
#GENRE:;
#ORIGIN:;
#CREDIT:;
#BANNER:Daoine-Sidhe-no-odori-bn.png;
#BACKGROUND:Daoine-Sidhe-no-odori-bg.png;
#PREVIEWVID:;
#JACKET:Daoine-Sidhe-no-odori-jacket.png;
#CDIMAGE:;
#DISCIMAGE:;
#LYRICSPATH:;
#CDTITLE:;
#MUSIC:Daoine-Sidhe-no-odori.mp3;
#OFFSET:-0.040000;
#SAMPLESTART:70.656960;
#SAMPLELENGTH:12.000000;
#SELECTABLE:YES;
#BPMS:0.000=120.020,
8.333=119.020,
9.000=118.020,
10.000=117.020,
12.000=116.020,
13.000=115.020,
15.000=114.020,
16.000=113.020,
18.000=112.020,
20.000=119.020,
24.000=118.020,
25.000=117.020,
27.000=116.020,
30.000=115.020,
34.000=114.020,
37.000=116.020,
48.000=114.020,
48.667=112.020,
49.000=108.020,
49.333=104.020,
50.000=102.020,
50.333=100.020,
51.000=98.020,
51.667=96.020,
52.000=94.020,
52.333=92.020,
53.000=90.020,
58.000=120.020,
166.500=118.020,
178.000=120.020;
#STOPS:149.833=0.200;
#DELAYS:;
#WARPS:;
#TIMESIGNATURES:0.000=4=4;
#TICKCOUNTS:0.000=4;
#COMBOS:0.000=1;
#SPEEDS:0.000=1.000=0.000=0;
#SCROLLS:0.000=1.000;
#FAKES:;
#LABELS:0.000=Song Start;
#BGCHANGES:;
#KEYSOUNDS:;
#ATTACKS:
;

//---------------dance-single - ----------------
#NOTEDATA:;
#CHARTNAME:;
#STEPSTYPE:dance-single;
#DESCRIPTION:;
#CHARTSTYLE:;
#DIFFICULTY:Hard;
#METER:14;
#RADARVALUES:0.806941,0.757925,0.072212,0.152448,1.000000,676.000000,9.000000,19.000000,0.000000,0.000000,0.000000,0.000000,0.000000,0.806941,0.757925,0.072212,0.152448,1.000000,676.000000,9.000000,19.000000,0.000000,0.000000,0.000000,0.000000,0.000000;
#CREDIT:;
#NOTES:
// measure 0
0000
0000
2002
0000
,  // measure 1
0000
0000
0000
0000
,  // measure 2
3000
0103
0000
0001
1000
0000
1000
0010
0100
0001
0010
0000
,  // measure 3
0010
0100
0000
0100
1000
0100
0010
0001
0000
0001
1000
0000
,  // measure 4
1000
0010
0100
0001
0100
0000
0010
1000
0001
0100
0010
0000
,  // measure 5
0010
1000
0000
1000
0100
0000
0010
0001
0010
1000
0010
0000
,  // measure 6
0001
0100
0000
0100
0010
1000
0100
0010
0000
0001
1000
0000
,  // measure 7
1000
0001
0100
1000
0100
0000
0010
1000
0001
1000
0100
0000
,  // measure 8
0100
0010
0000
0010
0001
0000
0001
0010
0100
1000
0001
0000
,  // measure 9
1000
0010
0000
0010
0100
1000
0100
0001
0000
0001
0010
0000
,  // measure 10
0100
1000
0001
1000
0001
0000
0001
0100
0000
0000
0001
0010
,  // measure 11
0001
1000
0000
0001
0010
0100
1000
0010
0100
0001
1000
0010
,  // measure 12
1000
0000
0010
0100
0001
0000
1000
0010
0000
0100
0000
0001
,  // measure 13
1000
0001
0000
1000
0010
0000
0000
0000
0000
0000
0000
0000
,  // measure 14
0000
0000
0000
0000
0000
0000
0000
0000
0000
0000
0000
0000
1001
0000
0000
1000
0000
0010
0100
0000
0000
0001
0000
0000
,  // measure 15
1000
0000
0100
0010
0000
0000
0001
0000
0010
0100
0000
0000
1000
0000
0001
0100
0000
0010
1000
0000
0010
0100
0000
0001
,  // measure 16
0010
0000
0001
1000
0000
0000
0010
0000
1000
0010
0000
0000
0100
0000
0001
0100
0000
0010
1000
0000
0000
0100
0000
0010
,  // measure 17
0001
0000
0100
0001
0000
0000
1000
0000
0010
0100
0000
0001
0010
0100
1000
0100
0000
1000
0010
0100
0001
0010
0000
0001
,  // measure 18
1000
0000
0010
0100
0000
0001
2000
0000
0000
0000
0000
0000
3001
0000
0000
0010
0000
0100
1000
0000
0000
0001
0000
0000
,  // measure 19
1000
0000
0010
0100
0000
0000
0100
0000
0001
1000
0000
0000
0001
0000
0000
0010
0000
0100
1000
0000
0010
0100
0000
0001
,  // measure 20
0010
0000
0001
1000
0000
0000
0100
0000
0000
0010
0000
0000
0001
0000
0000
0100
0000
0010
0100
0000
0000
0001
0000
0000
,  // measure 21
0010
0000
0100
1000
0000
0000
0010
0000
1000
0001
0000
0100
0010
0000
1000
0001
0000
1000
0100
0000
1000
0010
1000
0010
,  // measure 22
0100
0000
0001
0010
0000
0100
1000
0000
0000
0001
0000
0000
1000
0000
0000
0100
0000
0010
0001
0000
0000
0001
0000
0000
,  // measure 23
0100
0000
0010
1000
0000
0000
0010
0000
0000
0100
0000
0000
0001
0000
0000
1000
0000
0010
0100
0000
0001
0100
0000
0010
,  // measure 24
0100
0000
0001
0100
0000
0000
0010
0000
1000
0100
0000
0000
0010
0000
0000
0001
0000
0010
0100
0000
0000
1000
0000
0000
,  // measure 25
0001
0000
0000
0000
0000
0000
1000
0000
0000
0000
0000
0000
0010
0000
0000
0000
0100
0000
0001
0000
0000
0000
0000
0000
0010
0000
0000
0000
0000
0000
0100
0000
0000
0000
0000
0000
2002
0000
0000
0000
0000
0000
0000
0000
0000
3003
0000
0000
,  // measure 26
0202
0000
0000
0000
0000
0000
0000
0000
0000
0303
0000
0000
2020
0000
0000
0000
0000
0000
0000
0000
0000
3030
0000
0000
0101
0000
0000
0000
0000
0000
0001
0000
0000
0000
0000
0000
1000
0000
0010
0000
1000
0000
0001
0000
0010
0000
0100
0000
,  // measure 27
1000
0000
0000
0001
0000
0000
0010
0001
0010
0100
1000
0010
0100
0000
0000
0010
0000
0000
1000
0100
1000
0100
0010
0001
,  // measure 28
0010
0000
0000
0001
0000
1000
0010
0000
0100
0001
0000
0000
0010
0000
0000
0100
1000
0001
0100
0000
0010
1000
0000
0001
,  // measure 29
0100
0000
0100
0001
0000
0001
1000
0000
0000
0001
1000
0001
1000
0000
0000
0010
0000
0000
1000
0001
0100
0010
1000
0001
,  // measure 30
0200
0000
0000
0000
0000
0000
0002
0000
0000
0303
0000
0000
1001
0000
0000
1000
0000
0000
0001
0100
0001
1000
0100
0010
,  // measure 31
0001
0000
0000
1000
0000
0000
0100
1000
0100
0010
0001
0100
0010
0000
0000
0100
0000
0000
0001
0010
0001
0010
0100
1000
,  // measure 32
0010
0000
0000
1000
0000
0001
0100
0000
0010
1000
0000
0000
0100
0000
0000
0010
0001
0010
0100
0000
1000
0100
0000
0010
,  // measure 33
0001
0000
0100
0010
0000
1000
0001
0000
0000
0100
0000
0000
0000
0000
0010
0100
0000
0010
0100
0000
0001
1000
0001
1000
,  // measure 34
0001
0000
0100
0010
0000
0100
0010
0000
0000
1000
0010
0100
0001
0000
0001
0010
0000
0010
0100
0000
0100
1000
0000
1000
,  // measure 35
0100
0000
0100
0010
0000
0010
0001
0000
0001
1000
0000
1000
0010
0000
0010
0100
0000
0010
1000
0010
0100
0001
0000
1000
,  // measure 36
0010
0000
0100
0001
0000
0010
0001
0000
0000
0001
0010
0100
1000
0000
1000
0100
0000
0100
0010
0000
0010
0001
0000
0001
,  // measure 37
0010
0000
0010
0100
0000
0100
1000
0000
1000
0001
0000
0100
0010
0100
0000
0100
0010
0000
0010
1000
0000
1000
0001
0000
,  // measure 38
0001
0100
0000
0100
0010
0000
0000
1000
0001
1000
0001
0000
1000
0100
0000
0100
0010
0000
0010
0001
0000
0001
0010
0000
,  // measure 39
0010
0100
0000
0100
1000
0000
0000
0001
0000
0100
0010
1000
0010
0100
0000
0010
0100
0000
0100
0001
0000
0001
0100
0000
,  // measure 40
0100
0010
0000
0010
1000
0000
0000
1000
0100
0010
0001
0000
0001
1000
0000
1000
0010
0000
0010
0100
0000
0100
0010
0000
,  // measure 41
0010
1000
0000
1000
0001
0000
0001
1000
0000
1000
0100
0000
0100
0020
0000
0000
0000
0000
0000
0000
0000
0000
0000
0000
,  // measure 42
0031
0100
1000
0002
0000
0020
0003
2000
,  // measure 43
0030
0200
3000
0020
0300
0000
0000
0000
,  // measure 44
0000
0000
0000
0000
0000
0000
0000
0000
0000
0000
0000
0000
0031
0000
0000
1000
0000
0000
0001
0000
0000
0000
0000
0000
0100
0000
0000
0000
0010
0000
1000
0000
0000
0000
0001
0000
0010
0000
0000
0000
0100
0000
1000
0000
0000
0000
0000
0000
,  // measure 45
0000
0000
0000
0110
0000
0000
0000
0000
0000
0100
0000
0000
0010
0000
0000
1000
0000
0000
0001
1000
0001
1000
0000
0000
,  // measure 46
0010
0000
0000
0100
0000
0000
0001
0100
0001
0100
0000
0000
0010
0000
0000
1000
0000
0000
0001
1000
0001
1000
0000
0000
,  // measure 47
0100
0000
0010
0001
0000
0010
0001
0000
0000
0010
0000
0000
0100
1000
0100
1000
0000
0100
0010
0000
0010
0001
0000
0001
,  // measure 48
1000
0000
1000
0010
0000
0000
0100
0001
1000
0010
0000
0000
0100
0000
0010
0100
0000
0010
1000
0001
1000
0010
0000
0100
,  // measure 49
0010
1000
0001
0010
0100
1000
0001
0000
0000
0010
0000
0000
0100
0000
0000
1000
0001
1000
0001
0010
0100
1000
0000
0000
,  // measure 50
0010
0000
0000
0100
0001
0100
0001
1000
0010
0100
0000
0000
0001
0000
0000
1000
0010
1000
0100
0010
0001
0010
0000
0000
,  // measure 51
0100
0000
1000
0100
0000
0010
0001
0000
0000
1000
0000
0000
0010
0100
0001
0100
0000
0010
1000
0000
0001
0100
0000
0010
,  // measure 52
1000
0000
0001
0100
0000
0010
0100
0000
0000
0000
0000
0010
1000
0000
0001
0100
0010
1000
0001
0000
0100
0010
0000
1000
,  // measure 53
0100
0000
0010
0001
0000
0000
0010
0100
0010
0100
0000
1000
0100
0000
0010
0001
0000
0010
1000
0000
0010
0001
0000
1000
,  // measure 54
0010
0000
0001
0010
0000
1000
0010
0000
0001
0100
0000
0010
1000
0000
0001
0100
0000
0001
0010
0000
0100
1000
0000
0100
,  // measure 55
0001
0000
0100
1000
0000
0010
0100
0000
0001
0010
0000
0100
1000
0000
0010
0100
0000
0001
0010
0000
1000
0010
0000
0001
,  // measure 56
0100
0000
1000
0100
0000
0001
0100
0000
0010
0000
0000
1000
0001
0000
0100
0010
0000
1000
0100
0000
0001
0100
0000
0010
,  // measure 57
0010
0000
0100
2002
0000
0000
3003
0000
0000
0000
0000
0000
0000
0000
0000
0000
0000
0000
0000
0000
0000
0000
0000
0000
;

//---------------dance-single - ----------------
#NOTEDATA:;
#CHARTNAME:;
#STEPSTYPE:dance-single;
#DESCRIPTION:;
#CHARTSTYLE:;
#DIFFICULTY:Medium;
#METER:12;
#RADARVALUES:0.543309,0.528251,0.192565,0.192565,0.377107,426.000000,24.000000,24.000000,0.000000,0.000000,0.000000,0.000000,0.000000,0.543309,0.528251,0.192565,0.192565,0.377107,426.000000,24.000000,24.000000,0.000000,0.000000,0.000000,0.000000,0.000000;
#CREDIT:;
#NOTES:
0000
0000
2002
0000
,
0000
0000
0000
0000
,
3003
0010
0000
1000
0001
0000
0000
0010
0000
0000
0100
0000
,
0000
1000
0000
0000
0001
0010
0001
0010
0000
0000
0100
0000
,
0000
1000
0000
0000
0010
0000
0000
0100
0001
0100
0001
0000
,
0000
1000
0000
0000
0010
0000
0000
0100
0000
0000
0001
0000
,
0000
1000
0000
0000
0010
1000
0010
1000
0000
0000
0100
0000
,
0000
0010
0000
0000
0001
0000
0000
0100
0000
0000
0010
0000
,
1000
0100
0000
0000
0010
0000
0001
1000
0000
0000
0100
0000
,
0010
0001
0000
0000
0100
0000
0010
1000
0000
0000
0100
0000
,
0010
0001
0000
0001
0100
0000
0010
1000
0000
0000
0010
0000
,
0100
0001
0000
0000
0010
0000
0100
1000
0000
0100
1000
0000
,
0001
0000
0100
0010
0100
0000
0000
0010
0000
0000
0000
1000
,
0000
0000
0000
0000
0001
0000
0000
0000
0000
0000
0000
0000
,
0000
0000
0000
0000
1001
0001
0100
0001
,
1000
0020
0130
0002
1003
0100
1000
0100
,
0010
0001
0010
0100
1000
0001
1000
0010
,
0100
0000
0000
0001
0000
0000
0100
0000
0000
0010
0000
1000
0001
0000
0000
0000
0000
0100
0010
0000
0000
0000
0000
1000
,
0100
0010
0002
0000
0013
0100
1000
0100
,
0010
0001
0100
0010
1000
0001
1000
0100
,
0010
0001
1000
0001
1000
0100
0100
0010
,
0001
0100
0010
1000
0001
0100
0010
0010
,
1000
0001
0010
0001
1000
0100
0001
0100
,
1000
0010
0001
0010
1000
0100
0010
0001
,
1000
0010
0100
0001
1000
0001
0100
0010
,
0001
0010
1000
0001
0010
0100
2000
0000
,
0200
0000
0000
3000
0000
0000
0020
0000
0000
0300
0000
0000
0031
0000
0000
0001
0000
0000
1000
0000
0010
0100
0000
0010
,
0100
0000
0000
0001
0000
0000
1000
0000
0001
0010
0000
0001
0010
0000
0000
0100
0000
0000
1000
0000
0100
0010
0000
0100
,
0010
0000
0000
0001
0000
0000
1000
0000
0001
0100
0000
0000
0010
0000
0000
0100
0000
0010
1000
0000
0000
0100
0000
0010
,
0001
0000
0000
0010
0000
0001
1000
0000
0000
0001
0000
1000
0100
0000
0000
0010
0000
0000
0001
0000
1000
0001
0000
1000
,
0020
0000
0000
0000
0000
0000
0200
0000
0000
0330
0000
0000
1001
0000
0000
1000
0000
0000
0001
0000
0000
0100
0000
0001
,
0010
0000
0000
0100
0000
0000
1000
0000
0000
0010
0000
0100
0001
0000
0000
0010
0000
0000
0100
0000
0000
1000
0000
0100
,
0010
0000
0000
0001
0000
0000
1000
0000
0001
0100
0000
0000
0010
0000
0000
1000
0000
0100
1000
0000
0000
0001
0000
0100
,
0010
0000
0000
1000
0000
0010
0100
0000
0000
0010
0000
0000
0000
0000
1000
0001
0000
0000
0100
0000
0000
0010
0000
0000
,
1000
0000
0000
0001
0000
0100
0010
0000
0000
1000
0000
0000
1001
0000
0000
0001
0000
0000
0101
0000
0000
1000
0000
0000
,
1100
0100
0110
0010
0001
0010
0100
1000
,
0010
0000
0000
0100
0000
0001
0100
0000
0000
0001
0000
0000
1001
0000
0000
1000
0000
0000
1010
0000
0000
0001
0000
0000
,
0011
0000
0000
0010
0000
0000
0100
0000
0000
1000
0000
0000
0001
1000
0000
0001
0000
0000
0010
0000
0000
0100
0000
0000
,
1000
0001
0100
0101
0010
1010
0100
0110
,
0010
0001
1000
0100
0010
0001
1000
0001
,
0100
0001
0100
0110
0001
1001
0100
0101
,
0010
0000
0000
1000
0000
0000
0001
0000
0000
0100
0000
0000
0001
0200
0000
0000
0000
0000
0000
0000
0000
0000
0000
0000
,
0301
0100
0001
2000
0000
3002
0000
0203
,
0000
0320
0000
2030
0000
0000
0000
0000
,
0000
0000
0000
0000
0000
0000
3001
0000
0000
0100
0000
0000
0010
0000
0000
0100
0000
0000
0001
0000
1000
0010
0000
0000
,
0000
1001
0000
0100
0010
1000
0001
0001
,
0010
0100
1000
1000
0001
0100
0001
0001
,
0100
0000
0000
0010
0000
0000
0010
0000
0000
1000
0000
0000
0001
0000
1000
0001
0000
0000
0010
0000
0100
0010
0000
0000
,
0001
0000
1000
0001
0000
0000
0100
0000
0000
0010
0000
0000
1000
0000
0000
0001
0000
0000
1000
0000
0000
0010
0000
0000
,
0100
0000
0001
0020
0000
0000
0000
0000
0000
0130
0000
0000
1000
0000
0000
0010
0000
0000
0100
0000
0001
1000
0000
0000
,
0010
0000
0000
0100
0000
0000
0001
0000
0010
0100
0000
0000
1000
0000
0000
0100
0000
0000
0010
0000
0001
1000
0000
0000
,
0010
0000
0000
0100
0000
0001
0010
0000
0000
0100
0000
0000
1000
0000
0001
0200
0000
0000
0320
0000
0000
2030
0000
0000
,
3002
0000
0000
0023
0000
0000
0230
0000
0000
0000
0000
1300
0001
0000
0000
0100
0000
0000
0001
0000
0000
1000
0000
0000
,
0001
0000
0010
0100
0000
0000
1000
0000
0000
1100
0000
0000
0100
0000
0000
0010
0000
0000
0001
0000
0000
1000
0000
0000
,
0010
1010
1000
1001
0001
0010
0100
1000
,
0010
0110
0100
0101
0001
1000
1001
0001
,
0100
0000
0000
0110
0000
0000
0010
0000
0000
0000
0000
1000
0001
0000
1000
0001
0000
0100
0010
0000
0100
0010
0000
1000
,
0001
0000
0100
0020
0000
0000
0030
0000
0000
0000
0000
0000
0000
0000
0000
0000
0000
0000
0000
0000
0000
0000
0000
0000
;

//---------------dance-single - ----------------
#NOTEDATA:;
#CHARTNAME:;
#STEPSTYPE:dance-single;
#DESCRIPTION:;
#CHARTSTYLE:;
#DIFFICULTY:Easy;
#METER:4;
#RADARVALUES:0.340428,0.367479,0.176518,0.280824,0.180530,240.000000,22.000000,35.000000,0.000000,0.000000,0.000000,0.000000,0.000000,0.340428,0.367479,0.176518,0.280824,0.180530,240.000000,22.000000,35.000000,0.000000,0.000000,0.000000,0.000000,0.000000;
#CREDIT:;
#NOTES:
0000
0000
0200
0000
,
0000
0000
0000
0000
,
0300
0001
0000
0000
1000
0000
0000
0100
0000
0000
0010
0000
,
0000
0001
0000
0000
1000
0000
0000
0010
0000
0000
0100
0000
,
0000
0001
0000
0000
1000
0000
0000
0100
0000
0000
1000
0000
,
0000
0010
0000
0000
0100
0000
0000
0001
0000
0000
0010
0000
,
0000
0001
0000
0000
0010
0000
0000
0100
0000
0000
1000
0000
,
0000
0010
0000
0000
0100
0000
0000
0010
0000
0000
1000
0000
,
0000
0001
0000
0000
0100
0000
0000
0010
0000
0000
1000
0000
,
0000
0100
0000
0000
0010
0000
0000
0001
0000
0000
0010
0000
,
0000
0100
0000
0000
1000
0000
0000
0010
0000
0000
0100
0000
,
0000
0001
0000
0000
1000
0000
0000
0001
0000
0000
0100
0000
,
0010
0000
1000
0000
0010
0000
0000
0100
0000
0000
0000
0010
,
0000
0000
0000
0000
1000
0000
0000
0000
0000
0000
0000
0000
,
0000
0000
1001
0010
,
0100
0001
0010
0100
,
1000
0010
0100
0001
,
0010
0100
1000
0010
,
0100
0020
0130
0001
,
1000
0010
0100
0001
,
0010
0001
1000
0100
,
1000
0010
0100
0010
,
1000
0001
1000
0100
,
0010
0001
1000
0010
,
0100
0001
0100
0010
,
0100
0001
1000
0002
,
2003
0000
3020
0000
0130
0100
0002
0000
,
1003
1000
0020
0000
0130
0100
0002
0000
,
1003
1000
0200
0000
0310
0000
1000
0000
,
0001
0000
1000
0000
0100
0000
0010
0001
,
2000
0000
3001
0000
0010
0010
0200
0000
,
1300
1000
0002
0000
0013
0010
0200
0000
,
1300
1000
0002
0000
0103
0000
0010
0000
,
1000
0000
0001
0100
0000
0000
0010
0000
,
1000
0001
1000
0000
1001
0000
0110
0000
,
0101
1100
0001
1000
,
0010
0100
0101
1100
,
1001
0000
0010
0000
0000
0001
0000
0100
,
0000
0001
0000
0101
0000
1010
0000
1001
,
0000
0010
0000
1000
0000
0100
0000
0010
,
0000
0001
0000
1001
0000
1100
0000
1001
,
0000
1000
0000
0010
0020
0000
0000
0000
,
1030
0010
0100
0002
0000
0023
0000
0230
,
0000
2300
0000
3002
0000
0000
0000
0000
,
0000
0000
1003
1000
0000
0010
0000
0000
,
0000
1001
0000
0100
0100
0002
0000
0013
,
0010
0200
0000
1300
1000
0020
0000
0130
,
0100
0002
0000
1003
0000
0010
0000
0100
,
0000
0001
0000
0010
0010
0200
0000
2300
,
0000
3002
0000
1003
0010
2000
0000
3100
,
0010
0002
0000
0103
0010
2000
0000
3001
,
0010
0200
0000
1300
0001
0010
0100
1000
,
0001
0010
0002
0000
1003
2000
0000
3020
,
0000
0130
0000
1001
0000
0001
0000
1000
,
0000
1010
0000
1010
0000
0010
0000
0100
,
0000
0101
0000
0011
0000
0000
1100
0000
,
0000
1001
0000
0000
1000
0001
0100
0100
,
0010
0200
0300
0000
0000
0000
0000
0000
;

//---------------dance-single - ----------------
#NOTEDATA:;
#CHARTNAME:;
#STEPSTYPE:dance-single;
#DESCRIPTION:;
#CHARTSTYLE:;
#DIFFICULTY:Beginner;
#METER:2;
#RADARVALUES:0.176518,0.206707,0.088259,0.176518,0.092271,121.000000,11.000000,22.000000,0.000000,0.000000,0.000000,0.000000,0.000000,0.176518,0.206707,0.088259,0.176518,0.092271,121.000000,11.000000,22.000000,0.000000,0.000000,0.000000,0.000000,0.000000;
#CREDIT:;
#NOTES:
0000
0000
0200
0000
,
0000
0000
0000
0000
,
0300
0001
0000
0000
0000
0000
0000
0001
0000
0000
0000
0000
,
0000
1000
0000
0000
0000
0000
0000
1000
0000
0000
0000
0000
,
0000
0010
0000
0000
0000
0000
0000
0010
0000
0000
0000
0000
,
0000
0100
0000
0000
0000
0000
0000
0100
0000
0000
0000
0000
,
0000
0001
0000
0000
0000
0000
0000
0010
0000
0000
0000
0000
,
0000
0100
0000
0000
0000
0000
0000
1000
0000
0000
0000
0000
,
0000
0001
0000
0000
0000
0000
0000
0100
0000
0000
0000
0000
,
0000
0010
0000
0000
0000
0000
0000
1000
0000
0000
0000
0000
,
0000
0001
0000
0000
0000
0000
0000
0100
0000
0000
0000
0000
,
0000
0010
0000
0000
0000
0000
0000
1000
0000
0000
0000
0000
,
0001
0000
0000
0000
0010
0000
0000
0000
0000
0000
0000
0100
,
0000
0000
0000
0000
1000
0000
0000
0000
0000
0000
0000
0000
,
0000
0000
1001
0000
,
0010
1000
0000
0010
,
0000
0100
0000
1000
,
0000
0010
0000
0100
,
0000
0200
0310
0000
,
0001
0000
0010
0000
,
0100
0000
0001
0000
,
0001
0000
0010
0000
,
0001
0000
0001
0000
,
0100
0000
0001
0000
,
0010
0000
0010
0000
,
0010
0000
0001
2000
,
3002
0203
0310
0000
,
0001
0000
0010
0000
,
0001
0000
0100
0000
,
1000
0000
0010
0000
,
0002
1003
0100
0000
,
0001
0000
0100
0000
,
0001
0000
0010
0000
,
0001
0000
0000
0010
0000
0000
0100
0000
,
0000
0001
1001
0000
,
1010
0000
1000
0000
,
0100
0000
1010
0000
,
1001
0000
0000
0000
0000
1000
0000
0000
,
0000
1000
0000
0000
0000
0101
0000
0000
,
0000
0100
0000
0000
0000
0010
0000
0000
,
0000
1000
0000
0000
0000
0011
0000
0000
,
0000
0001
0000
0000
0200
0000
0000
0000
,
0300
0001
0000
1000
0000
0100
0000
0010
,
0000
0002
0000
2003
0000
0000
0000
0000
,
0000
0000
0000
3001
0000
0000
0000
0000
,
0000
1001
0000
0000
0000
2000
0000
3000
,
0000
0020
0000
0030
0000
0200
0000
0300
,
0000
2000
0000
3001
0000
0000
0000
0010
,
0000
0000
0000
0100
0000
0020
0000
0032
,
0000
2003
0000
3000
0000
0002
0000
0003
,
0000
2000
0000
3000
0000
0002
0000
0003
,
0000
0020
0000
0030
0000
0100
0000
0000
,
0000
0100
0000
0000
0000
2000
0000
0000
,
0000
3001
0000
1001
0000
0000
0000
0001
,
0000
0000
0000
0101
0000
0000
0000
0010
,
0000
0000
0000
1100
0000
0000
0001
0000
,
0000
1000
0000
0000
0001
0000
0000
0010
,
0000
0200
0300
0000
0000
0000
0000
0000
;
