#TITLE:Dynamite Sensation;
#SUBTITLE:;
#ARTIST:NAOKI;
#TITLETRANSLIT:;
#SUBTITLETRANSLIT:;
#ARTISTTRANSLIT:;
#CREDIT:;
#BANNER:DYNAMITE SENSATION-bn.png;
#BACKGROUND:DYNAMITE SENSATION-bg.png;
#LYRICSPATH:;
#CDTITLE:;
#MUSIC:Dynamite Sensation.mp3;
#OFFSET:0.000;
#SAMPLESTART:38.560;
#SAMPLELENGTH:12.000;
#SELECTABLE:YES;
#BPMS:0.000=150.100;
#STOPS:;
#BGCHANGES:;

//---------------dance-single - ----------------
#NOTES:
     dance-single:
     :
     Hard:
     16:
     0.932,0.868,0.484,0.378,0.930:
0000
0000
1000
0010
1000
0010
0100
0001
0100
0001
0010
0000
0100
1000
0000
0100
,
0010
0000
0001
0010
1000
0010
0001
0100
1000
0100
0001
0000
1000
0010
0000
0100
,
0001
0000
1000
0010
1000
0001
0100
0001
0010
0100
1000
0000
0001
0010
0000
0100
,
1000
0000
0100
0010
0100
1000
0100
0001
0100
1000
0010
0000
0100
0001
0000
0001
,
1000
0000
0001
0100
0001
0100
0010
1000
0010
1000
0100
0000
0010
0001
0000
0010
,
0100
0000
1000
0100
0001
0100
1000
0010
0001
0010
1000
0000
0001
0100
0000
0010
,
1000
0000
0001
0100
0001
1000
0010
1000
0100
0010
0001
0000
1000
0100
0000
0010
,
0001
0000
0010
0100
0010
0001
0010
1000
0010
0001
0100
0000
0010
1000
0000
1000
,
0001
0100
1000
0100
0001
1000
0100
1000
,
0001
0100
1000
0001
0010
1000
0100
0010
,
0001
1000
0100
0001
1000
0010
0001
1000
,
0100
0001
1000
0010
0001
0100
1000
0100
,
0001
0010
0001
1000
0100
1000
0010
0100
,
1000
0100
0001
0010
0100
0001
0100
1000
,
0010
0001
1000
0100
1000
0001
0010
0001
,
1000
0100
0001
0010
0100
1000
0001
0100
,
0010
0000
1000
0010
1000
0000
0001
0100
0001
0000
1000
0010
0100
0000
0001
0010
,
0100
0000
1000
0100
0010
0000
0001
0010
0100
0000
0010
0100
1000
0000
0010
0100
,
0001
0000
1000
0010
0001
0000
1000
0100
0001
0000
1000
0010
0100
0000
0010
0100
,
0001
0000
0010
0100
1000
0000
0001
0010
0100
0000
1000
0001
0100
0000
0010
0100
,
0010
0000
1000
0001
1000
0000
0010
0100
0001
0000
0010
0100
1000
0000
0001
0010
,
1000
0000
0001
0100
1000
0000
0010
0100
0010
0000
1000
0001
1000
0000
0010
1000
,
0001
0000
0100
0001
1000
0000
0010
0100
0010
0000
1000
0001
0100
0000
0001
0010
,
0100
0000
0100
1000
0100
0000
0100
0001
0100
0000
0100
1000
0010
0000
0010
0100
,
0010
0000
1001
0000
0000
0101
0000
0000
1010
0000
2002
0000
0000
0000
0000
0000
,
0000
0000
3000
0000
1003
0010
1000
0010
0100
0001
0100
0001
1000
0010
0100
0000
,
0001
0000
0011
0000
0000
0110
0000
0000
1100
0000
2020
0000
0000
0000
0000
0000
,
0000
0000
0030
0000
3001
0100
0001
0010
0100
1000
0100
0010
0001
0010
0100
0000
,
1000
0000
1001
0000
0000
1010
0000
0000
0101
0000
2002
0000
0000
0000
0000
0000
,
0000
0000
0003
0000
3001
0100
0001
0100
0010
1000
0010
1000
0001
0100
0010
0000
,
1000
0000
1100
0000
0000
0110
0000
0000
0011
0000
0202
0000
0000
0000
0000
0000
,
0000
0000
0300
0000
1003
0010
1000
0100
0010
0001
0010
0100
1000
0100
0010
0000
,
0001
0000
1000
0000
0000
1020
0000
0000
0130
0000
0001
0000
1000
0000
0001
0010
,
0000
0000
0100
0000
0000
2100
0000
0000
3001
0000
0010
0000
0100
0000
0010
1000
,
0000
0000
0001
0000
0000
0201
0000
0000
1300
0000
0010
0000
0001
0000
1000
0100
,
0000
0000
0010
0000
0000
2010
0000
0000
3001
0000
0010
0000
0100
0000
1000
0200
,
0000
0000
0310
0000
0001
1000
0001
0000
1000
0010
0000
0100
0001
0000
0202
0000
,
0300
0000
1003
0000
0010
1000
0001
0000
0100
0010
0000
0010
1000
0000
2002
0000
,
0003
0000
3020
0000
0000
1000
0000
0000
0200
0000
0300
0000
1000
0000
0030
0100
,
0000
0000
1002
0000
0000
0100
0000
0000
0020
0000
0030
0000
0103
0000
0000
0010
,
0000
0000
0100
0000
1000
0001
1000
0000
0001
0100
0000
0010
1000
0000
2020
0000
,
0030
0000
3001
0000
0100
0001
1000
0000
0010
0100
0000
0100
0001
0000
2002
0000
,
3000
0000
0203
0000
0000
0001
0000
0000
0020
0000
0030
0000
0001
0000
0300
0010
,
0000
0000
2001
0000
0000
0010
0000
0000
0200
0000
0300
0000
3010
0000
0000
0100
,
0000
0000
0001
0010
0100
1000
0001
0010
0100
1000
0001
0000
1000
0000
0010
0000
,
0110
0000
0100
0010
1000
0001
0100
0001
0010
0100
1000
0000
0001
0000
1000
0000
,
1001
0000
0001
0100
1000
0100
0001
0100
1000
0100
0010
0000
1000
0000
0001
0000
,
0101
0000
1000
0100
0010
0001
1000
0100
0010
0001
1000
0000
0001
0000
0100
0000
,
0110
0000
0010
0100
0001
1000
0010
1000
0100
0010
0001
0000
1000
0000
0001
0000
,
1001
0000
1000
0010
0001
0010
1000
0010
0001
0010
0100
0000
0001
0000
1000
0000
,
1010
0000
0001
0010
0100
1000
0001
0010
0100
1000
0001
0000
1000
0000
0010
0000
,
0110
0000
0100
0010
1000
0001
0100
0001
0010
0100
1000
0000
0001
0000
1000
0000
,
0001
0000
1001
0000
0000
0101
0000
0000
1010
0000
2002
0000
0000
0000
0000
0000
,
0000
0000
3000
0000
1003
0010
1000
0010
0100
0001
0100
0001
1000
0010
0100
0000
,
0001
0000
0011
0000
0000
0110
0000
0000
1100
0000
2020
0000
0000
0000
0000
0000
,
0000
0000
0030
0000
3001
0100
0001
0010
0100
1000
0100
0010
0001
0010
0100
0000
,
1000
0000
1001
0000
0000
1010
0000
0000
0101
0000
2002
0000
0000
0000
0000
0000
,
0000
0000
0003
0000
3001
0100
0001
0100
0010
1000
0010
1000
0001
0100
0010
0000
,
1000
0000
1100
0000
0000
0110
0000
0000
0011
0000
0202
0000
0000
0000
0000
0000
,
0000
0000
0300
0000
1003
0010
1000
0100
0010
0001
0010
0100
1000
0100
0010
0000
,
0001
0000
1000
0010
0100
0010
1000
0001
0010
0100
0010
0000
0100
0000
1000
0000
,
0001
2002
0000
0000
0000
0000
0000
0000
,
0000
0000
0000
0000
,
0000
0000
0000
0000
,
3003
0000
0000
0000
;

//---------------dance-single - Copied from----------------
#NOTES:
     dance-single:
     Copied from:
     Medium:
     12:
     0.606,0.620,0.126,0.320,0.160:
0000
1000
0000
0001
0000
1001
0000
0000
,
0000
1000
0000
0010
0000
0110
0000
0000
,
0000
0010
0000
0100
0000
0101
0000
0000
,
0000
0010
0000
1000
0000
1010
0000
0000
,
0000
1000
0001
0100
0001
1000
0010
0000
,
0100
0010
0001
0010
0100
0001
1000
0000
,
0001
0010
0100
1000
0010
0001
0010
0000
,
1000
0100
0010
0100
1000
0001
0100
0000
,
0001
0100
0010
1000
0100
0010
0100
1000
,
0001
0100
0010
0001
0010
0100
0010
0001
,
0010
1000
0100
0010
0100
1000
0001
0010
,
0100
1000
0100
0010
0001
0010
0100
1000
,
0100
0010
0100
1000
0001
1000
0010
0100
,
0001
0100
0010
1000
0001
0010
0100
1000
,
0100
0010
1000
0010
0001
0100
0010
0100
,
0001
1000
0001
0100
0010
1000
0100
1000
,
0010
0000
1000
0001
1000
0000
0001
0000
0100
0000
1000
0000
0100
0000
0010
0000
,
1000
0000
0001
0100
0001
0000
1000
0000
0010
0000
0100
0000
0001
0000
1000
0000
,
0100
0000
0010
0001
0010
0000
0100
0000
1000
0000
0010
0000
0100
0000
0001
0000
,
1000
0000
0010
0100
0010
0000
1000
0000
0100
0000
0001
0000
0100
0000
1000
0000
,
0010
0000
1000
0001
1000
0000
0100
0000
1000
0000
0010
0000
0100
0000
0010
0000
,
1000
0000
0001
0100
0001
0000
0010
0000
0100
0000
0010
0000
0001
0000
1000
0000
,
0100
0000
1000
0010
1000
0000
0010
0000
0100
0000
1000
0000
0100
0000
0010
0000
,
0100
0000
0001
0100
0001
0000
0010
0000
0100
0000
0010
0000
0001
0000
0010
0100
,
0010
0000
0100
0000
0000
1000
0000
0000
0010
0000
2002
0000
0000
0000
0000
0000
,
0000
3000
1003
1000
0010
0010
0100
0100
,
0001
0000
0010
0000
0000
0100
0000
0000
1000
0000
2200
0000
0000
0000
0000
0000
,
0000
0300
3001
0001
0010
0010
0100
0100
,
1000
0000
0001
0000
0000
1000
0000
0000
0001
0000
0202
0000
0000
0000
0000
0000
,
0000
0003
0301
0001
1000
1000
0010
0010
,
1000
0000
0001
0000
0000
0100
0000
0000
0010
0000
0220
0000
0000
0000
0000
0000
,
0000
0300
1030
1000
0010
0010
0100
0100
,
0001
0000
1000
0000
0000
0001
0000
0000
0010
0000
0100
0000
1000
0000
0001
0000
,
0000
0000
0100
0000
0000
1000
0000
0000
0100
0000
0010
0000
0100
0000
0001
0000
,
0000
0000
1000
0000
0000
0001
0000
0000
0100
0000
0010
0000
0100
0000
0001
0000
,
0000
0000
0100
0000
0000
0001
0000
0000
0010
0000
0100
0000
1000
0000
0100
0000
,
0000
0000
0010
0000
0100
0000
0010
0000
0000
0010
0000
0000
0010
0000
0002
0000
,
0000
0000
1003
0000
0010
0000
1000
0000
0000
1000
0000
0000
1000
0000
0002
0000
,
0000
0000
2003
0000
0000
0010
0000
0000
0010
0000
0000
0000
0010
0000
0000
3010
,
0000
0000
0002
0000
0000
0100
0000
0000
0100
0000
0000
0000
0103
0000
0000
0010
,
0000
0000
0100
0000
0010
0000
1000
0000
0000
1000
0000
0000
1000
0000
0002
0000
,
0000
0000
0103
0000
0001
0000
0100
0000
0000
0100
0000
0000
0100
0000
0020
0000
,
0000
0000
2030
0000
0000
0001
0000
0000
0001
0000
0000
0000
0001
0000
3000
0010
,
0000
0000
0200
0000
0000
0001
0000
0000
0001
0000
0000
0000
0301
0000
0000
0001
,
0000
0001
0010
0100
1000
0001
0020
0000
,
0000
0130
1000
0100
0010
0001
0200
0000
,
0000
0301
0100
0010
1000
0001
2000
0000
,
0000
3001
1000
0010
1000
0001
0200
0000
,
0000
0301
0100
0010
1000
0001
0020
0000
,
0000
0130
1000
0100
0010
0001
2000
0000
,
0000
3010
0100
0001
1000
0001
0020
0000
,
0000
0130
1000
0001
0100
0001
1000
0001
,
0010
0000
0001
0000
0000
0010
0000
0000
0100
0000
2002
0000
0000
0000
0000
0000
,
0000
3000
1003
1000
0010
0010
0100
0100
,
0001
0000
0010
0000
0000
0100
0000
0000
1000
0000
2200
0000
0000
0000
0000
0000
,
0000
0300
3001
0001
0010
0010
0100
0100
,
1000
0000
0001
0000
0000
1000
0000
0000
0001
0000
0202
0000
0000
0000
0000
0000
,
0000
0003
0301
0001
1000
1000
0010
0010
,
1000
0000
0001
0000
0000
0100
0000
0000
0010
0000
0220
0000
0000
0000
0000
0000
,
0000
0300
1030
1000
0010
0010
0100
0100
,
0001
1000
0001
0100
0010
0100
0001
1000
,
0001
2002
0000
0000
0000
0000
0000
0000
,
0000
0000
0000
0000
,
0000
0000
0000
0000
,
3003
0000
0000
0000
;

//---------------dance-single - Copied from Copied f----------------
#NOTES:
     dance-single:
     Copied from Copied f:
     Easy:
     6:
     0.343,0.310,0.019,0.291,0.053:
0000
2000
0000
0000
0000
0000
0000
0000
,
0000
3002
0000
0000
0000
0000
0000
0000
,
0000
0023
0000
0000
0000
0000
0000
0000
,
0000
0230
0000
0000
0000
0000
0000
0000
,
0000
1300
0000
0100
0000
1000
0000
0000
,
0000
0001
0000
0010
0000
0001
0000
0000
,
0000
0100
0000
1000
0000
0001
0000
0000
,
0000
0100
0000
0010
0000
0100
0000
0000
,
0000
0001
0000
0001
0000
0001
0000
0001
,
0000
0100
0000
0100
0000
0100
0000
0100
,
0000
0010
0000
0010
0000
0010
0000
1000
,
0000
1000
0000
1000
0000
1000
0000
0001
,
0000
0001
0000
0001
0000
0001
0000
0010
,
0000
0010
0000
0010
0000
0010
0000
0100
,
0000
0100
0000
0100
0000
0100
0000
1000
,
0000
1000
0000
1000
0000
1000
0000
1001
,
0000
1000
0001
0001
0000
1000
0000
0001
,
0000
0010
0100
0100
0000
1000
0000
0010
,
0000
0100
0100
0001
0000
0010
0000
0100
,
0000
1000
1000
0100
0000
0010
0000
0001
,
0000
1000
0001
0001
0000
1000
0000
0001
,
0000
0010
0100
0100
0000
1000
0000
0010
,
0000
0100
0100
0001
0000
0010
0000
0100
,
0000
1000
1000
0100
0000
0010
0000
0001
,
0000
0000
0100
0000
0000
0100
0000
0000
0100
0000
0200
0000
0000
0000
0000
0000
,
0000
1300
0010
0100
,
1000
0000
1000
0000
0000
1000
0000
0000
1000
0000
2000
0000
0000
0000
0000
0000
,
0000
3001
0010
0100
,
0010
0000
0010
0000
0000
0010
0000
0000
0010
0000
0020
0000
0000
0000
0000
0000
,
0000
0130
1000
0010
,
1000
0000
1000
0000
0000
1000
0000
0000
1000
0000
2000
0000
0000
0000
0000
0000
,
0000
3001
0010
0100
,
1000
1000
0000
0000
0000
0000
0000
0000
,
0000
0000
0100
0000
0000
1000
0000
0000
0010
0000
0000
0000
0000
0000
0000
0000
,
0000
0000
1000
0000
0000
0001
0000
0000
0100
0000
0000
0000
0000
0000
0000
0000
,
0000
0000
0100
0000
0000
0001
0000
0000
0010
0000
0000
0000
0000
0000
0000
0000
,
0000
0010
0000
0010
0000
0010
0000
0002
,
0000
1003
0000
1000
0000
1000
0000
0002
,
0000
0000
2003
0000
0000
0000
0000
0000
0000
0000
0000
0000
0000
0000
0000
3000
,
0000
0002
0000
0000
0000
0000
0003
0000
,
0000
0100
0000
0100
0000
0100
0000
0002
,
0000
0103
0000
0100
0000
0100
0000
0020
,
0000
2030
0000
0000
0000
0000
0000
3000
,
0000
0200
0000
0000
0000
0000
0300
0000
,
0000
0001
0000
1000
0000
0010
0020
0000
,
0000
0130
0000
0001
0000
0100
0200
0000
,
0000
0310
0000
0100
0000
0001
0002
0000
,
0000
1003
0000
0010
0000
0100
0200
0000
,
0000
0310
0000
0100
0000
0001
0002
0000
,
0000
0103
0000
0010
0000
1000
2000
0000
,
0000
3010
0000
1000
0000
0010
0020
0000
,
0000
0130
0000
0001
0000
0001
0000
0001
,
0000
0000
0100
0000
0000
0100
0000
0000
0100
0000
0200
0000
0000
0000
0000
0000
,
0000
1300
0010
0100
,
1000
0000
1000
0000
0000
1000
0000
0000
1000
0000
2000
0000
0000
0000
0000
0000
,
0000
3001
0010
0100
,
0010
0000
0010
0000
0000
0010
0000
0000
0010
0000
0020
0000
0000
0000
0000
0000
,
0000
0130
1000
0010
,
1000
0000
1000
0000
0000
1000
0000
0000
1000
0000
2000
0000
0000
0000
0000
0000
,
0000
0000
3000
1000
0000
0001
0000
0100
,
0000
0020
0000
0000
0000
0000
0000
0130
,
0000
2002
0000
0000
0000
0000
0000
0000
,
0000
0000
0000
0000
,
0000
0000
0000
0000
,
3003
0000
0000
0000
;

//---------------dance-single - Copied from Copied from Copied f----------------
#NOTES:
     dance-single:
     Copied from Copied from Copied f:
     Beginner:
     3:
     0.226,0.248,0.010,0.358,0.000: // measure 1
0000
0002
0000
0000
0000
0000
0000
0000
,  // measure 2
0000
2003
0000
0000
0000
0000
0000
0000
,  // measure 3
0000
3200
0000
0000
0000
0000
0000
0000
,  // measure 4
0000
0320
0000
0000
0000
0000
0000
0000
,  // measure 5
0000
0031
0000
0000
0000
0001
0000
0000
,  // measure 6
0000
1000
0000
0000
0000
1000
0000
0000
,  // measure 7
0000
0010
0000
0000
0000
1000
0000
0000
,  // measure 8
0000
0010
0000
0000
0000
0010
0000
0000
,  // measure 9
0000
1000
0000
0000
0000
1000
0000
0000
,  // measure 10
0000
0010
0000
0000
0000
0010
0000
0000
,  // measure 11
0000
0100
0000
0000
0000
0100
0000
0000
,  // measure 12
0000
0001
0000
0000
0000
0001
0000
0000
,  // measure 13
0000
1000
0000
0000
0000
1000
0000
0000
,  // measure 14
0000
0100
0000
0000
0000
0100
0000
0000
,  // measure 15
0000
0010
0000
0000
0000
0010
0000
0000
,  // measure 16
0000
0001
0000
0000
0000
0001
0000
0000
,  // measure 17
0000
0001
0000
1000
0000
0000
0000
1000
,  // measure 18
0000
0100
0000
0000
0000
0001
0000
0100
,  // measure 19
0000
0000
0000
1000
0000
0100
0000
0000
,  // measure 20
0000
0001
0000
0010
0000
0000
0000
1000
,  // measure 21
0000
0001
0000
0000
0000
0001
0000
1000
,  // measure 22
0000
0000
0000
0010
0000
0001
0000
0000
,  // measure 23
0000
0010
0000
1000
0000
0000
0000
0010
,  // measure 24
0000
0001
0000
0000
0000
0100
0000
1000
,  // measure 25
0000
0010
0000
0000
0000
0020
0000
0000
,  // measure 26
0000
2030
0000
0000
,  // measure 27
0000
3001
0000
0000
0000
0002
0000
0000
,  // measure 28
0000
2003
0000
0000
,  // measure 29
0000
3100
0000
0000
0000
0200
0000
0000
,  // measure 30
0000
0320
0000
0000
,  // measure 31
0000
0031
0000
0000
0000
0002
0000
0000
,  // measure 32
0000
2003
0000
0000
,  // measure 33
0000
3001
0000
0000
0000
0000
0000
0000
,  // measure 34
0000
0010
0000
0001
0000
0000
0000
0000
,  // measure 35
0000
0001
0000
0001
0000
0000
0000
0000
,  // measure 36
0000
0010
0000
1000
0000
0000
0000
0000
,  // measure 37
0000
0100
0000
0100
0000
0000
0000
2000
,  // measure 38
0000
3001
0000
0001
0000
0000
0000
2000
,  // measure 39
0000
0000
3002
0000
0000
0000
0000
0000
0000
0000
0000
0000
0000
0000
0000
0003
,  // measure 40
0000
2000
0000
0000
0000
0000
3000
0000
,  // measure 41
0000
0010
0000
0010
0000
0000
0000
2000
,  // measure 42
0000
3010
0000
0010
0000
0000
0000
0200
,  // measure 43
0000
0302
0000
0000
0000
0000
0000
0003
,  // measure 44
0000
0020
0000
0000
0000
0000
0030
0000
,  // measure 45
0000
1000
0000
0000
0000
0100
0200
0000
,  // measure 46
0000
0310
0000
0000
0000
0010
0020
0000
,  // measure 47
0000
0130
0000
0000
0000
1000
2000
0000
,  // measure 48
0000
3001
0000
0000
0000
0010
0020
0000
,  // measure 49
0000
0130
0000
0000
0000
1000
2000
0000
,  // measure 50
0000
3010
0000
0000
0000
0001
0002
0000
,  // measure 51
0000
0103
0000
0000
0000
0100
0200
0000
,  // measure 52
0000
0310
0000
0010
0000
0010
0000
0010
,  // measure 53
0000
0010
0000
0000
0000
0020
0000
0000
,  // measure 54
0000
0032
0000
0000
,  // measure 55
0003
0001
0000
0000
0000
0002
0000
0000
,  // measure 56
0000
2003
0000
0000
,  // measure 57
0000
3100
0000
0000
0000
0200
0000
0000
,  // measure 58
0000
0320
0000
0000
,  // measure 59
0000
0031
0000
0000
0000
0002
0000
0000
,  // measure 60
0000
0003
0000
0001
0000
0000
0000
0100
,  // measure 61
0000
0200
0000
0000
0000
0000
0000
0300
,  // measure 62
0000
2002
0000
0000
0000
0000
0000
0000
,  // measure 63
0000
0000
0000
0000
,  // measure 64
0000
0000
0000
0000
,  // measure 65
3003
0000
0000
0000
;
