#TITLE:DIORAMATIC MOMENT;
#SUBTITLE:;
#ARTIST:TERRA;
#TITLETRANSLIT:;
#SUBTITLETRANSLIT:;
#ARTISTTRANSLIT:;
#CREDIT:;
#BANNER:DIORAMATIC MOMENT-bn.png;
#BACKGROUND:DIORAMATIC MOMENT-bg.png;
#LYRICSPATH:;
#CDTITLE:;
#MUSIC:DIORAMATIC MOMENT.mp3;
#OFFSET:0.000;
#SAMPLESTART:88.220;
#SAMPLELENGTH:12.000;
#SELECTABLE:YES;
#BPMS:0.000=150.000;
#STOPS:;
#BGCHANGES:;

//---------------dance-single - ----------------
#NOTES:
     dance-single:
     :
     Hard:
     13:
     0.659,0.676,0.372,0.450,0.515: // measure 1
0000
0000
0000
0000
,  // measure 2
0000
0000
0000
0000
1000
0000
0000
0010
0000
0000
0100
0000
0100
0000
0000
0001
,  // measure 3
0000
0000
1000
0010
1000
0000
0000
0001
0000
0000
0010
0000
0010
0000
0000
0100
,  // measure 4
0000
0000
1000
0000
0001
0000
0000
0000
0000
0000
1000
0001
0010
0000
0000
0000
,  // measure 5
0100
0000
0000
0000
1000
0000
0000
0001
0000
0000
0100
0000
0010
0000
0000
1000
,  // measure 6
0000
0000
0001
0000
0010
0000
0000
0001
0000
0000
1000
0000
1000
0000
0000
0100
,  // measure 7
0000
0000
0010
0001
0010
0000
0000
0100
0000
0000
0001
0000
0100
0000
0000
1000
,  // measure 8
0000
0000
0010
0000
0100
0000
0000
0000
0000
0000
0010
0100
0001
0000
0000
1000
,  // measure 9
0000
0010
0200
0000
0320
0000
2030
0000
,  // measure 10
0000
0000
3001
0010
0002
0000
0000
0000
0023
0000
0000
0000
0130
1000
0100
0010
,  // measure 11
0001
1000
0010
0100
0020
0000
0000
0000
0000
0000
0000
0000
0000
0000
0000
0000
,  // measure 12
0000
0000
0000
0000
1030
0000
0000
0010
0000
0000
1000
0000
0001
0000
0000
0010
,  // measure 13
0000
0000
1000
0000
0001
0000
0000
0100
0000
0000
1000
0000
0001
0000
1000
0100
,  // measure 14
0010
0000
0100
0010
0001
0000
0000
1000
0000
0000
0010
0000
0100
0000
0000
0001
,  // measure 15
0000
0000
0010
0000
0100
0000
0000
1000
0000
0000
0010
0000
0100
0000
0010
1000
,  // measure 16
0001
0000
1000
0001
0100
0000
0000
0010
0000
0000
1000
0000
0001
0000
0000
0010
,  // measure 17
0000
0000
1000
0000
0001
0000
0000
0100
0000
0000
1000
0000
0001
0000
1000
0100
,  // measure 18
0010
0000
0100
0010
0001
0000
0000
1000
0000
0000
0001
0000
0100
0000
0000
0001
,  // measure 19
0000
0010
0002
0000
0000
1003
0200
0000
,  // measure 20
0000
0000
1300
0001
1000
0000
0000
1010
0000
0000
1000
0000
0001
0000
0000
0011
,  // measure 21
0000
0000
0010
0000
0100
0000
0000
1100
0000
0000
1000
0000
0010
0000
0010
0000
,  // measure 22
1000
0000
1000
0000
0200
0000
0000
0000
0000
0000
0310
0000
0001
0000
0000
1000
,  // measure 23
0000
0000
0010
0000
1000
0000
0000
1001
0000
0000
0001
0000
0012
0000
0000
0000
,  // measure 24
0003
0000
1000
0001
0100
0000
0000
0010
0000
0000
1000
0000
0001
0000
0000
0010
,  // measure 25
0000
0000
1000
0000
0001
0000
0000
0100
0000
0000
1000
0000
0001
0000
1000
0000
,  // measure 26
0010
0000
0100
0000
0102
0000
0000
0000
0000
0000
0013
0000
0100
0000
0000
1000
,  // measure 27
0000
0100
0020
0000
0032
0000
2003
0000
,  // measure 28
3010
1000
0001
0010
0100
0000
0000
0100
1000
0000
0100
0000
0010
0001
0010
0000
,  // measure 29
1000
0000
0010
0000
0001
0000
0000
1000
0100
0000
0010
0000
0001
1000
0100
0000
,  // measure 30
0010
0000
0001
0000
0100
0000
0000
0100
0001
0000
0010
0000
0100
1000
0010
0000
,  // measure 31
0100
0000
0001
0000
1000
0000
0000
1000
0001
0000
0100
0000
1000
0100
0001
0000
,  // measure 32
1000
0000
0100
0000
0001
0000
0000
0001
0100
0000
1000
0000
0010
0100
0010
0000
,  // measure 33
0100
0000
0001
0000
1000
0000
0000
0001
0010
0000
1000
0000
0010
0001
1000
0000
,  // measure 34
0001
0000
0100
0000
0010
0000
1000
0001
1000
0001
0100
0010
0100
0010
1000
0000
,  // measure 35
0001
2002
0000
3003
1001
0000
0101
0000
,  // measure 36
0110
0000
0000
0000
0100
0000
0000
1000
0000
0000
0100
0000
0100
0000
0000
0001
,  // measure 37
0000
0000
1000
0010
1000
0000
0000
0001
0000
0000
0010
0000
0010
0000
0000
0100
,  // measure 38
0000
0000
1000
0000
0002
0000
0000
0000
0003
0000
1000
0001
0020
0000
0000
0000
,  // measure 39
0130
0000
0000
0000
1100
0000
0000
0110
0000
0000
0011
0000
1001
0000
1000
0010
,  // measure 40
1000
0010
0100
0000
0010
0000
0000
0001
0000
0000
1000
0000
1000
0000
0000
0100
,  // measure 41
0000
0000
0010
1000
0001
0000
0000
0100
0000
0000
0001
0000
0001
0000
0000
1000
,  // measure 42
0000
0000
0010
0000
0202
0000
0000
0000
0303
0000
0001
0100
1000
0000
0000
0100
,  // measure 43
0000
0001
2001
0000
3002
0000
0023
0000
,  // measure 44
0000
0000
0130
0000
1000
0000
0000
1010
0000
0000
1000
0000
0001
0000
0000
0101
,  // measure 45
0000
0000
0100
0000
0020
0000
0000
0000
0000
0000
1030
0000
0001
0100
0001
0010
,  // measure 46
0100
1000
0100
0010
0002
0000
0000
0000
0010
0000
0000
0000
2003
0000
0000
0000
,  // measure 47
0001
3001
0200
0000
0320
0000
2030
0000
,  // measure 48
3002
0000
0000
0000
0203
0000
0000
0000
0000
0000
0301
1000
0010
0000
0000
1000
,  // measure 49
0000
0000
0001
0000
0010
0000
0000
1100
0000
0000
1000
0000
0001
0000
0000
0000
,  // measure 50
1000
0010
1000
0001
0100
0000
0010
0000
1000
0000
0100
0000
0010
0000
0001
0000
,  // measure 51
0100
1000
0100
0001
0010
0100
1000
0100
,  // measure 52
0010
0001
0010
1000
0010
0001
0100
1000
,  // measure 53
0100
0000
0001
0000
0110
0000
0000
1010
0000
0000
0101
0000
2001
0000
0000
0000
,  // measure 54
0000
3001
1010
0110
,  // measure 55
2002
0000
0000
3003
1001
0000
0110
0000
,  // measure 56
1010
0000
0000
0000
1001
0000
0000
0020
0000
0000
1000
0000
1030
0000
0000
0101
,  // measure 57
0000
0000
1000
0010
0100
0000
0000
2010
0000
0000
0001
0000
3001
0000
0000
0200
,  // measure 58
0000
0000
0310
0000
1001
0000
0000
0000
0000
0000
1000
0001
0020
0000
0000
0000
,  // measure 59
0230
0000
0000
0000
2300
0000
0000
3001
0000
0000
0100
0000
1002
0000
0000
0000
,  // measure 60
0000
0000
1003
0000
0010
0000
0000
0210
0000
0000
0301
0000
1000
0000
0000
1001
,  // measure 61
0000
0000
0001
1000
0010
0000
0000
0110
0000
0000
1001
0000
0200
0000
0000
0010
,  // measure 62
0000
0000
0301
0000
1000
0000
0000
0000
0000
0000
0010
1000
0001
0000
0000
0100
,  // measure 63
0000
0002
1000
0000
0100
0000
1003
0000
,  // measure 64
0000
0000
0000
0000
2020
0000
0000
0000
3030
0000
0010
1000
0001
0000
0000
0100
,  // measure 65
0000
0000
0010
0000
1000
0000
0000
1001
0000
0000
0100
0000
0020
0000
0000
0000
,  // measure 66
0000
0000
0000
0000
2030
0000
0000
0000
0000
0000
3001
0010
0001
0000
0000
0110
,  // measure 67
0000
1100
1000
0000
0010
0000
0100
0000
,  // measure 68
0000
0000
0001
1000
0200
0000
0000
0000
0310
0000
0000
0000
1001
0000
0000
1000
,  // measure 69
0000
0000
0010
0000
0200
0000
0000
0000
0000
0000
0000
0000
0310
1000
0001
1000
,  // measure 70
0001
0100
0010
2000
0002
0000
0000
0000
0000
0000
0000
0000
0000
0000
0000
0000
,  // measure 71
0000
0000
0000
0000
,  // measure 72
3003
0000
0000
0000
;

//---------------dance-single - Copied from----------------
#NOTES:
     dance-single:
     Copied from:
     Medium:
     10:
     0.472,0.491,0.294,0.510,0.017:
0000
0000
0000
0000
,
0000
1002
0010
0100
,
1003
2010
0100
0001
,
3100
0000
1001
0000
0000
0010
0100
0000
,
0100
1000
0100
0010
,
0000
0020
0032
2003
,
3020
0230
0302
0023
,
0230
0000
1300
0000
0000
1000
0001
0000
,
0100
0110
1001
1010
,
0000
1000
0001
0000
1000
0000
0010
0100
,
0010
0100
0020
0000
0000
0000
0000
0000
,
0000
0130
0001
1000
,
0010
0000
0100
0000
0010
0000
0100
0001
,
0100
0001
0100
0000
0010
0000
1000
0000
,
0001
0000
0010
0000
0100
0000
1000
0100
,
1000
0100
1000
0000
0001
0000
0100
0000
,
0010
0000
0100
0000
0001
0000
0100
0010
,
1000
0010
0100
0000
0001
0000
1000
0000
,
1000
0002
0000
0203
,
0000
0310
0010
1000
,
1000
0001
0001
0100
,
0100
0000
0002
0000
0000
1003
1000
0000
,
0000
0100
0100
0000
0000
0010
0020
0000
,
0000
0000
0031
0000
1000
0010
1000
0000
,
0001
0100
0001
0000
0100
0010
1000
0010
,
1000
2002
0000
0000
,
3003
2000
3020
0230
,
0310
0100
0001
0101
,
0010
1000
0100
1100
,
0010
0001
0010
0000
0100
1000
0100
0000
,
1001
0000
0220
0000
0000
0330
1000
0001
,
1000
0001
1000
0010
,
0100
0001
1000
0000
0001
0000
0100
0000
,
0001
0000
0010
1000
0010
0000
0010
0100
,
0100
0200
0000
0300
1001
0000
1001
0000
,
1001
0210
0001
1000
,
0310
0021
1000
0100
,
1030
0000
0110
0000
0000
0001
1000
0000
,
1000
0010
1000
0001
,
0000
0002
0203
0320
,
0032
2003
3200
0302
,
2003
0000
3010
0000
0000
0010
0100
0000
,
1000
1001
0110
0011
,
0000
0010
0100
0000
0010
0000
0001
1000
,
0001
1000
0020
0000
0000
0000
0000
0000
,
0000
2030
0000
3002
,
0000
0203
0010
1000
,
0300
0000
0020
0000
0030
0001
1000
0000
,
1000
0001
0010
0000
1000
1000
0001
0000
,
1000
0000
0110
0000
0010
1000
0010
0000
,
1000
0010
1000
0000
0001
0100
0001
0000
,
1000
0010
0100
0000
0001
1000
0001
0000
,
1000
0000
0100
0000
0010
0000
0000
0010
0000
0000
0010
0000
0002
0000
0000
0000
,
0000
1003
1010
0110
,
2002
0000
0000
3003
1001
0000
0110
0000
,
1010
0000
1002
0000
0000
0100
0100
0000
,
1003
0000
2010
0000
0000
0001
0001
0000
,
3100
0000
1001
0000
0000
0010
0100
0000
,
0100
0000
1000
0000
0100
0000
0010
0001
,
1000
0010
2000
0000
3002
0000
2003
0000
,
3020
0230
0302
0023
,
0230
0000
1300
0000
0000
1000
0001
1000
,
0000
0110
1001
0220
,
0330
1000
0001
0000
1000
0000
0010
0100
,
0010
0000
0000
0000
0000
0000
0000
0000
0000
0000
0000
0000
0000
0000
0000
0000
0000
0000
0000
0000
0000
0000
0000
0000
0100
0000
0000
0000
0000
0000
0000
0000
0000
0000
0000
0000
0000
0000
0000
0000
0000
0000
0000
0000
0000
0000
0000
0000
0020
0030
0000
0000
0000
0000
0000
0000
0000
0000
0000
0000
0000
0000
0000
0000
0000
0000
0000
0000
0000
0000
0000
0000
0000
0000
0000
0000
0000
0000
0000
0000
0000
0000
0000
0000
0100
0000
0000
0000
0000
0000
0000
0000
0000
0000
0000
0000
0000
0000
0000
0000
0000
0000
0000
0000
0000
0000
0000
0000
0000
0000
0000
0000
0000
0000
0000
0000
0000
0000
0000
0000
0010
0000
0000
0000
0000
0000
0000
0000
0000
0000
0000
0000
0000
0000
0000
0000
0000
0000
0000
0000
0000
0000
0000
0000
2000
0000
0000
0000
0000
0000
0000
0000
0000
0000
0000
0000
0000
0000
0000
0000
0000
0000
0000
0000
0000
0000
0000
0000
0000
0000
0000
0000
0000
0000
0000
0000
0000
0000
0000
0000
0000
0000
0000
0000
0000
0000
0000
0000
0000
0000
0000
0000
,
0000
0000
0000
0000
3001
0000
0000
0000
0000
0000
1000
0000
0001
0000
0000
0001
,
0000
0001
1000
0000
0010
0000
0100
0000
,
0000
0000
0001
0000
2000
0000
0000
0000
3010
0000
0000
0000
0100
0000
0000
0100
,
0000
0010
0200
0000
0000
0000
0310
1000
,
0010
0100
2002
0000
0000
0000
0000
0000
,
0000
0000
0000
0000
,
3003
0000
0000
0000
;

//---------------dance-single - Copied from Copied f----------------
#NOTES:
     dance-single:
     Copied from Copied f:
     Easy:
     6:
     0.319,0.399,0.164,0.337,0.000:
0000
0000
0000
0000
,
0000
1002
0000
0100
,
0003
2000
0001
0000
,
3010
0000
0100
0000
0000
0010
0100
0000
,
0100
1000
0100
0010
,
0000
0020
0031
1000
,
0001
0100
0010
0100
,
0010
0000
0010
0000
0000
1000
0001
0000
,
0200
0000
0300
1001
,
0000
1000
0001
0000
0000
0000
0100
0000
,
0000
0020
0000
0000
,
0000
0130
0100
0100
,
0010
0010
0010
1000
,
0000
0001
0001
0001
,
0100
0100
0100
0010
,
0000
1000
1000
1000
,
0001
0001
0001
0100
,
0000
0010
0010
0010
,
1000
0002
0000
0203
,
0000
0310
0010
1000
,
0000
0001
0001
0010
,
0000
0002
0000
1003
,
0000
0100
0000
0010
,
0000
0001
1000
1000
,
0000
0001
0010
0010
,
0100
2000
0000
0000
,
3000
0002
0023
0230
,
1300
0100
0000
1001
,
0000
0010
0000
0110
,
0000
0010
0000
1001
,
0000
0000
0020
0000
0000
0030
1000
0000
,
1000
0001
0000
0010
,
0010
1000
0000
0100
,
0100
0001
0000
0100
,
0100
0200
0000
0300
0010
0000
0010
0000
,
1001
0200
0000
1000
,
0300
0020
0000
0100
,
0030
0000
0110
0000
0000
0001
1000
0000
,
1000
0010
0000
0100
,
0000
0001
0001
1000
,
1000
0010
0010
0100
,
0100
0010
0000
0100
,
0100
0001
1000
1001
,
0000
0010
0100
0000
0010
0000
1000
0000
,
0001
0020
0000
0000
,
0000
0230
0000
2300
,
0000
3002
0000
2003
,
0000
3020
0000
0130
,
0100
0010
0000
0100
,
0001
0100
0000
0010
,
0000
0010
1000
0000
0000
0100
0001
0000
,
0000
0010
0100
0000
0000
1000
0001
0000
,
0000
0100
0020
0000
0000
0030
0002
0000
,
0000
0003
1001
1001
,
2002
0000
0000
3003
0110
0000
0110
0000
,
0110
0002
0000
0100
,
0003
2000
0000
0001
,
3000
0000
1001
0000
0000
0010
0100
0000
,
0100
0000
0100
0010
,
0000
2000
3000
0002
,
0003
0200
0300
0020
,
0030
0100
0000
0100
,
0000
1010
0101
0200
,
0300
0001
1000
0010
,
0010
0000
0000
0000
0000
0000
0000
0000
0000
0000
0000
0000
0000
0000
0000
0000
0000
0000
0000
0000
0000
0000
0000
0000
0000
0000
0000
0000
0000
0000
0000
0000
0000
0000
0000
0000
0000
0000
0000
0000
0000
0000
0000
0000
0000
0000
0000
0000
0020
0030
0000
0000
0000
0000
0000
0000
0000
0000
0000
0000
0000
0000
0000
0000
0000
0000
0000
0000
0000
0000
0000
0000
0000
0000
0000
0000
0000
0000
0000
0000
0000
0000
0000
0000
0000
0000
0000
0000
0000
0000
0000
0000
0000
0000
0000
0000
0000
0000
0000
0000
0000
0000
0000
0000
0000
0000
0000
0000
0000
0000
0000
0000
0000
0000
0000
0000
0000
0000
0000
0000
0010
0000
0000
0000
0000
0000
0000
0000
0000
0000
0000
0000
0000
0000
0000
0000
0000
0000
0000
0000
0000
0000
0000
0000
2000
0000
0000
0000
0000
0000
0000
0000
0000
0000
0000
0000
0000
0000
0000
0000
0000
0000
0000
0000
0000
0000
0000
0000
0000
0000
0000
0000
0000
0000
0000
0000
0000
0000
0000
0000
0000
0000
0000
0000
0000
0000
0000
0000
0000
0000
0000
0000
,
0000
0000
3001
0000
0000
1000
0001
0000
,
0000
0001
1000
0000
0000
0000
1001
0000
,
0000
0001
2000
0000
3000
0000
0010
0000
,
0000
0010
0200
0000
0000
0000
0310
0000
,
0010
1000
2002
0000
0000
0000
0000
0000
,
0000
0000
0000
0000
,
3003
0000
0000
0000
;

//---------------dance-single - Copied from Copied f----------------
#NOTES:
     dance-single:
     Copied from Copied f:
     Beginner:
     3:
     0.211,0.215,0.009,0.208,0.000:
0000
0000
0000
0000
,
0000
0200
0000
1000
,
0300
0020
0100
0000
,
0031
1000
0000
0001
,
1000
0000
1000
0001
,
0000
0002
0103
0000
,
0100
0000
0001
1000
,
0000
0001
0000
0100
,
2000
0000
3000
0010
,
0000
0100
0000
1000
,
0000
0002
0000
0000
,
0000
1003
0000
1000
,
0001
0000
0001
0010
,
0000
0100
0000
0100
,
1000
0000
1000
0001
,
0000
0010
0000
0010
,
0100
0000
0100
1000
,
0000
0001
0000
0001
,
0000
0200
0000
2300
,
0000
3001
0000
0010
,
0000
0100
0000
0001
,
0000
0200
0000
0310
,
0000
1000
0000
0001
,
0000
0100
0000
0010
,
0000
0100
0000
0001
,
1000
0020
0000
0000
,
0030
0100
0001
2000
,
3010
1000
0000
0100
,
0000
0001
0000
1000
,
0000
0001
0000
0100
,
0000
0000
0002
0000
0000
0003
0010
0000
,
0000
0100
0000
0001
,
0000
0100
0000
1000
,
0000
0010
0000
1000
,
1000
0000
0001
0000
,
0010
2000
0000
0010
,
3000
0002
0000
1000
,
0003
0100
0000
0010
,
0000
0100
0000
0001
,
0000
0100
0000
0010
,
0000
0001
0000
1000
,
0000
0001
0000
1000
,
0000
0100
0000
0010
,
0000
1000
0000
0010
,
0000
0002
0000
0000
,
0000
1003
0000
0010
,
0000
0100
0000
0010
,
0000
0002
0000
0003
,
1000
0001
0000
1000
,
0000
1000
0000
0001
,
0000
0010
0000
0100
,
0000
1000
0000
0100
,
0000
0001
0000
0200
,
0000
0300
0010
0000
,
0020
0000
0000
0030
1000
0000
0000
0000
,
1000
0200
0000
1000
,
0300
0020
0000
0100
,
0030
0100
0000
1000
,
1000
0000
1000
0001
,
0000
0010
0000
0100
,
0000
1000
0000
0002
,
0003
1000
0000
1000
,
0000
0001
1000
0002
,
0003
0100
0000
0001
,
0000
1000
0000
0010
,
0000
0100
0000
0100
,
0000
0010
0000
0100
,
0000
0010
0000
0001
,
0000
2000
0000
3001
,
0000
0220
0000
0000
,
0000
0000
0000
0000
,
0330
0000
0000
0000
;
