#TITLE:DEADLOCK;
#SUBTITLE:;
#ARTIST:MAX MAXIMIZER;
#TITLETRANSLIT:;
#SUBTITLETRANSLIT:;
#ARTISTTRANSLIT:;
#CREDIT:;
#BANNER:DEADLOCK-bn.png;
#BACKGROUND:DEADLOCK-bg.png;
#LYRICSPATH:;
#CDTITLE:;
#MUSIC:DEADLOCK.mp3;
#OFFSET:-0.100;
#SAMPLESTART:21.440;
#SAMPLELENGTH:12.000;
#SELECTABLE:YES;
#BPMS:0.000=187.000;
#STOPS:;
#BGCHANGES:;

//---------------dance-single - ----------------
#NOTES:
     dance-single:
     :
     Challenge:
     17:
     0.955,1.000,0.204,0.204,0.764:
0000
0000
0000
0000
0000
0000
0000
0000
0000
0000
0000
0000
0010
0000
1000
0001
,
1000
0000
0001
0100
0001
0000
0100
0010
1000
0000
0001
0100
0020
0000
2000
0000
,
0000
0000
0030
0000
3100
0010
0001
0010
0100
0010
0001
0010
0100
0010
0001
0000
,
1000
0001
1000
0100
0010
0001
2001
0000
,
0000
0000
0000
0000
0000
0000
3010
1000
,
0001
0010
0100
1000
0100
0010
0001
1000
,
0010
0000
0100
0000
1000
0000
0100
0000
0001
1000
0010
1000
0001
0000
0100
0000
,
1000
0000
0100
0000
0001
0000
0010
0000
0100
0000
1000
0000
0100
0000
0010
0002
,
0000
0000
0000
1003
,
0001
0100
0001
0000
1000
0000
0000
0000
0010
1000
0001
0000
1000
0000
0000
0000
,
1000
0010
0100
0000
0001
0000
0000
0000
0010
0100
1000
0000
0001
0000
0000
0000
,
0100
0010
1000
0000
0001
0000
0000
0000
0010
0100
1000
0000
0001
0000
0000
0000
,
0010
0010
0001
1000
1000
0001
0001
0000
,
0001
1000
0010
0000
1000
0000
0000
0000
0010
0100
0010
0000
1000
0000
0000
0000
,
0010
0000
0100
0000
0001
1000
0001
0000
0100
0000
0010
0000
1000
0000
0000
0000
,
0001
0010
0100
0000
1000
0000
0000
0000
0010
1000
0010
0000
1000
0000
0100
0000
,
0010
2002
0000
0000
0000
3003
0010
0010
,
1000
1000
0001
0001
0010
0010
0100
0100
,
0001
0001
0100
0100
1000
1000
0010
0010
,
0100
0100
0001
0001
0010
0010
1000
1000
,
0010
0010
0001
0001
1001
0000
0010
0010
,
1000
1000
0100
0100
0001
0001
1000
1000
,
0010
0010
0001
0001
1000
1000
0100
0100
,
0010
0010
0001
0001
1000
2000
0100
0100
,
0100
3200
0010
0010
0010
0310
0001
1000
,
0001
0100
0010
0001
0010
0100
0001
0100
,
0010
0001
0010
1000
0100
0010
0001
0010
,
0100
0001
0100
1000
0010
0001
1000
0100
,
0001
0100
1000
0001
0010
0000
0001
0010
,
0100
1000
0100
0001
0010
0100
1000
0010
,
0100
1000
0100
0001
0010
0100
0001
1000
,
0010
0001
1000
0010
0001
0020
1000
1000
,
1000
0000
2030
0000
0001
0000
0001
0000
0001
0000
3001
0000
1000
0001
1000
0000
,
0010
0000
0100
0000
0001
0100
0010
0000
1000
0000
0010
0000
1000
0001
0100
0000
,
0010
1000
0100
0010
0001
0010
0210
0000
,
0000
0000
0000
0020
,
0000
0000
0300
0002
,
0000
0000
0000
0000
,
0000
0000
0000
0000
0030
0003
2002
0000
,
0000
0000
0003
0020
,
0000
0000
0000
0000
0000
0000
0000
0000
3000
0000
0030
0000
1000
0010
0100
0001
,
1000
0001
0000
0000
1000
0001
0010
0100
1000
0001
0000
0000
0010
0100
1000
0001
,
0010
0100
0000
0000
1000
0010
1000
0001
0100
1000
0000
0000
0100
0010
1000
0100
,
0010
0001
0000
0000
0010
0100
1000
0100
0010
0001
0000
0000
1000
0001
0100
0001
,
0010
0100
0000
0000
1000
0001
0010
0100
0010
0001
0000
0000
0100
0010
0100
0010
,
1000
0001
0000
0000
0010
0100
0010
0001
0010
0100
0000
0000
1000
0010
1000
0001
,
0100
0001
0000
0000
0100
0010
1000
0100
0010
0001
0000
0000
1000
0010
1000
0000
,
0001
0100
0001
0000
1000
0100
1000
0000
0001
0010
0001
0000
1000
0010
1000
0010
,
1000
0010
1000
0010
1000
0010
1000
0010
1000
0010
1000
0010
2000
0000
0000
0000
,
0000
0000
0000
0000
3001
0100
0010
0100
0001
0000
1000
0000
0100
0000
1000
0000
,
0010
0100
0001
0010
0100
1000
0100
0010
,
0001
0000
0010
0000
0100
1000
0001
0100
0010
1000
0100
0010
0001
0000
0010
0000
,
0001
0000
1000
0000
0010
0000
0100
0000
0001
0000
1000
0000
0010
1000
0010
1000
,
0001
0100
0001
0100
0001
1000
0001
1000
0010
0100
0010
0100
0010
0000
1000
0000
,
0001
0010
0100
1000
0001
0010
0100
1000
,
0010
0000
0100
0000
0001
0010
0100
1000
0001
0010
0100
1000
0010
0000
0100
0000
,
1000
0000
0100
0000
0001
0000
0010
0000
0100
0000
1000
0000
1100
0000
0000
1010
,
0000
0000
1001
0000
1010
0000
0000
0110
0000
0000
0101
0000
0100
0000
0010
0000
,
1000
0100
0010
0001
0010
0100
1000
0010
,
1000
0000
0010
0000
1000
0100
0001
0100
1000
0010
0100
0001
0010
0000
0010
0000
,
0100
0000
0100
0000
1000
0000
1000
0000
0001
0000
0001
0000
0101
0000
0000
1010
,
0000
0000
1001
0000
0110
0000
0000
1100
0000
0000
1001
0000
0010
1000
0010
1000
,
0001
0100
0001
0100
0001
1000
0001
1000
0010
0100
0001
0010
0100
1000
0001
0010
,
0100
1000
0010
0100
0001
1000
0010
1000
0010
0100
0001
0010
0100
1000
0010
0100
,
0001
0010
0100
1000
0010
0100
0001
1000
0010
0100
0010
1000
0001
0010
0001
1000
,
0100
0010
0001
0010
0100
1000
0100
0010
0001
0010
0100
1000
0002
0000
0000
0000
,
0000
0000
0000
0000
1003
0010
0100
0000
0001
0010
0100
0000
1000
0100
0010
0000
,
0001
1000
0010
0000
0100
0010
0100
0000
0001
1000
0010
0000
0100
0010
0100
0000
,
0010
1000
0001
0000
0100
0001
0100
0000
0010
1000
0010
0000
0100
0010
1000
0000
,
0100
0010
0001
0000
0010
0100
1000
0000
0010
0000
0010
0000
0100
0010
1000
0000
,
0001
0100
0001
0000
1000
0010
0100
0000
0001
1000
0001
0000
0010
0100
0010
0000
,
0001
1000
0100
0000
0010
0001
1000
0000
0100
0010
0001
0000
1000
0100
0010
0000
,
0001
0010
0100
0000
0010
0100
1000
0000
0010
0100
0010
0000
1000
0001
1000
0000
,
0010
0100
0001
0000
1000
0010
0100
0000
0001
1000
0010
0000
0220
0000
0000
0000
,
0300
0000
1030
0000
0001
0000
0100
0000
0010
1000
0001
0000
1001
0000
1000
0000
,
0010
0000
0100
0000
0001
0000
0010
0000
0100
1000
0010
0000
1010
0000
1000
0000
,
0001
0000
0010
0000
0001
0000
1000
0000
0100
0010
0001
0000
0011
0000
0010
0000
,
0100
0000
1000
0000
0010
0000
0100
0000
1000
0100
0001
0000
2002
0000
0000
0000
,
0000
0000
0000
0000
,
0000
0000
0000
0000
,
0000
0000
0000
0000
,
0000
0000
0000
3003
;

//---------------dance-single - Copied from----------------
#NOTES:
     dance-single:
     Copied from:
     Hard:
     16:
     0.795,0.984,0.102,0.222,0.467:
0000
0000
0000
0000
0000
0000
0000
0000
0000
0000
0000
0000
0001
0000
1000
0001
,
1000
0000
0010
0100
0010
0000
1000
0010
1000
0000
0001
0100
0002
0000
2000
0000
,
0000
0000
0003
0000
3010
0100
0010
0100
0010
0100
0010
0100
0010
0100
0010
0000
,
1000
0010
0100
0001
0010
0100
2000
0000
,
0000
0000
0000
0000
0000
0000
3001
0010
,
0100
1000
0100
0010
0100
0010
0001
1000
,
0001
0000
1000
0000
0010
0000
0100
0000
0010
1000
0010
1000
0010
0000
0100
0000
,
0001
0000
1000
0000
0010
0000
0100
0000
0001
0000
1000
0000
0100
0000
0010
0002
,
0000
0000
0000
1003
,
0001
0000
1000
0000
0001
0000
0000
0000
0010
0100
0010
0000
0001
0000
0000
0000
,
1000
0000
0010
0000
0100
0000
0000
0000
0001
1000
0001
0000
0100
0000
0000
0000
,
0010
0000
1000
0000
0001
0000
0000
0000
1000
0001
1000
0000
0010
0000
0000
0000
,
0100
0100
0001
1000
1000
0010
0010
0000
,
1000
0000
0001
0000
0100
0000
0000
0000
0001
0010
0001
0000
1000
0000
0000
0000
,
0001
0000
1000
0000
0010
0100
0010
0000
1000
0000
0100
0000
0010
0000
0000
0000
,
0001
0000
0010
0000
0100
0000
0000
0000
1000
0100
0010
0000
0001
0000
0010
0000
,
0100
2000
0000
0000
0000
0000
3100
0010
,
0001
0010
1000
0010
0100
1000
0010
0100
,
0001
1000
0001
0100
0001
0100
0010
1000
,
0100
1000
0001
0010
0100
0010
0001
0010
,
0100
1000
0001
0100
0001
0000
0001
0100
,
1000
0100
0001
0010
0100
1000
0100
0010
,
0001
1000
0100
0010
0001
1000
0010
1000
,
0001
0100
1000
0001
0010
1000
0010
0010
,
0010
0010
0100
0100
0100
0100
0001
1000
,
0010
0100
0001
1000
0100
0010
0001
0010
,
0100
1000
0001
0100
0001
1000
0010
0100
,
0010
0001
0010
1000
0001
0100
0010
1000
,
0100
0010
0001
0010
0020
0000
0031
0100
,
1000
0100
0001
0100
0001
1000
0010
0001
,
0010
1000
0100
0010
0001
1000
0100
0010
,
0001
0010
0100
1000
0100
0010
0001
0001
,
0001
0001
1000
1000
1000
1000
0010
0100
,
0010
0100
0001
0000
1000
0010
1000
0001
,
0010
0100
1000
0010
0001
0010
0200
0000
,
0000
0000
0000
0020
,
0000
0000
0300
2000
,
0000
0000
0000
0000
,
0000
0000
3030
2002
,
0000
0000
0003
0002
,
0000
0000
0000
0000
3003
0000
0001
0100
,
0001
0000
1000
0010
0100
0000
0010
1000
,
0001
0000
0010
0100
1000
0000
0100
1000
,
0010
0000
0100
0001
0010
0000
0100
1000
,
0010
0000
0100
0001
1000
0000
0100
0010
,
0001
0000
0010
0100
1000
0000
0001
0010
,
0100
0000
0000
0000
1000
0000
0001
0000
0010
0000
0000
0000
0100
1000
0100
0000
,
1000
0001
1000
0000
0100
0010
0100
0000
0010
0001
0010
0000
0001
1000
0001
1000
,
0001
1000
0001
1000
0001
1000
0001
1000
0001
1000
0001
1000
0002
0000
0000
0000
,
0000
0000
0000
0000
1003
0010
1000
0010
1000
0000
0001
0000
0010
0000
0001
0000
,
0100
0010
1000
0100
0010
0001
0010
0100
,
1000
0000
0100
0000
0010
0001
0010
0000
0100
1000
0100
0000
0001
0000
0100
0000
,
1000
0000
0001
0000
0100
0000
0010
0000
1000
0000
0001
0000
0100
0001
0100
0000
,
0010
1000
0010
0000
1000
0001
1000
0000
0010
0100
0010
0000
0100
0000
0001
0000
,
1000
0100
0010
0001
1000
0100
0010
0001
,
0100
0000
0010
0000
1000
0001
0100
0000
0010
0100
0001
0000
1000
0000
0010
0000
,
0001
0000
0010
0000
1000
0000
0100
0000
0010
0000
0001
0000
0100
0000
0000
1010
,
0000
0000
0001
0000
0100
0000
0000
1001
0000
0000
0001
0000
0100
0000
0001
0000
,
1000
0010
0100
0001
1000
0001
0010
0100
,
1000
0000
1001
0000
0001
0010
0100
1000
0001
0010
0100
1000
0001
0000
0010
0000
,
0100
0000
0001
0000
0100
0000
1000
0000
0100
0000
0010
0000
0001
0000
0000
1001
,
0000
0000
0100
0000
0010
0000
0000
0110
0000
0000
0100
0000
0010
1000
0001
0000
,
0100
0010
1000
0000
0001
1000
0001
0000
0100
0010
0100
0000
0001
0010
0100
0000
,
1000
0100
0010
0000
0001
0010
0001
0000
1000
0010
1000
0000
0100
1000
0100
1000
,
0100
1000
0001
0000
0100
0010
0100
0010
0100
0010
1000
0000
0001
1000
0001
1000
,
0001
1000
0010
0000
0100
0001
0100
0001
0100
0001
1000
0000
0020
0000
0000
0000
,
0000
0000
0030
0000
0010
0100
0000
0000
0100
0010
0000
0000
0010
1000
0000
0000
,
1000
0001
0000
0000
0001
0010
0000
0000
0010
0100
0000
0000
0100
1000
0000
0000
,
1000
0001
0000
0000
0001
0010
0000
0000
0010
0100
0000
0000
0100
1000
0000
0000
,
1000
0100
0000
0000
0100
0010
0000
0000
0001
0000
1000
0000
0100
0010
0000
0000
,
0010
0001
0000
0000
0001
1000
0000
0000
1000
0010
0000
0000
0010
0100
0000
0000
,
0100
0010
0000
0000
0010
1000
0000
0000
1000
0001
0000
0000
0001
0010
0000
0000
,
0010
0100
0000
0000
0100
1000
0000
0000
1000
0100
0000
0000
0010
0001
0000
0000
,
1000
0001
0000
0000
0100
0010
0000
0000
0010
0100
0000
0000
0220
0000
0000
0000
,
0000
0000
0000
0000
0000
0000
0330
0000
0010
1000
0001
0000
2002
0000
0000
0000
,
0000
0000
0000
0000
0000
0000
3003
0000
0100
1000
0010
0000
2020
0000
0000
0000
,
0000
0000
0000
0000
0000
0000
3030
0000
0100
0010
0001
0000
0022
0000
0000
0000
,
0000
0000
0000
0000
0000
0000
0033
0000
0001
0100
0001
0000
2002
0000
0000
0000
,
0000
0000
0000
0000
,
0000
0000
0000
0000
,
0000
0000
0000
0000
,
0000
0000
0000
3003
;

//---------------dance-single - Copied from Copied f----------------
#NOTES:
     dance-single:
     Copied from Copied f:
     Medium:
     13:
     0.591,0.643,0.148,0.250,0.083:
0000
0000
0000
0000
0000
0000
0000
0000
0000
0000
0000
0000
0001
0000
0000
0001
,
1000
0000
0000
1000
0010
0000
0000
0010
0100
0000
0000
0100
0001
0000
2000
0000
,
0000
0000
3010
0100
0001
1000
0010
0100
,
0001
0010
0100
1000
0001
1000
0002
0000
,
0000
0000
0000
0000
0000
0000
1003
0010
,
0100
0000
0010
1000
0010
0000
0100
0001
,
0010
0000
0100
1000
0010
0010
0010
0000
,
0010
1000
0001
0000
0100
0001
1000
0002
,
0000
0000
0000
0103
,
0010
1000
0001
0000
0101
0000
1010
0000
,
1000
0001
0100
0000
1001
0000
0110
0000
,
0010
1000
0001
0000
1010
0000
0110
0000
,
0100
0001
0100
0010
1000
0010
0100
0000
,
0001
1000
0010
0000
1100
0000
0011
0000
,
0001
0010
0100
0000
1100
0000
0011
0000
,
0001
0010
0100
0000
1000
0001
1000
0010
,
0100
0002
0000
0000
0000
0000
0013
0100
,
1000
0000
0010
0100
0001
0000
0100
1000
,
0100
0000
0010
1000
0001
0000
1000
0100
,
0001
0000
1000
0010
0001
0000
0010
0001
,
0100
0000
0010
1000
0002
0000
0013
0100
,
1000
0000
0001
0010
0100
0000
1000
0100
,
1000
0000
0010
0001
0010
0000
0100
1000
,
0100
0000
0010
0100
0010
0000
0010
1000
,
0010
1000
0001
0100
0001
0100
0010
1000
,
0001
0000
0100
0001
0010
0000
0100
1000
,
0100
0000
0010
0001
1000
0000
0010
0100
,
0001
0000
1000
0100
0010
0000
0001
0010
,
0100
0000
1000
0100
0002
0000
0103
1000
,
0100
1000
0001
0100
0001
0100
0010
1000
,
0010
1000
0001
1000
0001
1000
0001
0010
,
0001
0010
0100
1000
0100
0010
0001
0010
,
0100
1000
0001
0010
0100
1000
0020
0000
,
0000
0000
0000
0000
,
0000
0000
0000
2000
,
0000
0000
0030
0002
,
0000
0000
3000
2000
,
0000
0000
0000
0000
,
0000
0000
3003
0220
,
0000
0000
0030
0002
,
0000
0000
0303
1000
,
1000
0000
0010
0100
0010
0000
0100
0000
,
0100
0000
0001
0100
0001
0000
0010
0000
,
0010
0000
0100
1000
0100
0000
0010
0000
,
0001
0000
0010
0100
1000
0000
0100
0000
,
0010
0000
0001
0010
1000
0000
0010
0000
,
0001
0000
1000
0010
0100
0000
0010
0100
,
0010
0100
0001
1000
0001
1000
0100
0010
,
0001
1000
0100
0010
0001
1000
0020
0000
,
0000
0000
0130
0100
0100
0000
0010
0001
,
0100
0000
0010
1000
0001
0000
0010
0100
,
1000
0000
0000
0000
0010
0100
0000
0000
0100
0010
0000
0000
0010
0000
1000
0000
,
0001
0000
0000
0000
0100
0000
0010
0000
1000
0000
0000
0000
0100
0001
0000
0000
,
0001
1000
0000
0000
1000
0001
0000
0000
0001
0100
0000
0000
0100
0000
0001
0000
,
1000
0000
0010
0100
0010
0000
1000
0100
,
0010
0000
0000
0000
0001
0010
0000
0000
0010
0100
0000
0000
1000
0000
0100
0000
,
1000
0000
0000
0000
0001
0000
0010
0000
0001
0000
0000
0000
2000
0000
0000
0001
,
0000
0000
0001
0000
0001
0000
0000
0001
0000
0000
3001
0000
0100
0000
0001
0000
,
0100
0000
0010
1000
0001
0000
0010
0100
,
1000
0000
0000
0000
0001
0010
0000
0000
0010
0001
0000
0000
0001
0000
0010
0000
,
0100
0000
1000
0000
0001
0000
0010
0000
0100
0000
1000
0000
0020
0000
0000
0100
,
0000
0000
0100
0000
0100
0000
0000
0100
0000
0000
0130
0000
0010
0000
1000
0000
,
0001
1000
0100
0010
0001
0010
0001
0010
,
0001
1000
0010
1000
0001
0100
0001
0100
,
0010
1000
0100
0010
0100
1000
0100
0010
,
0001
0010
0001
1000
0010
0100
0020
0000
,
0000
0130
0010
1000
,
0001
0010
0100
1000
,
0100
0001
0100
1000
,
0010
0000
0001
0000
0010
0100
0010
0000
,
0100
0001
1000
0001
,
0010
0100
1000
0001
,
1000
0010
0100
0010
,
1000
0100
0010
0022
,
0000
0000
0000
0033
0001
1000
2020
0000
,
0000
0000
0000
3030
0010
0100
0220
0000
,
0000
0000
0000
0330
0010
1000
2002
0000
,
0000
0000
0000
3003
0100
0010
2002
0000
,
0000
0000
0000
0000
,
0000
0000
0000
0000
,
0000
0000
0000
0000
,
0000
0000
0000
3003
;

//---------------dance-single - Copied from Copied f----------------
#NOTES:
     dance-single:
     Copied from Copied f:
     Easy:
     7:
     0.369,0.492,0.065,0.287,0.000:
0000
0000
0000
1000
,
0001
0000
0100
0000
0010
0000
1000
0002
,
0000
0103
0010
0100
,
1000
0010
1000
0020
,
0000
0000
0000
0130
,
0100
0010
0001
0010
,
0100
0000
0010
0000
1000
1000
1000
0000
,
0001
0000
1000
0000
0010
0000
0001
2000
,
0000
0000
0000
3010
,
0000
1000
0001
1001
,
0000
1000
0001
0101
,
0000
0100
0010
1010
,
0000
1000
0001
1000
,
0000
0100
0001
1001
,
0000
0100
0100
0110
,
0000
0010
0010
0100
,
0010
2000
0000
0000
0000
0000
3100
0000
,
0001
1000
0001
1000
,
0010
0100
0010
0100
,
0001
0010
0001
0010
,
0100
1000
1000
0100
,
0010
0001
1000
0001
,
1000
0010
0100
0010
,
0100
0001
0010
0001
,
0010
0100
1000
0100
,
1000
0001
0010
0100
,
1000
0100
0010
0001
,
0010
0100
1000
0001
,
0100
0001
1000
0001
,
0100
0010
1000
0100
,
0010
0001
0100
0010
,
0100
0001
1000
0010
,
0100
0001
0100
0200
,
0000
0000
0000
0000
,
0000
0000
0000
0002
,
0000
0000
0300
2000
,
0000
0000
0003
0002
,
0000
0000
0000
0000
,
0000
0000
3003
0120
,
0000
0000
0000
2000
,
0000
0000
3030
0001
,
0000
0100
0000
0010
,
0000
1000
0000
0100
,
0000
0010
0000
0100
,
0000
1000
0000
0010
,
0000
1000
0000
0100
,
0000
0010
0000
0001
,
1000
1000
0010
0010
,
0100
0100
0010
0020
,
0000
0230
0000
0301
,
0001
1000
1000
0010
,
0010
0200
0320
1030
,
1000
0100
0100
0020
,
0032
2003
3020
1030
,
0001
1000
0001
1000
,
0001
2000
3200
0310
,
0001
0010
0001
2000
,
0000
0000
0000
3100
,
0100
0010
0001
1000
,
0001
2000
3200
1300
,
0001
1000
0001
0200
,
0000
0000
0000
0310
,
1000
0010
0000
1000
,
0001
1000
0000
0001
,
0100
0010
0100
0001
,
0010
0000
0100
0000
1000
0010
2000
0000
,
0000
3010
0100
0001
,
1000
0100
0010
0001
,
0010
1000
0010
0001
,
0100
1000
0100
0100
,
0010
1000
0001
1000
,
0100
0010
0001
1000
,
0001
0100
0010
0100
,
0001
0010
0100
2000
,
0000
0000
0000
3000
1000
0000
0002
0000
,
0000
0000
0000
0003
0100
0000
0020
0000
,
0000
0000
0000
0030
0100
0000
0002
0000
,
0000
0000
0000
0003
0100
0000
2002
0000
,
0000
0000
0000
0000
,
0000
0000
0000
0000
,
0000
0000
0000
0000
,
0000
0000
0000
3003
;

//---------------dance-single - Copied from Copied f----------------
#NOTES:
     dance-single:
     Copied from Copied f:
     Beginner:
     4:
     0.275,0.378,0.009,0.361,0.000: // measure 1
0000
0000
0000
0001
,  // measure 2
0000
0100
0000
0020
,  // measure 3
0000
0130
0000
0001
,  // measure 4
0000
1000
0000
0200
,  // measure 5
0000
0000
0000
0310
,  // measure 6
0000
0100
0000
0100
,  // measure 7
0000
1000
0002
0003
,  // measure 8
1000
0000
0000
0000
0001
0000
0000
2000
,  // measure 9
0000
0000
3000
0100
,  // measure 10
0000
0001
0000
2000
,  // measure 11
3000
0001
0000
0020
,  // measure 12
0030
0010
0000
0200
,  // measure 13
0300
0001
0000
0020
,  // measure 14
0030
0100
0000
2000
,  // measure 15
3000
0001
0000
0020
,  // measure 16
0030
0100
0000
2000
,  // measure 17
3000
0002
0000
0000
0000
0000
0103
0000
,  // measure 18
0100
0100
0100
0001
,  // measure 19
0001
0001
0001
1000
,  // measure 20
1000
1000
1000
0010
,  // measure 21
0010
0010
0010
1000
,  // measure 22
1000
1000
1000
0100
,  // measure 23
0100
0100
0100
0010
,  // measure 24
0010
0010
0010
0001
,  // measure 25
0001
0001
0001
1000
,  // measure 26
0000
0001
0000
0100
,  // measure 27
0000
0001
0000
1000
,  // measure 28
0000
0010
0000
1000
,  // measure 29
0000
0100
0000
0010
,  // measure 30
0000
0001
0000
0100
,  // measure 31
0000
1000
0000
0001
,  // measure 32
0000
0100
0000
0010
,  // measure 33
0000
1000
0000
0020
,  // measure 34
0000
0000
0000
0000
,  // measure 35
0000
0000
0000
2030
,  // measure 36
0000
0000
0000
3200
,  // measure 37
0000
0000
0000
2300
,  // measure 38
0000
0000
0000
0000
,  // measure 39
0000
0000
3000
0200
,  // measure 40
0000
0000
0000
0320
,  // measure 41
0000
0000
0000
0031
,  // measure 42
0000
0010
0000
0100
,  // measure 43
0000
1000
0000
0001
,  // measure 44
0000
0010
0000
0100
,  // measure 45
0000
1000
0000
0100
,  // measure 46
0000
0010
0000
0001
,  // measure 47
0000
1000
0000
0001
,  // measure 48
0001
0001
0010
0010
,  // measure 49
0010
0100
0100
0200
,  // measure 50
0000
2300
0000
3001
,  // measure 51
0000
0100
0000
0010
,  // measure 52
0000
0020
0230
0301
,  // measure 53
0000
1000
0000
0200
,  // measure 54
2300
3002
0203
0301
,  // measure 55
0000
0100
0000
0010
,  // measure 56
0000
0200
0320
0130
,  // measure 57
0000
0001
0000
2000
,  // measure 58
0000
0000
0000
3100
,  // measure 59
0000
0010
0000
0100
,  // measure 60
0000
2000
3200
0300
,  // measure 61
1000
0001
1000
0020
,  // measure 62
0000
0000
0000
0130
,  // measure 63
0000
0100
0000
0001
,  // measure 64
0000
0001
0000
1000
,  // measure 65
0000
0010
0000
0100
,  // measure 66
0000
0001
0000
0200
,  // measure 67
0000
0310
0000
1000
,  // measure 68
0000
0001
0000
1000
,  // measure 69
0000
0100
0000
1000
,  // measure 70
0000
0001
0000
0010
,  // measure 71
0000
0001
0000
1000
,  // measure 72
0000
0100
0000
0010
,  // measure 73
0000
0001
0000
1000
,  // measure 74
0000
0100
0000
0020
,  // measure 75
0000
0000
0000
0030
0001
0000
2000
0000
,  // measure 76
0000
0000
0000
3000
0010
0000
0200
0000
,  // measure 77
0000
0000
0000
0300
0001
0000
2000
0000
,  // measure 78
0000
0000
0000
3000
0010
0000
2002
0000
,  // measure 79
0000
0000
0000
0000
,  // measure 80
0000
0000
0000
0000
,  // measure 81
0000
0000
0000
0000
,  // measure 82
0000
0000
0000
3003
;
