#VERSION:0.81;
#TITLE:DEADLOCK XXX;
#SUBTITLE:;
#ARTIST:BlackY;
#TITLETRANSLIT:;
#SUBTITLETRANSLIT:;
#ARTISTTRANSLIT:;
#GENRE:;
#ORIGIN:;
#CREDIT:;
#BANNER:DEADLOCK XXX-bn.PNG;
#BACKGROUND:DEADLOCK XXX-bg.png;
#PREVIEWVID:;
#JACKET:DEADLOCK XXX-jacket.png;
#CDIMAGE:;
#DISCIMAGE:;
#LYRICSPATH:;
#CDTITLE:;
#MUSIC:DEADLOCK XXX .mp3;
#OFFSET:-0.100000;
#SAMPLESTART:29.200001;
#SAMPLELENGTH:12.000000;
#SELECTABLE:YES;
#BPMS:0.000=222.000;
#STOPS:104.333=0.960;
#DELAYS:;
#WARPS:;
#TIMESIGNATURES:0.000=4=4;
#TICKCOUNTS:0.000=4;
#COMBOS:0.000=1;
#SPEEDS:0.000=1.000=0.000=0;
#SCROLLS:0.000=1.000;
#FAKES:;
#LABELS:0.000=Song Start;
#BGCHANGES:;
#KEYSOUNDS:;
#ATTACKS:
;

//---------------dance-single - ----------------
#NOTEDATA:;
#CHARTNAME:;
#STEPSTYPE:dance-single;
#DESCRIPTION:;
#CHARTSTYLE:;
#DIFFICULTY:Challenge;
#METER:17;
#RADARVALUES:1.000000,1.000000,0.312588,0.208392,1.000000,663.000000,30.000000,20.000000,0.000000,0.000000,0.000000,0.000000,0.000000,1.000000,1.000000,0.312588,0.208392,1.000000,663.000000,30.000000,20.000000,0.000000,0.000000,0.000000,0.000000,0.000000;
#CREDIT:;
#NOTES:
// measure 0
0000
0000
0000
0000
,  // measure 1
0000
0000
0000
0000
,  // measure 2
0000
0000
0000
0001
0000
0000
1000
0000
0000
0000
0000
0000
0100
0000
0010
0000
0001
0000
0100
0000
0010
0000
0000
0000
,  // measure 3
0000
0000
0000
1000
0000
0000
0100
0000
0000
0000
0000
0000
0010
0000
0001
0000
0010
0000
0100
0000
0000
1000
0000
0000
,  // measure 4
0001
0000
0000
0010
0000
0000
0001
0000
0000
0000
0000
0000
0100
0000
0001
0000
0100
0000
0010
0000
1000
0000
0000
0000
,  // measure 5
0000
0000
0000
0001
0000
0000
0100
0000
0010
0000
0100
0000
0001
0000
0000
0000
1000
0000
0010
0000
0100
0000
0001
0000
,  // measure 6
1000
0010
1000
0001
0000
0000
1000
0001
0100
0010
1000
0000
,  // measure 7
0000
0000
0000
0001
0000
0000
0000
0000
0000
0100
0000
0000
0001
0000
0100
0000
0010
0000
1000
0000
0010
0000
0100
0000
,  // measure 8
0001
0000
0100
0000
0000
0000
0000
0000
0010
0000
0000
0000
0000
0000
0000
0100
0000
0000
0010
0000
0000
1000
0000
0000
,  // measure 9
0010
0000
0000
0100
0000
0000
0001
0000
1000
0000
0001
0000
0000
0000
0100
0000
0001
0000
1000
0000
0010
0000
0100
0000
,  // measure 10
0001
0000
0000
1000
0000
0000
0001
0000
0000
0000
0000
0000
0010
0000
0100
0000
1000
0000
0010
0000
0100
0000
0000
0000
,  // measure 11
0000
0000
0000
0001
0000
0000
0010
0000
0000
0000
0000
0000
0100
0000
1000
0000
0100
0000
0010
0000
0000
0001
0000
0000
,  // measure 12
1000
0000
0000
0100
0000
0000
1000
0000
0000
0000
0000
0000
0010
0000
1000
0000
0010
0000
0100
0000
0001
0000
0000
0000
,  // measure 13
0000
0000
0000
1000
0000
0000
0010
0000
0100
0000
0010
0000
1000
0000
0000
0000
0001
0000
0100
0000
0010
0000
1000
0000
,  // measure 14
0001
0100
0001
1000
0000
0000
0001
1000
0010
0100
0001
0000
,  // measure 15
0000
0000
0000
1000
0000
0000
0000
0000
0000
0010
0000
0000
1000
0000
0010
0000
0100
0000
0001
0000
0100
0000
0010
0000
,  // measure 16
1000
0000
0010
0000
0000
0000
0000
0000
0100
0000
0000
0000
0000
0000
0000
0010
0000
0000
0100
0000
0000
0001
0000
0000
,  // measure 17
0100
0000
0000
0010
0000
0000
1000
0000
0001
0000
1000
0000
0000
0000
0010
0000
1000
0000
0001
0000
0100
0000
0010
0000
,  // measure 18
0100
0000
0000
0001
0000
0000
1000
0000
0000
0000
0000
0000
0100
0000
0010
0000
0001
0000
0100
0000
0010
0000
0000
0000
,  // measure 19
0000
0000
0000
1000
0000
0000
0100
0000
0000
0000
0000
0000
0010
0000
0001
0000
0010
0000
0100
0000
0000
1000
0000
0000
,  // measure 20
0001
0000
0000
0010
0000
0000
0001
0000
0000
0000
0000
0000
0100
0000
0001
0000
0100
0000
0010
0000
1000
0000
0000
0000
,  // measure 21
0000
0000
0000
0001
0000
0000
0100
0000
0010
0000
0100
0000
0001
0000
0000
0000
1000
0000
0010
0000
0100
0000
0001
0000
,  // measure 22
1000
0010
1000
0001
0000
0000
1000
0001
0100
0010
1000
0000
,  // measure 23
0000
0000
0000
1001
0000
0000
0000
0000
0100
0000
0000
0000
0001
0000
0100
0000
0010
0000
1000
0000
0010
0000
0100
0000
,  // measure 24
0001
0100
0010
1000
0100
0010
0100
1000
0100
0010
0001
0100
,  // measure 25
1000
0100
0001
0100
1000
0100
0010
1000
0001
0100
0010
0100
,  // measure 26
0002
0000
2000
0000
3003
0000
0010
0000
0000
1000
0000
0000
0100
0000
0000
0010
0000
0000
0001
0000
0000
0010
0000
0000
,  // measure 27
0100
0001
0100
1000
0010
0001
1000
0100
,  // measure 28
0001
0100
1000
0001
0010
1000
0001
0010
,  // measure 29
0100
1000
0100
0010
0001
0100
1000
0100
,  // measure 30
0001
0000
0100
0001
0010
0100
0001
1000
,  // measure 31
0010
0001
1000
0010
0001
0010
1000
0010
,  // measure 32
0001
1000
0100
0001
1000
0100
0001
0100
,  // measure 33
1000
0000
0000
0010
0000
0000
0100
0000
0000
0100
0000
0000
0100
0000
0000
0100
0000
0000
0001
0000
0010
0000
0100
0000
,  // measure 34
1000
0000
0010
0000
0100
0000
0010
0000
0000
1000
0000
0000
0001
0000
0000
0010
0000
0000
0100
0000
0000
1000
0000
0000
,  // measure 35
0001
0010
0001
1000
0100
1000
0010
0100
,  // measure 36
0010
1000
0001
0100
0010
0100
0001
0010
,  // measure 37
0001
1000
0010
0001
1000
0100
0001
0100
,  // measure 38
1000
0000
0100
0010
0100
0001
1000
0010
,  // measure 39
0100
0001
0010
0100
1000
0100
0001
0000
,  // measure 40
0202
0303
0001
0100
1000
0010
0001
0010
,  // measure 41
1000
0000
0000
0001
0000
0000
0100
0000
0010
0000
0100
0000
0010
0000
1000
0000
0001
0000
1000
0000
0001
0000
1000
0000
,  // measure 42
0100
0000
0010
0000
0001
0000
1000
0000
0000
0010
0000
0000
0100
0000
0000
0001
0000
0000
0010
0000
0000
0100
0000
0000
,  // measure 43
1000
0000
0000
0100
0000
0000
0010
0000
0000
0001
0000
0000
1000
0000
0001
0000
1000
0000
0001
0000
0000
1000
0000
0000
,  // measure 44
0100
0000
0000
1000
0000
0000
0001
0000
0000
0100
0000
0000
0010
0000
1000
0000
0010
0000
1000
0000
0000
0001
0000
0000
,  // measure 45
1000
0000
0000
0001
0000
0000
0100
0000
0000
0010
0000
0000
0100
0000
0001
0000
0100
0000
0001
0000
0000
0100
0000
0000
,  // measure 46
0010
0000
0000
1000
0000
0000
0010
0000
0000
0100
0000
0000
0001
0000
1000
0000
0001
0000
1000
0000
0000
0010
0000
0000
,  // measure 47
0100
0000
0000
0001
0000
0000
1000
0000
0000
0100
0000
0000
1000
0000
0100
0000
1000
0000
0100
0000
0000
0010
0000
0000
,  // measure 48
0001
1000
1002
0000
0100
0000
1003
1000
,  // measure 49
0010
1000
0001
0010
0001
1000
0100
1000
,  // measure 50
0010
0000
0000
0100
0000
0000
0001
0000
0010
0000
0100
0000
1000
0000
0000
0000
0000
0000
1000
0000
0100
0000
0010
0000
,  // measure 51
0001
0000
0000
0001
0010
0100
1000
0000
0000
1000
0100
0010
,  // measure 52
0001
0000
0000
1000
0010
0100
0001
0000
0000
0001
0100
0010
,  // measure 53
1000
0000
0000
1000
0010
0100
0001
0000
0000
0001
0100
0010
,  // measure 54
1000
0000
0001
0100
0001
0010
0100
1000
,  // measure 55
0010
1000
0100
0010
0100
1000
0010
0100
,  // measure 56
0001
0000
0000
1000
0000
0000
0010
0000
0100
0000
0001
0000
1000
0000
0010
0000
0100
0000
0001
0000
0010
0000
0100
0000
,  // measure 57
1000
0010
0001
1000
0100
0001
1000
0010
0001
1000
0100
0010
,  // measure 58
1000
0001
0100
0020
0000
0000
0100
0000
0000
1030
0000
0000
,  // measure 59
1001
0000
1000
0001
1000
0010
0100
0001
,  // measure 60
0100
0000
0000
0010
0000
0000
1000
0000
0000
0100
0000
0000
0010
0000
0000
0001
0000
0000
0010
0000
0100
0000
1000
0000
,  // measure 61
0100
0000
0010
0000
0001
0000
0010
0000
0000
0100
0000
0000
1000
0000
0000
0010
0000
0000
0100
0000
0000
0010
0000
0000
,  // measure 62
1000
0000
0000
0100
0000
0000
0010
0000
0001
0000
0010
0000
0100
0000
1000
0000
0100
0000
1000
0000
0001
0000
0100
0000
,  // measure 63
0010
0000
1000
0000
0001
0000
0100
0000
0000
0010
0000
0000
1000
0000
0000
0001
0000
0000
0010
0000
0000
0100
0000
0000
,  // measure 64
0001
0000
0000
1000
0000
0000
0010
0000
0000
0001
0000
0000
1000
0000
0000
0010
0000
0000
0001
0000
1000
0000
0100
0000
,  // measure 65
0010
0000
1000
0000
0010
0000
0100
0000
0000
0010
0000
0000
1000
0000
0000
0010
0000
0000
0100
0000
0000
0001
0000
0000
,  // measure 66
1000
0000
0000
0001
0000
0000
1100
0000
0000
0000
0110
0000
0000
0000
0011
0000
0000
0000
1001
0000
0000
0000
1010
0000
,  // measure 67
0000
0000
0101
0000
0000
0000
0001
0000
0000
0010
0000
0000
0100
0000
0000
1000
0000
0000
0010
0000
0000
0001
0000
0000
,  // measure 68
0010
0000
0000
0001
0000
0000
1000
0000
0000
0100
0000
0000
1000
0000
0000
0100
0000
0000
0010
0000
1000
0000
0001
0000
,  // measure 69
0010
0000
0001
0000
1000
0000
0100
0000
0000
1000
0000
0000
0001
0000
0000
0010
0000
0000
0001
0000
0000
1000
0000
0000
,  // measure 70
0001
0000
0000
1000
0000
0000
0011
0000
0000
0000
0110
0000
0000
0000
1100
0000
0000
0000
1001
0000
0000
0000
0101
0000
,  // measure 71
0000
1010
0000
0001
0000
1010
0000
0110
0000
0010
0000
0101
,  // measure 72
0000
1100
0000
0100
0000
1001
0000
0110
0000
0010
0000
1100
,  // measure 73
0000
0000
1001
0000
0000
0000
0001
0000
0000
0010
0000
0000
1000
0000
0000
0010
0000
0000
0001
0000
0000
0100
0000
0000
,  // measure 74
1000
0000
0000
0100
0000
0000
0001
0000
0000
1000
0000
0000
0010
0000
0000
1000
0000
0000
0001
0000
1000
0000
0010
0000
,  // measure 75
1000
0000
0001
0000
0100
0000
0001
0000
0000
0010
0000
0000
0100
0000
0000
0010
0000
0000
0220
0000
0000
0030
0000
0000
,  // measure 76
1300
1000
0001
1000
2200
3000
0020
0000
,  // measure 77
0300
0000
0031
0001
1000
0001
2002
0003
,  // measure 78
3010
0010
0100
0010
2010
0000
3001
0000
,  // measure 79
1002
0000
0100
0103
0020
1000
2030
0000
,  // measure 80
3010
0000
0000
0010
0000
0000
2000
0000
0000
0100
0000
0000
3100
0000
0000
0000
0000
0000
0010
0000
0001
0000
0010
0000
,  // measure 81
0100
0000
0010
0000
0100
0000
1000
0000
0000
1000
0000
0000
0010
0000
0000
0001
0000
0000
0001
0000
0000
0000
0000
0000
,  // measure 82
1000
0000
0000
0100
0000
0000
0001
0000
0010
0000
0100
0000
1000
0000
0100
0000
0010
0000
0001
0000
0000
0000
0000
0000
,  // measure 83
0000
2002
0000
0000
,  // measure 84
0000
0000
0000
0000
,  // measure 85
0000
0000
0000
0000
,  // measure 86
3003
0000
0000
0000
;

//---------------dance-single - Copied from----------------
#NOTEDATA:;
#CHARTNAME:Copied from;
#STEPSTYPE:dance-single;
#DESCRIPTION:Copied from;
#CHARTSTYLE:;
#DIFFICULTY:Hard;
#METER:15;
#RADARVALUES:0.924367,0.940890,0.145874,0.187553,0.437623,589.000000,14.000000,18.000000,0.000000,0.000000,0.000000,0.000000,0.000000,0.924367,0.940890,0.145874,0.187553,0.437623,589.000000,14.000000,18.000000,0.000000,0.000000,0.000000,0.000000,0.000000;
#CREDIT:Copied from;
#NOTES:
0000
0000
0000
0000
,
0000
0000
0000
0000
,
0000
1000
0001
0000
1000
0100
0010
0001
,
0000
1000
0100
0000
0010
0001
0100
0010
,
1000
0010
0100
0000
0010
1000
0001
0100
,
0000
0100
0010
0100
0010
0001
1000
0100
,
0001
1000
0001
0000
0001
1000
0010
0001
,
0000
1000
0000
0100
0001
0010
0100
1000
,
0001
0000
0000
0000
0000
0000
0000
0000
1001
0000
0000
0000
0000
0000
0000
0100
0000
0000
0010
0000
0000
1000
0000
0000
,
0010
0100
0001
0010
0001
1000
0010
0100
,
0010
1000
0001
0000
0001
0010
0100
1000
,
0000
0001
0010
0000
0100
1000
0010
0100
,
0001
0100
0010
0000
0100
0001
1000
0010
,
0000
0010
0100
0010
0100
1000
0001
0010
,
1000
0001
1000
0000
1000
0001
0100
1000
,
0000
0001
0000
0010
1000
0100
0010
0001
,
1000
0000
0000
0000
0000
0000
0000
0000
1001
0000
0000
0000
0000
0000
0000
0010
0000
0000
0100
0000
0000
0001
0000
0000
,
0100
0010
1000
0100
1000
0001
0100
0010
,
0100
0001
1000
0000
1000
0100
0010
0001
,
0000
1000
0100
0000
0010
0001
0100
0010
,
1000
0010
0100
0000
0010
1000
0001
0100
,
0000
0100
0010
0100
0010
0001
1000
0100
,
0001
1000
0001
0000
0001
1000
0010
0001
,
0000
1000
0000
0100
0001
0010
0100
1000
,
0001
0000
0000
0000
0000
0000
0000
0000
1001
0000
0000
0000
0000
0000
0000
0100
0000
0000
0010
0000
0000
1000
0000
0000
,
0010
0100
0001
0010
0001
1000
0010
0100
,
0020
0030
1000
0001
0010
0100
1000
0100
,
0010
1000
0010
0001
0100
1000
0001
0010
,
1000
0010
0001
1000
0100
0001
1000
0100
,
1000
0001
0010
0001
1000
0010
0001
0010
,
1000
0000
0001
1000
0100
0010
1000
0001
,
0100
1000
0001
1000
0010
0100
0001
0100
,
1000
0001
0010
1000
0001
0010
0100
1000
,
0001
0000
0000
0100
0000
0000
0010
0000
0000
0010
0000
0000
0010
0000
0000
0010
0000
0000
1000
0000
0100
0000
0010
0000
,
0001
0000
1000
0000
0001
0000
0100
0000
0000
0001
0000
0000
1000
0000
0000
0100
0000
0000
0010
0000
0000
0100
0000
0000
,
1000
0100
0010
0001
0100
1000
0100
0001
,
0010
0100
1000
0001
0100
0001
1000
0100
,
1000
0001
0100
1000
0001
0010
1000
0010
,
0001
0000
1000
0100
0010
1000
0001
0100
,
0001
1000
0100
0010
0100
1000
0001
0000
,
2002
3003
0001
1000
0001
0010
1000
0010
,
0001
0000
0000
1000
0000
0000
0010
0000
1000
0000
0001
0000
0100
0000
0001
0000
0010
0000
0100
0000
1000
0000
0001
0000
,
0010
0000
0100
0000
1000
0000
0001
0000
0000
0010
0000
0000
0100
0000
0000
1000
0000
0000
0010
0000
0000
0000
0000
0000
,
0010
0100
0010
1000
0100
0000
1001
0001
,
1000
0010
1000
0010
0100
0000
0110
0010
,
1000
0010
0100
0001
0100
0000
1001
0010
,
1000
0001
0100
0010
1000
0000
0110
0100
,
0001
1000
0001
0010
0001
0000
0101
0001
,
0100
1000
0200
0000
0302
0000
1003
1000
,
0010
0010
0100
0000
0101
0000
0010
0000
,
1001
0000
0000
0001
0010
0001
0010
0000
0000
0100
1000
0100
,
1000
0000
0000
0001
1000
0001
1000
0000
0000
0010
0100
0010
,
0100
0000
0000
0001
1000
0001
1000
0000
0000
0010
0100
0010
,
0100
0000
0000
0001
0100
0001
0100
0000
0000
0010
0100
0010
,
0100
0000
1000
0100
0001
0010
0100
1000
,
0010
1000
0100
0010
0100
1000
0010
0100
,
0001
0000
0000
1000
0000
0000
0010
0000
0100
0000
0010
0000
0100
0000
0000
0000
0010
0000
1000
0000
0010
0000
1000
0000
,
0000
0001
1000
0001
0010
0000
0100
1000
0100
1000
0000
0010
,
0001
0010
0100
0020
0000
0000
2030
0000
0000
3001
0000
0000
,
1001
0000
1000
0001
1000
0010
0100
0001
,
0100
0000
0000
0010
0000
0000
1000
0000
0000
0100
0000
0000
0010
0000
0000
0001
0000
0000
0010
0000
0100
0000
0001
0000
,
0100
0000
1000
0000
0001
0000
0010
0000
0000
0100
0000
0000
1000
0000
0000
0010
0000
0000
0100
0000
0000
0010
0000
0000
,
1000
0000
0000
0100
0000
0000
0010
0000
0001
0000
0000
0000
0001
0000
1000
0000
0000
0000
1000
0000
0001
0000
0000
0000
,
0001
0000
0100
0000
0000
0000
0100
0000
0000
0010
0000
0000
1000
0000
0000
0001
0000
0000
0010
0000
0000
0100
0000
0000
,
1000
0000
0000
0100
0000
0000
0010
0000
0000
0001
0000
0000
1000
0000
0000
0010
0000
0000
1000
0000
0001
0000
0100
0000
,
0001
0000
1000
0000
0001
0000
0100
0000
0000
0010
0000
0000
1000
0000
0000
0010
0000
0000
0100
0000
0000
0001
0000
0000
,
1000
0000
0000
0100
0000
0000
0010
0000
0000
0000
0010
0000
0000
0000
0001
0000
0000
0000
0010
0000
0000
0000
0100
0000
,
0000
0000
1000
0000
0000
0000
0001
0000
0000
0010
0000
0000
0100
0000
0000
1000
0000
0000
0010
0000
0000
0100
0000
0000
,
0010
0000
0000
0100
0000
0000
0001
0000
0000
1000
0000
0000
0001
0000
0000
1000
0000
0000
0010
0000
1000
0000
0001
0000
,
1000
0000
0001
0000
0100
0000
0010
0000
0000
1000
0000
0000
0001
0000
0000
0010
0000
0000
0001
0000
0000
1000
0000
0000
,
0001
0000
0000
0010
0000
0000
0100
0000
0000
0000
0100
0000
0000
0000
1000
0000
0000
0000
0001
0000
0000
0000
0100
0000
,
0000
0010
0000
0100
0000
0010
0000
0100
0000
0010
0000
1000
,
0000
0001
0000
0100
0000
0010
0000
1000
0000
0001
0000
0010
,
0000
0000
0100
0000
0000
0000
1000
0000
0000
0010
0000
0000
1000
0000
0000
0001
0000
0000
0100
0000
0000
0001
0000
0000
,
1000
0000
0000
0100
0000
0000
1000
0000
0000
0001
0000
0000
0010
0000
0000
0001
0000
0000
0100
0000
0010
0000
0100
0000
,
0010
0000
1000
0000
0001
0000
1000
0000
0000
0010
0000
0000
0100
0000
0000
0010
0000
0000
0200
0000
0000
0000
0000
0000
,
0301
1000
0001
1000
0020
0000
0230
0000
,
0000
0000
0301
1000
0010
0100
0002
0000
,
1003
0001
0010
0100
2000
0000
3100
0000
,
0012
0000
0103
0010
0100
0001
0200
0000
,
0301
1000
0001
0100
0020
0000
0000
0000
,
0000
0000
1030
0010
1000
0001
0200
0000
,
0301
0000
0000
1000
0000
0000
0001
0000
1000
0000
0100
0000
1000
0000
0001
0000
0100
0000
0001
0000
0000
0000
0000
0000
,
0000
0220
0000
0000
,
0000
0000
0000
0000
,
0000
0000
0000
0000
,
0330
0000
0000
0000
;

//---------------dance-single - Copied from Copied f----------------
#NOTEDATA:;
#CHARTNAME:Copied from Copied f;
#STEPSTYPE:dance-single;
#DESCRIPTION:Copied from Copied f;
#CHARTSTYLE:;
#DIFFICULTY:Medium;
#METER:11;
#RADARVALUES:0.724906,0.716868,0.604337,0.323008,0.140665,398.000000,58.000000,31.000000,0.000000,0.000000,0.000000,0.000000,0.000000,0.724906,0.716868,0.604337,0.323008,0.140665,398.000000,58.000000,31.000000,0.000000,0.000000,0.000000,0.000000,0.000000;
#CREDIT:Copied from Copied f;
#NOTES:
0000
0000
0000
0000
,
0000
0000
0000
0000
,
0000
1000
0001
0000
0000
0100
0000
0001
,
0000
0010
0100
0000
0000
1000
0000
0100
,
0000
0010
0001
0000
0000
1000
0000
0001
,
0000
0100
0000
0100
0000
0001
0000
0100
,
0000
0010
0000
0000
0100
0010
0000
1000
,
0000
0001
0000
0100
0000
0010
0000
1000
,
0000
0000
0000
0001
0000
0000
0000
0000
0010
0000
0000
0000
0000
0000
0000
0100
0000
0000
0000
0000
0000
1000
0000
0000
,
0000
0100
0000
0010
0000
0001
0000
0100
,
0000
1000
0000
0000
0100
0010
0000
0010
,
0000
1000
0000
0000
0001
1000
0000
0100
,
0000
0010
0000
0000
0100
1000
0000
0100
,
0000
0010
0000
0001
0000
0100
0000
0000
,
0010
1000
0000
0000
0001
1000
0000
0010
,
0000
0100
0000
0000
0001
0010
0000
0100
,
0000
0000
0000
1000
0000
0000
0000
0000
0001
0000
0000
0000
0000
0000
0000
0010
0000
0000
0000
0000
0000
0100
0000
0000
,
0000
0010
0000
0001
0000
0010
0000
0100
,
0000
1000
0010
0000
0000
0010
0000
0100
,
0000
0001
0100
0000
0000
0100
0000
0010
,
0000
0010
1000
0000
0000
0001
0000
1000
,
0000
0001
0000
0100
0000
0010
0000
0100
,
0001
1000
0000
0000
0010
1000
0000
1000
,
0000
0010
0000
0000
0010
0100
0000
0001
,
0000
0000
0000
0010
0000
0000
0000
0000
1000
0000
0000
0000
0000
0000
0000
0010
0000
0000
0000
0000
0000
0001
0000
0000
,
0000
0100
0000
0010
0000
1000
0000
0100
,
0020
0030
1001
0000
0110
0000
1010
0000
,
0110
0101
0110
1010
,
1100
0101
1001
0011
,
1010
1001
0110
1010
,
0101
0011
1100
1001
,
0110
0101
1010
1001
,
0110
1010
0101
0110
,
1001
0000
0010
1000
0010
1000
0001
0100
,
0001
0100
0101
0000
1001
0000
0110
0000
,
1010
1010
0101
0110
,
1001
0101
0011
1100
,
1010
1001
0110
1010
,
0110
0101
0011
1001
,
1010
0011
1100
0101
,
2000
3000
1001
0000
0011
0000
1010
0000
,
1001
0000
0010
1000
0100
0010
0100
1000
,
0001
0100
0001
0000
0100
0000
0010
0000
,
1000
0001
0010
0100
,
1000
0100
0010
0001
,
1000
0010
0001
0010
,
1000
0100
1000
0001
,
0010
0100
1000
0010
,
1000
0002
0203
0320
,
2030
3001
0101
0010
,
1001
0000
0001
1000
0010
0000
0010
1000
,
0100
0000
0100
0010
0001
0000
0001
0010
,
0100
0000
0100
1000
0010
0000
0100
0001
,
1000
0000
0010
0100
1000
0000
1000
0100
,
0010
0000
0010
1000
0001
0010
0100
1000
,
0010
1000
0100
0010
0100
1000
0010
0100
,
0001
0000
0000
1000
0000
0000
0010
0000
1000
0000
0000
0000
1000
0000
0001
0000
0000
0000
0001
0000
1000
0000
0000
0000
,
1000
0010
0000
0010
0100
0000
0100
0010
0000
0010
1000
0000
,
1000
0010
0000
0020
0000
0000
0230
0000
0000
0320
0000
0000
,
0030
0000
1000
0001
1000
0000
0001
0100
,
0001
0000
1000
0010
0100
0000
0020
0000
,
2030
0000
3010
0100
0001
0000
1000
0010
,
1000
0002
2003
3002
,
0203
0000
0310
1000
0001
0000
0100
0001
,
0010
0000
0100
1000
0010
0000
0200
0000
,
0302
0000
1003
0010
0100
0000
0001
0100
,
0010
0000
0000
0100
0000
0000
0010
0000
0000
0000
0100
0000
0000
0000
0001
0000
0000
0000
0001
0000
0000
0000
1000
0000
,
0000
0000
1000
0000
0000
0000
0001
0000
0000
0010
0000
0000
0100
0000
0000
0000
0000
0000
1000
0000
0000
0001
0000
0000
,
0010
0000
0100
1000
0001
0000
0200
0000
,
0320
0000
1030
0001
0100
0000
0010
1000
,
0001
0000
0000
1000
0000
0000
0010
0000
0000
0000
0010
0000
0000
0000
1000
0000
0000
0000
1000
0000
0000
0000
0001
0000
,
0000
0001
0000
0100
0000
0010
0000
0010
0000
0100
0000
0001
,
0000
0001
0000
1000
0000
0100
0000
0100
0000
0010
0000
0001
,
0000
0000
0001
0000
0000
0000
1000
0000
0000
0001
0000
0000
0100
0000
0000
0000
0000
0000
0001
0000
0000
0100
0000
0000
,
0010
0000
1000
0010
0100
0000
0020
0000
,
0230
0000
0301
1000
0001
0010
0200
0000
,
1300
0001
1000
0001
0200
0000
0320
0000
,
0000
0000
1030
0001
0100
0010
2000
0000
,
3001
1000
0100
0010
0002
0000
1003
0000
,
0010
0000
0010
0100
0010
1000
0020
0000
,
1030
0001
1000
0010
0200
0000
0000
0000
,
0000
0000
0301
0100
0001
1000
0020
0000
,
1030
0001
1000
0001
1000
0010
0000
0000
,
0000
2002
0000
0000
,
0000
0000
0000
0000
,
0000
0000
0000
0000
,
3003
0000
0000
0000
;

//---------------dance-single - Copied from Copied f----------------
#NOTEDATA:;
#CHARTNAME:Copied from Copied f;
#STEPSTYPE:dance-single;
#DESCRIPTION:Copied from Copied f;
#CHARTSTYLE:;
#DIFFICULTY:Easy;
#METER:7;
#RADARVALUES:0.434646,0.672064,0.020839,0.385525,0.000000,253.000000,2.000000,37.000000,0.000000,0.000000,0.000000,0.000000,0.000000,0.434646,0.672064,0.020839,0.385525,0.000000,253.000000,2.000000,37.000000,0.000000,0.000000,0.000000,0.000000,0.000000;
#CREDIT:Copied from Copied f;
#NOTES:
0000
0000
0000
0000
,
0000
0000
0000
0000
,
0000
1000
0001
0000
0000
0000
0000
0000
,
0000
0010
0100
0000
0000
0000
0000
0000
,
0000
0010
0001
0000
0000
0000
0000
0000
,
0000
0001
0000
1000
0000
0001
0000
1000
,
0000
0001
0000
0000
0100
0010
0000
0000
,
0000
0001
0000
0000
0000
0010
0000
0000
,
0000
0001
0000
0000
0000
0100
0000
0000
,
0000
0100
0000
0000
0000
0001
0000
0100
,
0000
1000
0000
0000
0100
0010
0000
0000
,
0000
0000
0000
0000
0001
1000
0000
0000
,
0000
0000
0000
0000
0100
1000
0000
0000
,
0000
0000
0000
0000
,
0010
1000
0000
0000
0001
1000
0000
0000
,
0000
0000
0000
0000
0001
0010
0000
0000
,
0000
1000
0000
0000
0000
0010
0000
0000
,
0000
0010
0000
0000
0000
0100
0000
0100
,
0000
1000
0010
0000
0000
0000
0000
0000
,
0000
0001
0100
0000
0000
0000
0000
0000
,
0000
0010
1000
0000
0000
0000
0000
0000
,
0000
0001
0000
0000
0000
0010
0000
0000
,
0001
1000
0000
0000
0010
1000
0000
0000
,
0000
0010
0000
0000
0010
0100
0000
0000
,
0000
0010
0000
0000
0000
0100
0000
0000
,
0000
0001
0000
0000
0000
1000
0000
0010
,
0010
1000
0010
0100
,
0001
0100
0010
1000
,
0100
0010
0001
0010
,
0100
1000
0001
0100
,
0010
0100
0001
0010
,
0001
1000
0100
1000
,
0010
0100
0001
1000
,
0001
0010
0010
0010
,
0010
0100
1000
0010
,
0001
0010
1000
0100
,
0001
0100
1000
0001
,
1000
0010
0100
0010
,
1000
0001
0100
0010
,
1000
0100
0010
0001
,
0000
1000
0001
1000
,
0001
0100
0100
0010
,
0010
0100
0000
0001
,
0000
1000
0000
0100
,
0000
0010
0000
0001
,
0000
0100
0000
0010
,
0000
1000
0000
0001
,
0000
1000
0000
0010
,
0000
2000
3002
2003
,
3020
0030
0000
1001
,
0000
1000
1000
0100
,
0100
0010
0010
0001
,
0001
0100
0100
0010
,
0010
1000
1000
0001
,
0001
0100
0100
0100
,
0100
0100
0100
0100
,
0100
0020
2030
3002
,
0203
0320
2030
3002
,
0203
0320
2030
3002
,
0003
0001
0001
1000
,
1000
0010
0010
0200
,
0302
1003
1000
0001
,
0001
0200
0302
2003
,
3020
0130
1000
0010
,
0100
0001
1000
0020
,
2030
3001
0010
0001
,
0200
0000
0000
0000
,
0000
0300
0001
0000
1000
0000
0010
0000
,
0100
0001
1000
0020
,
0230
0301
0010
0100
,
2000
0000
0000
0000
,
0000
3000
0010
0000
0000
0000
1000
0000
,
0000
0001
0000
0100
,
0000
0001
1000
0001
,
1000
0010
0100
0010
,
1000
0001
1000
0020
,
0130
0100
0020
0230
,
0000
0310
0100
0020
,
1030
0001
2000
3010
,
0000
0010
1000
0200
,
0310
0001
0020
0000
,
0000
0130
1000
0200
,
0310
0100
1000
0000
,
0000
2002
0000
0000
,
0000
0000
0000
0000
,
0000
0000
0000
0000
,
3003
0000
0000
0000
;

//---------------dance-single - Copied from Copied f----------------
#NOTEDATA:;
#CHARTNAME:Copied from Copied f;
#STEPSTYPE:dance-single;
#DESCRIPTION:Copied from Copied f;
#CHARTSTYLE:;
#DIFFICULTY:Beginner;
#METER:4;
#RADARVALUES:0.263467,0.448043,0.010420,0.239651,0.000000,153.000000,1.000000,23.000000,0.000000,0.000000,0.000000,0.000000,0.000000,0.263467,0.448043,0.010420,0.239651,0.000000,153.000000,1.000000,23.000000,0.000000,0.000000,0.000000,0.000000,0.000000;
#CREDIT:Copied from Copied f;
#NOTES:
0000
0000
0000
0000
,
0000
0000
0000
0000
,
0000
0001
0000
0000
0000
0000
0000
0000
,
0000
0100
0000
0000
0000
0000
0000
0000
,
0000
0100
0000
0000
0000
0000
0000
0000
,
0000
1000
0000
0000
0000
0001
0000
0000
,
0000
1000
0000
0000
0000
0100
0000
0000
,
0000
0000
0000
0000
0000
0100
0000
0000
,
0000
1000
0000
0000
0000
0010
0000
0000
,
0000
0010
0000
0000
0000
1000
0000
0000
,
0000
0001
0000
0000
0000
0100
0000
0000
,
0000
0000
0000
0000
0000
0001
0000
0000
,
0000
0000
0000
0000
0000
0100
0000
0000
,
0000
0000
0000
0000
,
0000
1000
0000
0000
0000
0001
0000
0000
,
0000
0000
0000
0000
0000
0100
0000
0000
,
0000
0010
0000
0000
0000
1000
0000
0000
,
0000
0100
0000
0000
0000
0010
0000
0000
,
0000
0001
0000
0000
0000
0000
0000
0000
,
0000
0010
0000
0000
0000
0000
0000
0000
,
0000
0100
0000
0000
0000
0000
0000
0000
,
0000
1000
0000
0000
0000
0100
0000
0000
,
0000
0001
0000
0000
0000
0010
0000
0000
,
0000
0100
0000
0000
0000
1000
0000
0000
,
0000
0100
0000
0000
0000
0010
0000
0000
,
0000
0001
0000
0000
0000
1000
0000
0000
,
0010
0001
0000
0010
,
0000
0010
0000
0001
,
0000
0100
0000
0100
,
0000
0001
0000
0010
,
0000
0010
0000
0100
,
0000
0001
0000
0001
,
0000
0010
0000
0001
,
0000
0200
0000
0000
,
0300
0010
0000
0100
,
0000
0100
0000
0010
,
0000
0010
0000
1000
,
0000
0100
0000
0100
,
0000
1000
0000
0100
,
0000
0010
0000
1000
,
0000
0001
0000
1000
,
0000
0010
0000
0100
,
0000
0010
0000
1000
,
0000
0001
0000
0010
,
0000
0100
0000
1000
,
0000
0010
0000
0100
,
0000
0001
0000
1000
,
0000
0001
0000
0100
,
0000
0001
1000
0001
,
0200
0000
0300
0000
,
0000
0001
0000
0010
,
0000
0100
0000
1000
,
0000
0010
0000
0100
,
0000
0001
0000
1000
,
0000
0020
0000
0000
,
0000
0000
0000
0000
,
0030
0100
0000
1000
,
0000
0100
0000
1000
,
0000
0001
0000
1000
,
0000
1000
0000
0001
,
0000
0100
0000
0020
,
2030
3001
0000
1000
,
0000
0020
2030
3002
,
0203
0310
0000
0100
,
0000
1000
0000
0200
,
0302
1003
0000
1000
,
0020
0000
0000
0000
,
0000
0030
1000
0000
0000
0000
0100
0000
,
0000
1000
0000
0200
,
0320
0000
1030
0000
0000
0100
0000
0000
,
0002
0000
0000
0000
,
0000
0003
0100
0000
0000
0000
0001
0000
,
0000
1000
0000
0010
,
0000
1000
0000
0001
,
0000
0100
0000
0010
,
0000
1000
0000
0010
,
0100
0000
0010
0020
,
0000
0130
0000
0200
,
0301
0000
0002
0103
,
0000
0100
0000
0020
,
0030
0001
0200
0000
,
0000
0310
0000
0020
,
0130
0000
0001
0000
,
0000
2002
0000
0000
,
0000
0000
0000
0000
,
0000
0000
0000
0000
,
3003
0000
0000
0000
;
