#TITLE:DEADLOCK;
#SUBTITLE:-Out Of Reach-;
#ARTIST:U1 undefined behavior;
#TITLETRANSLIT:;
#SUBTITLETRANSLIT:;
#ARTISTTRANSLIT:;
#GENRE:;
#CREDIT:;
#BANNER:;
#BACKGROUND:DEADLOCK -Out Of Reach--bg.png;
#LYRICSPATH:;
#CDTITLE:;
#MUSIC:DEADLOCK -Out Of Reach-.mp3;
#OFFSET:-0.020000;
#SAMPLESTART:99.999969;
#SAMPLELENGTH:12.000000;
#SELECTABLE:YES;
#BPMS:0.000000=205.020004
;
#STOPS:
;
#BGCHANGES:;
#KEYSOUNDS:;
#ATTACKS:;

//---------------dance-single - ----------------
#NOTES:
     dance-single:
     :
     Challenge:
     18:
     1.000000,1.000000,0.523100,0.285327,0.562728,848.000000,66.000000,36.000000,0.000000,0.000000,0.000000,1.000000,1.000000,0.523100,0.285327,0.562728,848.000000,66.000000,36.000000,0.000000,0.000000,0.000000:
// measure 0
0000
0000
0000
0000
,  // measure 1
0000
0000
2001
0010
,  // measure 2
0001
3010
0102
0010
,  // measure 3
1003
0100
0120
1000
,  // measure 4
0100
1030
0201
0010
,  // measure 5
0301
0000
1001
0000
0010
0100
0001
0010
,  // measure 6
0100
1000
0001
0010
0100
1000
0001
0100
,  // measure 7
0010
0100
0001
0010
0100
0100
1000
1000
,  // measure 8
0010
1000
0101
1000
0001
0100
0001
1000
,  // measure 9
0010
0000
0100
0000
0010
0000
1000
0000
0010
1000
0010
0000
0100
0010
0100
0000
,  // measure 10
0001
1000
0001
0000
0100
0010
0100
0000
0001
0100
0010
0000
0000
0000
0000
0000
,  // measure 11
1000
0001
1000
0001
1000
0001
1000
0001
0100
0000
0010
0000
1000
0000
0001
0000
,  // measure 12
1000
0000
0001
0000
0010
0000
0100
0000
1000
0000
0001
0000
1000
0010
0100
0010
,  // measure 13
1000
0000
0000
0000
0100
0010
0001
0010
0100
0000
1000
0000
0010
0000
0100
0000
,  // measure 14
0100
0000
0001
0000
1000
0000
0010
0000
1000
0000
0001
0000
0100
0010
1000
0010
,  // measure 15
1000
0000
0000
0000
0100
0010
0100
0010
0001
0000
1000
0000
0100
0000
0010
0000
,  // measure 16
0010
0000
0001
0100
0001
0100
0010
0000
2010
0000
0000
0000
3002
0000
0000
0000
,  // measure 17
0203
0000
0000
0000
0310
1000
0010
0100
0010
0000
1000
0000
0010
0000
0001
0000
,  // measure 18
0010
0000
1000
0000
0100
0000
0001
0000
2100
0000
0000
0000
3010
0100
0010
0100
,  // measure 19
1000
0000
0000
0000
1000
0100
1000
0100
0001
0000
0010
0000
0100
0000
1000
0000
,  // measure 20
0100
0010
0001
0010
0100
0100
0011
0100
,  // measure 21
1000
1000
0110
0100
0010
0010
1001
0100
,  // measure 22
0001
0000
0001
0000
1100
0000
0100
0000
0010
0000
0010
0000
0001
0100
0010
1000
,  // measure 23
0010
0000
0000
0000
0100
0001
1000
0001
0200
0000
0000
0000
0000
0000
0000
0000
,  // measure 24
0000
0000
0000
0000
0010
0000
0310
0000
1000
0010
0100
0000
0001
1000
0100
0000
,  // measure 25
0010
0001
0100
0010
1000
0010
0100
0000
0010
0000
0100
0000
0101
0000
0010
0000
,  // measure 26
1000
1000
0110
0001
0010
0010
0101
0010
,  // measure 27
1000
0010
1000
0000
1000
0010
1000
0000
0010
0000
0010
0000
0101
0000
0100
0000
,  // measure 28
0001
0000
0001
0000
1010
0000
0100
0000
0001
0100
0001
0000
0001
0010
0001
0000
,  // measure 29
1000
0100
1000
0000
1000
0010
1000
0000
0001
0000
0001
0000
0110
0000
0100
0000
,  // measure 30
0001
0001
1010
0100
0010
0010
1001
0100
,  // measure 31
0010
1000
0010
0000
0010
1000
0010
0000
0100
0010
0100
0000
0100
0010
0100
0000
,  // measure 32
0010
0010
1000
1000
0100
0010
0001
0100
,  // measure 33
0001
1000
0100
0000
0010
0001
1000
0000
0001
0000
0010
0000
0100
0000
0010
0000
,  // measure 34
0001
0000
1000
0000
0010
0000
0100
0000
1000
0100
0010
0100
0020
0000
0000
0000
,  // measure 35
1030
0010
0100
0010
0100
0000
0020
0000
1000
0000
1030
0000
0001
0000
0200
0000
,  // measure 36
0010
0000
0310
0000
0202
0000
0303
0000
2020
0000
0030
0000
3001
0100
0001
0100
,  // measure 37
0020
0030
2002
3003
0010
1000
0100
0010
,  // measure 38
1000
0000
0010
0000
0001
0000
0100
0000
1000
0100
1000
0000
0100
0010
0100
0001
,  // measure 39
0020
0030
0200
1000
1300
0100
0010
0001
,  // measure 40
1000
0100
0001
2000
0010
0010
0010
3020
,  // measure 41
0100
0100
0100
0130
0010
0001
1001
0100
,  // measure 42
0001
0001
0110
1000
0010
0010
0101
1000
,  // measure 43
0001
0001
1100
0100
0010
0010
0101
0001
,  // measure 44
0100
0100
1010
1000
0001
0001
0110
1000
,  // measure 45
0010
0010
1001
1000
0100
0100
0011
0001
,  // measure 46
0100
0100
1010
0100
0001
0001
0110
1000
,  // measure 47
0010
0010
0101
1000
0001
0001
1100
0100
,  // measure 48
0010
0010
0101
0001
0100
0100
1010
1000
,  // measure 49
0001
0000
0001
0000
0110
0000
0100
0000
0001
0010
0100
1000
0100
0000
0010
0000
,  // measure 50
0001
1000
0100
0010
0001
0000
0010
0000
0100
0010
0001
0010
0100
0000
1000
0000
,  // measure 51
0001
0100
0010
1000
0010
0000
1000
0000
0001
0100
1000
0100
0001
0000
0100
0000
,  // measure 52
0001
0010
1000
0010
0001
0000
0100
0000
1000
0100
0001
0100
1000
0000
0100
0000
,  // measure 53
0001
0010
1000
0010
0001
0000
0100
0000
0001
0010
0100
1000
0100
0000
0010
0000
,  // measure 54
0001
1000
0100
0010
0001
0000
0100
0000
0010
0100
1000
0100
0010
0000
1000
0000
,  // measure 55
0001
0100
0010
1000
0010
0000
0100
0000
0001
0100
1000
0100
0001
0000
0010
0000
,  // measure 56
1000
0010
0001
0010
1000
0000
0010
0000
0001
0100
1000
0100
0001
0010
0100
1000
,  // measure 57
0010
0100
0001
0010
0001
1000
0010
1000
0001
0000
1000
0000
0010
0000
0100
0000
,  // measure 58
1001
1000
0010
0100
0001
0100
0001
1000
,  // measure 59
1010
0010
0100
0001
0010
0100
1000
0100
,  // measure 60
0101
0001
0100
1000
0010
0100
1000
0100
,  // measure 61
0110
0010
1000
0100
0001
0100
1000
0010
,  // measure 62
1010
1000
0001
0100
1000
0001
0010
0100
,  // measure 63
0101
0001
0100
1000
0200
0300
2002
0000
,  // measure 64
0000
0000
0000
0000
,  // measure 65
0000
0000
0000
3003
0220
0000
0000
0000
,  // measure 66
0000
0000
0000
0000
,  // measure 67
0000
0000
0000
0330
0001
1000
0010
0100
,  // measure 68
0001
0000
1000
0000
0010
0000
1000
0000
1002
0000
0000
0000
0013
0001
0010
0001
,  // measure 69
0100
0000
0000
0000
0100
0001
1000
0001
0100
0000
0010
0000
1000
0000
0100
0000
,  // measure 70
0010
0000
0001
1000
0001
0000
0100
0000
0010
0000
0100
0000
0102
0000
0000
0000
,  // measure 71
1003
0001
1000
0001
0100
0010
0100
0010
1000
0000
0010
0000
1010
0000
0100
0000
,  // measure 72
0010
0000
0010
0000
1001
0000
0010
0000
1000
0000
1000
0000
0010
0100
0001
1000
,  // measure 73
0020
0000
0000
0000
0130
0001
1000
0010
0100
0000
0100
0000
1010
0000
0001
0000
,  // measure 74
2000
0000
0000
0000
3010
0000
0100
0000
0010
0100
0000
0100
0010
1000
0010
0000
,  // measure 75
0100
0001
0100
0000
0001
1000
0001
0000
0010
0000
0100
0000
1000
0000
0100
0000
,  // measure 76
0010
0001
1000
0010
0100
0010
1000
0100
,  // measure 77
0001
0000
1000
0000
0010
0000
0001
0000
1000
0010
1000
0010
1000
0010
0100
0000
,  // measure 78
0001
0100
0001
0100
0001
0100
0010
0000
0100
0010
0100
0010
0100
0010
1000
0000
,  // measure 79
0001
0100
0001
0100
0001
0100
0010
0000
1000
0000
0010
0000
0100
0000
1000
0000
,  // measure 80
0100
0010
1000
0100
0010
0001
1000
0100
,  // measure 81
0001
0000
0100
0000
1000
0000
0010
0000
1000
0100
0001
0000
0100
0000
1000
0000
,  // measure 82
0001
0100
1000
0000
0100
0000
0001
0000
1000
0100
0001
0000
0100
0000
1000
0000
,  // measure 83
0001
0100
1000
0000
0100
0000
0001
0000
1000
0000
0010
0000
0100
0000
0001
0000
,  // measure 84
0100
1000
0100
0001
0010
0100
0010
0001
,  // measure 85
1000
0000
0010
0000
0100
0000
0010
0000
1000
0010
0001
0000
0010
0000
1000
0000
,  // measure 86
0001
0010
1000
0000
0010
0000
0001
0000
0000
1001
0000
0000
0010
0000
0100
0000
,  // measure 87
0000
0101
0000
0000
0010
0000
1000
0000
0010
0000
0001
0000
1000
0000
0100
0000
,  // measure 88
0001
0010
0100
1000
0010
0100
1000
0100
,  // measure 89
0001
0000
0010
0000
0001
0000
1000
0000
0100
1000
0100
1000
0100
1000
0010
0000
,  // measure 90
0100
0001
0100
0001
0100
0001
1000
0000
0010
1000
0010
1000
0010
1000
0100
0000
,  // measure 91
0010
0001
0010
0001
0010
0001
0100
0000
0220
0000
0000
0000
0000
0000
0330
0000
,  // measure 92
1001
1000
0010
0100
0001
0010
0100
1000
,  // measure 93
1010
0010
0100
0001
0010
0100
1000
0010
,  // measure 94
0110
0100
0001
1000
0010
0001
1000
0100
,  // measure 95
0101
0001
0010
0100
1000
0001
1000
0100
,  // measure 96
0010
0010
1001
0100
0010
0010
0101
0010
,  // measure 97
1000
1000
0101
0010
0100
0100
1010
0001
,  // measure 98
0010
0010
0101
0001
0100
0100
1010
0001
,  // measure 99
0100
0000
0100
0000
0010
0100
0010
0000
2002
0000
0000
0000
0000
0000
0000
0000
,  // measure 100
0000
0000
0000
0000
,  // measure 101
0000
0000
0000
0000
,  // measure 102
3003
0000
0000
0000
;

//---------------dance-single - ----------------
#NOTES:
     dance-single:
     :
     Hard:
     16:
     0.959016,0.889269,0.420065,0.317030,0.447805,754.000000,53.000000,40.000000,0.000000,0.000000,0.000000,0.959016,0.889269,0.420065,0.317030,0.447805,754.000000,53.000000,40.000000,0.000000,0.000000,0.000000:
0000
0000
0000
0000
,
0000
0000
0000
0000
,
0000
0000
0000
0000
,
0000
0000
0000
0000
,
0000
0000
0000
0000
,
0000
0000
0000
0000
0001
0010
0100
1000
,
0010
0100
0001
1000
0010
0100
0001
0100
,
0010
1000
0001
0100
0010
0010
0001
0001
,
0010
0100
0001
1000
0010
1000
0001
1000
,
0100
0000
0010
0000
0001
0000
0100
0000
0001
0100
0001
0000
1000
0010
1000
0000
,
0001
0100
0001
0000
0100
0010
0100
0000
0010
1000
0010
0000
0000
0000
0000
0000
,
0100
0010
0100
0010
0100
0010
0100
0010
0100
0000
0010
0000
1000
0000
0001
0000
,
1000
0000
0001
0000
0010
0000
0100
0000
2000
0000
0000
0000
3001
0100
0001
0100
,
0010
0000
0000
0000
0100
0001
0100
0001
1000
0000
0010
0000
0010
0000
0100
0000
,
0100
0000
0001
0000
1000
0000
0001
0000
0200
0000
0000
0000
0301
1000
0001
1000
,
0010
0000
0000
0000
0100
0010
0100
0010
1000
0000
0001
0000
0100
0000
0010
0000
,
0100
0000
0001
1000
0001
1000
0001
0000
0200
0000
0000
0000
0302
0000
0000
0000
,
0203
0000
0000
0000
0310
0100
0010
0100
0010
0000
1000
0000
0010
0000
1000
0000
,
0001
0000
0100
0000
0001
0000
0100
0000
0020
0000
0000
0000
1030
0001
1000
0001
,
1000
0000
0000
0000
0010
0100
0010
0100
0010
0000
0100
0000
0010
0000
1000
0000
,
0001
0100
0010
1000
0010
0010
0110
0000
,
1000
1000
1010
0000
0001
0001
1001
0000
,
0100
0000
0100
0000
0101
0000
0000
0000
0100
0000
0000
0000
0001
0100
0001
0100
,
0001
0000
0000
0000
1000
0010
1000
0010
2000
0000
0000
0000
0000
0000
0000
0000
,
0000
0000
0000
0000
0001
0000
3001
0000
1000
0001
1000
0000
0010
1000
0010
0000
,
0100
0001
0100
0001
0100
0001
0100
0001
1000
0000
0010
0000
0101
0000
0000
0000
,
1000
0010
0110
0000
0001
0100
1001
0000
,
1000
0010
1000
0000
0001
0100
0001
0000
0010
0000
0001
0000
0011
0000
0000
0000
,
0100
0000
1000
0000
1010
0000
0000
0000
0001
0100
0001
0000
1000
0001
1000
0000
,
0010
0100
0010
0000
0100
0001
0100
0000
0010
0000
0100
0000
0110
0000
0000
0000
,
1000
0001
0101
0000
0010
0100
1010
0000
,
0100
0010
0100
0000
0001
1000
0001
0000
0100
0010
0100
0000
0001
1000
0001
0000
,
0010
0010
0200
0000
2300
0000
3010
0010
,
0100
0010
0100
0000
0100
0010
0100
0000
0010
0000
1000
0000
0001
0000
0010
0000
,
0001
0000
1000
0000
0100
0000
0010
0000
0001
0100
0001
0100
0001
0000
0000
0000
,
1000
0010
1000
0010
1000
0000
0001
0000
0100
0000
0100
0000
0010
0000
1000
0000
,
0001
0000
0001
0000
0200
0000
0000
0000
0320
0000
0000
0000
0130
0010
0100
0010
,
0200
0000
0020
0330
0001
1000
0001
0100
,
0010
0000
1000
0000
0010
0000
0100
0000
0001
0100
0001
0000
1000
0010
1000
0010
,
1000
0000
0010
0100
0100
0001
1000
0001
,
0100
0010
1000
0001
1000
1000
1000
1000
,
0001
0001
0001
0001
0100
0010
1001
0000
,
0001
0100
0110
0000
0010
1000
1010
0000
,
0001
0100
0110
0000
0001
0100
0101
0000
,
0010
1000
1010
0000
0100
0001
0101
0000
,
0010
1000
1001
0000
1000
0100
0011
0000
,
0001
1000
1100
0000
0010
0001
1001
0000
,
0010
0100
0110
0000
0001
1000
1100
0000
,
0010
0001
1001
0000
0100
0010
0110
0000
,
0001
0000
1000
0000
1010
0000
0000
0000
0001
0010
0001
0000
0100
0000
0010
0000
,
1000
0001
1000
0000
0001
0000
0100
0000
0001
0010
0001
0000
0100
0000
0010
0000
,
1000
0010
1000
0000
0001
0000
0100
0000
0001
0100
0001
0000
1000
0000
0100
0000
,
0010
0001
0010
0000
0100
0000
1000
0000
0100
0010
0100
0000
0010
0000
0001
0000
,
0100
0010
0100
0000
1000
0000
0100
0000
0001
0010
0001
0000
1000
0000
0100
0000
,
0010
0001
0010
0000
0100
0000
1000
0000
0010
0100
0010
0000
1000
0000
0001
0000
,
0100
0010
0100
0000
0001
0000
1000
0000
0001
1000
0001
0000
0100
0000
0010
0000
,
1000
0010
1000
0000
0100
0000
0001
0000
1000
0010
1000
0000
0010
0000
0001
0000
,
0100
0010
0100
0000
0001
0000
1000
0000
0010
0000
0100
0000
0010
0000
0100
0000
,
2002
0003
3001
0010
0100
1000
0010
0100
,
0202
0300
1003
0010
1000
0001
0100
0010
,
0220
0030
0301
1000
0010
0100
0010
1000
,
2020
3000
0130
0001
0010
0100
1000
0001
,
0022
0030
0103
0010
1000
0010
0100
0001
,
2002
3000
0103
0010
0100
0000
2002
0000
,
0000
0000
0000
0000
,
0000
0000
0000
3003
0220
0000
0000
0000
,
0000
0000
0000
0000
,
0000
0000
0000
0330
0010
0100
0001
0010
,
0001
0000
1000
0000
0100
0000
0010
0000
0002
0000
0000
0000
1003
0001
1000
0001
,
1000
0000
0000
0000
0010
0100
0010
0100
0010
0000
1000
0000
0001
0000
0010
0000
,
0001
0000
1000
0010
1000
0000
0010
0000
0010
0000
0100
0000
0020
0000
0000
0000
,
1030
0001
1000
0001
1000
0001
1000
0001
0100
0000
0010
0000
1010
0000
0000
0000
,
0010
0000
0100
0000
0101
0000
0000
0000
0010
0000
0100
0000
0001
0100
0001
0100
,
0001
0000
0000
0000
1000
0010
1000
0010
1000
0000
0010
0000
1010
0000
0000
0000
,
0100
0000
0010
0000
1000
0000
0001
0000
0100
0000
0100
0000
0001
1000
0001
0000
,
1000
0010
1000
0000
0010
0100
0010
0000
1000
0000
0001
0000
0100
0000
0010
0000
,
0100
0001
1000
0001
0100
0010
0100
0001
,
1000
0000
0001
0000
0010
0000
0100
0000
1000
0001
1000
0001
1000
0000
0010
0000
,
0100
0010
0100
0010
0100
0000
0001
0000
1000
0010
1000
0010
1000
0000
0001
0000
,
0100
0001
0100
0001
0100
0000
0001
0000
0010
0000
0100
0000
1000
0000
0010
0000
,
0100
0001
1000
0010
1000
0001
0100
0001
,
1000
0000
0100
0000
1000
0000
0010
0000
1000
0100
1000
0000
0001
0000
0100
0000
,
1000
0100
1000
0000
0100
0000
0001
0000
1000
0100
1000
0000
0001
0000
0100
0000
,
1000
0100
1000
0000
0100
0000
0001
0000
0010
0000
0001
0000
1000
0000
0100
0000
,
1000
0010
0100
0010
1000
0001
1000
0100
,
0010
0000
0001
0000
0010
0000
0100
0000
0010
0001
0010
0000
0100
0000
1000
0000
,
0010
0001
0010
0000
0100
0000
0010
0000
0000
1001
0000
0000
0001
0000
1000
0000
,
0000
1001
0000
0000
0010
0000
0100
0000
0001
0000
0010
0000
0100
0000
1000
0000
,
0010
0100
0001
0010
0100
1000
0100
0010
,
0001
0000
0100
0000
1000
0000
0100
0000
0001
0100
0001
0100
0001
0000
1000
0000
,
0010
0100
0010
0100
0010
0000
0100
0000
0010
1000
0010
1000
0010
0000
0100
0000
,
0001
1000
0001
1000
0001
0000
0100
0000
0120
0000
0000
0000
0000
0000
0030
0000
,
1001
0001
1000
0001
0100
0010
1000
0001
,
2002
3000
0103
0001
0010
0100
1000
0010
,
2020
0030
3001
1000
0001
0100
0010
1000
,
2002
3000
0013
0100
1000
0010
0100
0001
,
0100
0010
1010
0000
0001
0100
0110
0000
,
0010
0100
1001
0000
0001
0100
0101
0000
,
0010
1000
1010
0000
0010
0100
0110
0000
,
0010
0000
0100
0000
0001
1000
0001
0000
2002
0000
0000
0000
0000
0000
0000
0000
,
0000
0000
0000
0000
,
0000
0000
0000
0000
,
3003
0000
0000
0000
;

//---------------dance-single - ----------------
#NOTES:
     dance-single:
     :
     Medium:
     13:
     0.671424,0.687163,0.412139,0.396288,0.011889,491.000000,52.000000,50.000000,0.000000,0.000000,0.000000,0.671424,0.687163,0.412139,0.396288,0.011889,491.000000,52.000000,50.000000,0.000000,0.000000,0.000000:
0000
0000
0000
0000
,
0000
0000
0000
0000
,
0000
0000
0000
0000
,
0000
0000
0000
0000
,
0000
0000
0000
0000
,
0000
0000
0000
0000
1000
0001
0100
0001
,
1000
0000
0001
0000
0100
0010
1000
0001
,
0100
0000
0010
0000
0100
0100
0010
0010
,
0000
1001
1000
0001
,
0100
0000
0000
0000
0100
0100
0010
0010
,
1000
1000
0001
0001
0100
0010
0000
0000
,
2000
0000
3002
0000
0103
0010
0100
0001
,
1000
0000
0010
0100
0002
0000
1003
1000
,
0010
0000
0100
0100
0001
0000
1000
0010
,
1000
0000
0001
1000
0010
0000
0100
0100
,
0010
0000
1000
1000
0001
0000
0100
0010
,
0100
1001
0200
0302
,
2003
0000
3010
0010
0100
0100
0010
0000
,
1000
0001
0100
0000
0020
0000
0130
0010
,
0200
0000
0301
1000
0020
0000
0130
0001
,
1000
0000
0010
1000
0001
0000
0101
0000
,
1000
1010
0010
0110
,
0100
0000
1001
0000
0100
0000
0001
1000
,
0010
0000
0100
0010
0200
0000
0000
0000
,
0000
0000
0301
1000
0001
1000
0001
1000
,
0010
0100
0010
0100
0010
0100
1001
0000
,
1000
1010
0001
0101
,
1000
0010
1000
0010
0100
0000
0110
0000
,
0010
0000
1010
0000
0100
0001
0100
0001
,
1000
0010
1000
0010
0100
0000
0101
0000
,
0010
1001
0010
0110
,
1000
0001
0100
0001
0100
0001
1000
0010
,
1000
0010
0010
0000
0200
0000
0302
0000
,
0103
0010
0100
0010
1000
0000
0001
1000
,
0010
0000
1000
0010
0100
0001
0001
0000
,
0100
0010
1000
0010
0100
0100
0000
0010
,
1000
1000
0002
0000
2003
0000
3100
0010
,
0002
0000
1003
0000
0010
1000
0010
0000
,
1000
0001
0100
0000
0002
0000
1003
0010
,
0100
0000
0010
1000
0010
0100
0010
0000
,
0100
0001
0100
0000
0010
0010
0010
0010
,
0100
0100
0100
0100
0010
0000
1001
0000
,
0100
0110
0001
0101
,
1000
1010
0010
0101
,
0100
1100
1000
0011
,
0001
1001
0100
0110
,
0001
1100
0001
0011
,
1000
1010
0100
0101
,
0010
0110
0010
1010
,
0100
0000
0101
0000
0001
0100
0001
0000
,
1000
0010
0100
0000
0001
1000
0100
0000
,
0010
0001
0100
0000
0010
1000
0100
0000
,
0010
0001
0100
0000
0010
1000
0100
0000
,
0010
0001
1000
0000
0100
1000
0100
0000
,
0010
0001
0100
0000
0010
1000
0100
0000
,
0010
0001
0100
0000
0010
1000
0010
0000
,
0100
0001
0100
0000
0010
1000
0010
0000
,
0100
0010
0100
0000
0010
0100
0010
0000
,
2002
3003
0010
0000
1000
0000
0001
0000
,
0202
0303
0010
0000
1000
0000
0010
0000
,
2020
3030
0001
0000
0100
0000
0001
0000
,
0022
0033
0100
0000
1000
0000
0100
0000
,
2002
3003
0010
0000
0100
0000
0001
0000
,
2002
3003
0100
0000
0010
0000
2002
0000
,
0000
0000
0000
0000
,
0000
0000
0000
3003
0210
0000
0000
0000
,
0000
0000
0000
0000
,
0000
0000
0000
0300
0010
0100
0010
0000
,
1000
0001
0100
0010
0100
0000
0010
0010
,
0100
0000
0001
0001
1000
0000
0010
0100
,
0020
0000
0130
0001
0100
0000
0020
0000
,
1030
0001
1000
0001
1000
0000
1001
0000
,
0010
0000
0101
0000
0010
0000
1000
0010
,
0001
0000
1000
0100
0001
0000
0110
0000
,
0020
0000
1030
0001
1000
0000
0010
0100
,
0010
0100
0010
0100
0020
0000
1030
0001
,
0100
0000
0010
1000
0100
0000
0010
0001
,
1000
0000
0100
0010
0001
1000
0001
0000
,
0100
0010
0100
0000
0001
1000
0010
0000
,
0100
0010
1000
0000
0010
0100
0010
0000
,
1000
0001
1000
0000
0001
0100
0001
0000
,
1000
0100
0010
0001
0002
0000
0003
0001
,
0200
0000
0300
0100
0020
0000
0030
0010
,
0200
0000
0000
0300
0010
1000
0001
0000
,
0100
0001
1000
0000
0010
0100
0010
0000
,
0100
0010
1000
0100
0020
0000
0031
1000
,
0020
0000
0000
0000
0130
0000
0001
0000
0000
0100
0000
0000
0010
0000
1000
0000
,
0000
0010
0000
0000
0100
0000
0010
0000
1000
0000
0000
0000
0001
0000
0100
0000
,
0010
0000
1000
0100
0010
0000
0100
0010
,
0001
0000
1000
0001
0010
0001
1000
0000
,
0100
0010
0100
0000
0010
0001
1000
0000
,
0100
0010
0100
0010
0200
0000
0000
0300
,
1001
0010
0100
0010
,
2002
3003
0010
0000
0100
0000
0001
0000
,
0202
0303
1000
0000
0010
0000
0100
0000
,
0220
0330
0001
0000
0100
0010
0100
0000
,
0010
0101
0010
1100
,
0010
0110
0001
1001
,
0100
0110
0001
0101
,
0010
0000
0100
0000
0001
1000
0001
0000
2002
0000
0000
0000
0000
0000
0000
0000
,
0000
0000
0000
0000
,
0000
0000
0000
0000
,
3003
0000
0000
0000
;

//---------------dance-single - ----------------
#NOTES:
     dance-single:
     :
     Easy:
     7:
     0.432520,0.525477,0.420065,0.697466,0.000000,241.000000,53.000000,88.000000,0.000000,0.000000,0.000000,0.432520,0.525477,0.420065,0.697466,0.000000,241.000000,53.000000,88.000000,0.000000,0.000000,0.000000:
0000
0000
0000
0000
,
0000
0000
0000
0000
,
0000
0000
0000
0000
,
0000
0000
0000
0000
,
0000
0000
0000
0000
,
0000
0000
1000
0001
,
0100
0001
0100
0010
,
0100
0000
0001
0000
1000
0001
1000
0001
,
0000
0110
0000
1000
,
0010
0000
0010
1000
,
0001
0000
1000
0000
0010
0100
0000
0000
,
0002
0003
0100
0100
,
0010
0100
0020
0230
,
0300
0020
0030
0001
,
0001
1000
1000
0020
,
0030
0200
0300
0010
,
0000
1001
0020
0000
,
0030
0100
0010
0010
,
1000
0001
0200
0300
,
0020
0030
0200
0310
,
0000
1001
0000
0110
,
0000
1010
0000
1010
,
0000
0101
0000
2000
,
3000
0002
0203
0000
,
0000
0310
0100
0010
,
0100
0100
0100
1001
,
0000
0101
0000
1010
,
0100
0100
0100
0110
,
0000
1001
0010
0010
,
0100
0100
0000
1010
,
0000
1001
0000
0110
,
0100
0100
0001
0001
,
0100
0200
0300
2000
,
3010
0010
0100
0001
,
0001
0001
2000
0000
,
3020
0000
0130
0000
,
0001
2000
3002
1003
,
2000
3001
0100
0100
,
0001
0001
0020
0000
,
0230
0300
1000
1000
,
0010
0010
0200
0000
,
0320
0000
0130
1001
,
0000
0110
0000
1010
,
0000
0101
0000
1010
,
0000
0011
0000
1100
,
0000
1001
0000
0110
,
0000
0011
0000
1100
,
0000
0101
0000
1010
,
0000
0110
0000
0101
,
0000
1010
2000
3000
,
0002
0003
0200
0300
,
0020
0030
2000
3000
,
0200
0300
0020
0030
,
0002
0003
2000
3000
,
0002
0003
0200
0300
,
0020
0030
2000
3000
,
0020
0030
0200
0300
,
0002
0003
2000
3000
,
2002
3003
0000
0000
0000
0000
1000
0000
,
2020
3030
0000
0000
0000
0000
0100
0000
,
0202
0303
0000
0000
0000
0000
1000
0000
,
2200
3300
0000
0000
0000
0000
0010
0000
,
2002
3003
0000
0000
0000
0000
1000
0000
,
2002
3003
0000
0000
0000
0000
2002
0000
,
0000
0000
0000
0000
,
0000
0000
0000
3003
0020
0000
0000
0000
,
0000
0000
0000
0000
,
0000
0000
0000
0030
0100
0000
0100
0000
,
0001
0100
0200
0000
,
0302
0003
2000
3001
,
0001
1000
0020
0030
,
0200
0000
0300
1001
,
0000
1010
0000
0200
,
0300
0020
0030
0110
,
0000
1001
0000
0100
,
0100
0100
0200
0300
,
0010
0000
0010
0000
,
0010
0000
1000
1000
,
0020
0000
2030
0000
,
3002
0000
0023
0000
,
1030
0001
1000
0001
,
1000
0001
2000
3000
,
0020
0030
0200
0300
,
0020
0000
0000
0030
0100
0000
0100
0000
,
0001
0001
1000
1000
,
0010
0010
0200
0300
,
0200
0300
0020
0000
,
0000
0030
0001
1000
,
0001
1000
0001
1000
,
0001
1000
0020
0000
,
0230
0000
0302
0000
,
2003
0000
0000
0000
3020
0000
0000
0030
,
1001
0000
0000
0100
,
2002
3003
0000
0000
0000
0000
1000
0000
,
2020
3030
0000
0000
0000
0000
0010
0000
,
0220
0330
0000
0000
0010
0000
0010
0000
,
0100
1010
0000
0011
,
0000
0110
0000
1001
,
0000
0110
0000
1010
,
0010
0000
0000
1000
2002
0000
0000
0000
,
0000
0000
0000
0000
,
0000
0000
0000
0000
,
3003
0000
0000
0000
;

//---------------dance-single - ----------------
#NOTES:
     dance-single:
     :
     Beginner:
     4:
     0.290988,0.323371,0.174367,0.554803,0.000000,165.000000,22.000000,70.000000,0.000000,0.000000,0.000000,0.290988,0.323371,0.174367,0.554803,0.000000,165.000000,22.000000,70.000000,0.000000,0.000000,0.000000:
0000
0000
0000
0000
,
0000
0000
0000
0000
,
0000
0000
0000
0000
,
0000
0000
0000
0000
,
0000
0000
0000
0000
,
0000
0000
0001
0000
,
0010
0000
0010
0000
,
0010
0000
0000
0000
0020
0000
0000
0030
,
0000
0100
0000
0000
,
0000
0000
0100
0000
,
0001
0000
0100
0000
,
2000
3000
0010
0000
,
0100
0000
0200
0300
,
0000
0200
0300
1000
,
0000
0001
0000
0200
,
0300
0020
0030
0000
,
0000
0100
0200
0000
,
0300
0000
0100
0000
,
0001
0000
0020
0030
,
0200
0300
0020
0030
,
0000
0100
0000
0110
,
0000
0001
0000
0101
,
0000
1000
0000
0002
,
0003
2000
0000
0000
,
0000
3100
0000
0010
,
0000
0010
0000
1001
,
0000
0010
0000
0101
,
0000
0010
0000
0110
,
0000
0001
0100
0000
,
0010
0000
0000
0101
,
0000
1000
0000
0101
,
0000
0010
0000
1000
,
0000
0020
0030
0200
,
0300
0100
0000
1000
,
0000
0002
0000
0000
,
0203
0000
0310
0000
,
0000
0002
2003
3000
,
0020
0030
0010
0000
,
0100
0000
0200
0000
,
0320
0030
0100
0000
,
0010
0000
0020
0000
,
0230
0000
0310
0000
,
0000
0110
0000
0100
,
0000
1010
0000
0100
,
0000
1100
0000
0001
,
0000
1001
0000
0010
,
0000
1100
0000
0001
,
0000
1010
0000
0001
,
0000
0110
0000
0010
,
0000
0101
0002
0003
,
2000
3000
0020
0030
,
0200
0300
0002
0003
,
0020
0030
0200
0300
,
2000
3000
0002
0003
,
2000
3000
0020
0030
,
0200
0300
0002
0003
,
0200
0300
0020
0030
,
2000
3000
0002
0003
,
1000
0000
0000
0000
,
0002
0003
0000
0000
0000
0000
0000
0000
,
2000
3000
0000
0000
0000
0000
0000
0000
,
0002
0003
0000
0000
0000
0000
0000
0000
,
2000
3000
0000
0000
0000
0000
0000
0000
,
0200
0300
0000
0000
0000
0000
2002
0000
,
0000
0000
0000
0000
,
0000
0000
0000
3003
0200
0000
0000
0000
,
0000
0000
0000
0000
,
0000
0000
0000
0300
0010
0000
0000
0000
,
0100
0000
0020
0000
,
2030
3000
0001
0000
,
1000
0000
0100
0000
,
0020
0000
0030
1001
,
0000
0100
0000
0010
,
0000
0100
0000
0010
,
0000
1001
0000
0010
,
0000
0010
0000
0000
,
0100
0000
0100
0000
,
0100
0000
0001
0000
,
0200
0000
0302
0000
,
2003
0000
3200
0000
,
0310
0000
0001
0000
,
1000
0000
0001
0000
,
0100
0000
0020
0030
,
0200
0000
0000
0300
0010
0000
0000
0000
,
1000
0000
0001
0000
,
0100
0000
0020
0030
,
0020
0030
0200
0000
,
0000
0300
1000
0000
,
0001
0000
1000
0000
,
0001
0000
0200
0000
,
0320
0000
2030
0000
,
3002
0000
0000
0000
0203
0000
0000
0300
,
0000
0000
0000
0000
,
2000
3000
0000
0000
0000
0000
0000
0000
,
0002
0003
0000
0000
0000
0000
0000
0000
,
0200
0300
0000
0000
0010
0000
0000
0000
,
0000
1001
0000
0100
,
0000
0110
0000
1000
,
0000
0101
0000
0100
,
0000
0000
2002
0000
,
0000
0000
0000
0000
,
0000
0000
0000
0000
,
3003
0000
0000
0000
;
