#TITLE:Crumble Soul;
#SUBTITLE:;
#ARTIST:lapix;
#TITLETRANSLIT:;
#SUBTITLETRANSLIT:;
#ARTISTTRANSLIT:;
#GENRE:;
#CREDIT:;
#BANNER:crumble soul-bn.png;
#BACKGROUND:;
#LYRICSPATH:;
#CDTITLE:;
#MUSIC:Crumble Soul.mp3;
#OFFSET:-0.150000;
#SAMPLESTART:24.848459;
#SAMPLELENGTH:12.000000;
#SELECTABLE:YES;
#BPMS:0.000000=170.000000
;
#STOPS:
;
#BGCHANGES:;
#KEYSOUNDS:;
#ATTACKS:;

//---------------dance-single - ----------------
#NOTES:
     dance-single:
     :
     Hard:
     15:
     0.736667,1.027117,0.457835,0.184740,0.417674,642.000000,585.000000,57.000000,23.000000,0.000000,0.000000,0.736667,1.027117,0.457835,0.184740,0.417674,642.000000,585.000000,57.000000,23.000000,0.000000,0.000000:
// measure 0
0000
0000
0000
0000
,  // measure 1
0000
0000
0000
0000
,  // measure 2
0000
0000
1001
0110
,  // measure 3
0101
0000
1010
0000
1000
0010
0001
0010
,  // measure 4
1000
1100
0110
0011
,  // measure 5
0001
0010
1000
0000
1010
0000
0011
0000
,  // measure 6
0101
0000
1100
0000
1000
0100
0001
0100
,  // measure 7
0020
0000
0000
0130
0001
0010
0200
0000
,  // measure 8
1000
0000
1300
0001
0011
0000
0110
0000
,  // measure 9
1100
0000
1001
0000
1000
0100
0001
0100
,  // measure 10
1000
1010
0101
0011
,  // measure 11
0001
0100
1000
0000
1100
0000
0101
0000
,  // measure 12
0110
0000
1010
0000
1000
0001
1000
0100
,  // measure 13
0020
0000
0000
0000
0000
0000
0000
0000
0000
0000
0000
0000
0130
0010
0100
0010
,  // measure 14
0100
0010
0100
0010
0100
0010
0100
0010
0100
0000
0000
0000
1000
0000
0001
0000
,  // measure 15
1000
0000
0010
0000
1001
0000
1000
0010
,  // measure 16
1000
0001
0100
0000
0001
0010
0100
0000
,  // measure 17
1000
0000
0010
0000
0100
0000
0001
1000
,  // measure 18
0100
0000
0010
0000
0011
0000
0001
1000
,  // measure 19
0100
0010
0001
0000
0001
1000
0100
0000
,  // measure 20
1000
0001
1000
0001
1000
0001
1000
0001
1000
0000
0000
0000
0010
0000
0100
0000
,  // measure 21
0001
0000
1000
0000
1100
0000
0010
0001
,  // measure 22
1000
0100
0010
0000
0001
1000
0001
0000
,  // measure 23
1000
0000
0010
0100
0001
0000
1000
0000
,  // measure 24
1010
0000
0010
0000
1001
0000
0010
0100
,  // measure 25
0010
0000
0000
0000
1000
0000
0000
0000
0010
0000
0000
0000
1000
0001
1000
0001
,  // measure 26
0100
0010
0100
0010
0100
0010
0100
0010
0100
0000
0001
0000
1000
0000
0001
0000
,  // measure 27
1000
0100
1000
0100
0010
0001
0010
0001
,  // measure 28
0100
0010
0100
0010
1000
0010
1000
0001
,  // measure 29
0100
0000
1000
0000
0100
0001
0100
0001
0010
0000
1000
0000
0010
0000
0001
0000
,  // measure 30
0100
0010
1000
0010
0100
0001
0010
0100
,  // measure 31
1000
0001
0010
0100
1000
0100
0001
0100
,  // measure 32
1000
0010
0001
0010
1000
0010
0100
0001
,  // measure 33
0010
0100
0001
0100
0010
0001
1000
0010
,  // measure 34
0100
1000
0100
0010
1000
0001
0010
0100
,  // measure 35
1000
0000
0001
0000
0010
0001
0010
0001
1000
0000
0100
0000
1000
0000
0010
0000
,  // measure 36
0100
0010
1000
0001
0010
0100
0010
0001
,  // measure 37
1000
0100
1000
0010
0100
1000
0100
0001
,  // measure 38
0010
0100
0010
0001
2000
0000
3200
0000
,  // measure 39
0310
0001
0000
0001
1000
0000
2000
0000
,  // measure 40
0000
0000
0000
0000
0000
0000
3001
0100
0001
0000
0000
0010
0000
0000
0010
0000
,  // measure 41
0000
0000
0100
1000
0001
0000
0200
0000
,  // measure 42
0000
0000
0000
0000
0302
0013
0002
0103
,  // measure 43
0020
1030
0020
0130
0002
0013
0002
1003
,  // measure 44
0200
1300
0020
0031
1000
0100
0001
0010
,  // measure 45
1000
0010
0001
0100
2000
0000
0000
0000
,  // measure 46
0000
0000
0100
0000
3100
0000
0001
0000
1001
0000
0000
0010
1000
0000
0001
0000
,  // measure 47
0010
0000
0100
0000
1000
0100
0010
0001
1000
0000
0000
0100
0010
0000
0001
0000
,  // measure 48
1000
0000
0100
0000
1000
0000
0010
0000
0101
0000
0000
0001
1000
0000
0100
0000
,  // measure 49
1000
0000
0010
0000
0100
0000
0001
0000
1010
0000
0000
1000
0001
0000
0100
0000
,  // measure 50
0010
0000
1000
0000
0001
0000
1000
0000
0101
0000
0000
0100
0001
0000
1000
0000
,  // measure 51
0100
0000
0010
0000
0001
0010
0100
1000
0001
0000
0000
0010
0100
0000
1000
0000
,  // measure 52
0001
0000
0010
0000
0001
0000
0100
0000
1010
0000
0000
1000
0001
0000
0010
0000
,  // measure 53
0001
0000
0100
0000
0010
0000
1000
0000
0001
0100
0001
0100
0010
0000
1000
0000
,  // measure 54
0100
0000
0010
0000
0001
0000
1000
0000
1010
0000
0000
0001
1000
0000
0001
0000
,  // measure 55
0100
0000
0001
0001
1000
0010
0100
0000
,  // measure 56
0010
0000
0100
0000
1001
0000
0100
0001
,  // measure 57
1000
0000
0100
0100
0010
0001
1000
0000
,  // measure 58
0001
0010
0210
0000
,  // measure 59
2300
0000
3002
0000
,  // measure 60
0203
0000
0000
0000
0310
0100
0010
0100
,  // measure 61
0001
1000
0001
1000
0001
0100
0001
0100
,  // measure 62
0010
0000
1000
0000
0010
0000
0100
0000
0001
0010
0100
1000
0001
0100
0000
0100
,  // measure 63
0001
0010
0001
1000
0100
0010
0000
0010
0001
1000
0001
0100
0010
1000
0000
1000
,  // measure 64
0100
0010
0001
1000
0001
0010
0000
0010
0100
1000
0100
0010
0001
1000
0000
1000
,  // measure 65
0010
1000
0001
0100
0010
0100
0000
0100
0001
0010
0100
1000
0001
0010
0100
1000
,  // measure 66
0001
0010
0100
1000
0001
0010
0100
0000
1000
0100
0010
0001
1000
0010
0000
0010
,  // measure 67
1000
0100
1000
0001
0010
0100
0000
0100
1000
0001
1000
0010
0100
0001
0000
0001
,  // measure 68
0010
0100
1000
0001
1000
0100
0000
0100
0010
0001
0010
0100
1000
0001
0000
0001
,  // measure 69
0100
0001
1000
0010
0100
0010
0000
0010
1000
0100
0010
0001
1000
0100
0010
0001
,  // measure 70
1000
0100
0010
0001
1000
0100
0010
0000
1001
0000
0000
0000
0110
0000
0000
0000
,  // measure 71
1010
0000
0101
0000
0001
0100
1000
0100
,  // measure 72
0001
0011
0110
1100
,  // measure 73
1000
0100
0001
0000
0101
0000
1100
0000
,  // measure 74
1010
0000
0011
0000
0001
0010
1000
0010
,  // measure 75
0200
0000
0000
0310
1000
0100
0020
0000
,  // measure 76
0001
0000
0031
1000
1100
0000
0110
0000
,  // measure 77
0011
0000
1001
0000
0001
0010
1000
0010
,  // measure 78
0001
0101
1010
1100
,  // measure 79
1000
0010
0001
0000
0011
0000
1010
0000
,  // measure 80
0110
0000
0101
0000
0001
1000
0001
0010
,  // measure 81
0200
0000
0000
0000
0010
0000
0000
0000
0010
0000
0000
0000
1300
0001
1000
0001
,  // measure 82
1000
0001
1000
0001
1000
0001
1000
0001
1000
0000
0000
0000
0000
0000
0000
0000
;

//---------------dance-single - ----------------
#NOTES:
     dance-single:
     :
     Medium:
     12:
     0.503733,0.563258,0.064258,0.192773,0.000000,439.000000,431.000000,8.000000,24.000000,0.000000,0.000000,0.503733,0.563258,0.064258,0.192773,0.000000,439.000000,431.000000,8.000000,24.000000,0.000000,0.000000:
0000
0000
0000
0000
,
0000
0000
0000
0000
,
0000
0000
0100
0001
,
1000
0000
1010
0000
0010
1000
0001
1000
,
0001
1000
0100
0010
,
0001
0010
0001
0000
0010
0000
0100
0000
,
1000
0000
1100
0000
0100
0010
0001
1000
,
0002
0000
0000
1003
0001
1000
0020
0000
,
0130
0000
0010
1000
0001
0000
0100
0000
,
0010
0000
0101
0000
0001
1000
0001
1000
,
0010
1000
0100
0010
,
0001
1000
0001
0000
1000
0000
0010
0000
,
0100
0000
0001
0000
1000
0010
0100
0001
,
2000
0000
0000
0000
0000
0000
3001
0100
,
0001
0100
0001
0100
0001
0000
1000
0001
,
1000
0000
0010
0000
0100
0000
0001
1000
,
0001
0010
0100
0000
1000
0100
1000
0000
,
0010
0000
0100
0000
0001
0000
0100
0010
,
0100
0000
0010
0000
1000
0000
0001
1000
,
0001
1000
0100
0000
0010
0001
0010
0000
,
0100
1000
0100
1000
0100
0000
1000
0001
,
1000
0000
0001
0000
1000
0000
0001
0010
,
0100
0010
0001
0000
1000
0010
1000
0000
,
0010
0000
0100
0010
1000
0000
0001
0000
,
1000
0000
0100
0000
0010
0000
0001
0010
,
0100
1000
0001
0020
,
0230
0000
2300
0000
3001
1000
0001
1000
,
0001
0000
1000
0100
0010
0001
0010
0000
,
0100
1000
0100
0000
0010
0001
0010
0000
,
0001
1000
0001
1000
0100
0000
1000
0010
,
1000
0010
0100
0000
0010
0100
0010
0000
,
0100
0001
0100
0000
1000
0010
1000
0010
,
1000
0000
0001
0100
0001
0100
0001
0000
,
1000
0100
1000
0000
0001
0100
0001
0000
,
1000
0010
1000
0010
0100
0000
0001
1000
,
0100
0000
0010
0001
1000
0000
0001
0010
,
0100
1000
0100
0010
0001
0100
0010
0100
,
0001
0010
0001
1000
0100
1000
0001
0010
,
0001
1000
0100
1000
0002
0000
0203
0000
,
0310
2000
0000
3001
0020
0000
0230
0000
,
0000
0000
0000
0301
1000
0001
0000
0100
,
0000
0000
0010
1000
0010
0000
2000
0000
,
0000
0000
3001
0010
,
0100
1000
0001
0100
,
0010
0000
1000
0000
0001
0010
0100
1000
,
0010
0100
0010
1000
0002
0000
0000
0000
,
0000
0000
0000
0003
1001
0000
1000
0001
,
0010
0000
0100
1000
0001
0000
0010
0001
,
1000
0000
0010
0100
0001
0000
1000
0010
,
0100
0000
0001
1000
0100
0000
1000
0100
,
0010
0000
0001
0010
1001
0000
0001
1000
,
0100
0000
0010
0001
1000
0000
0100
1000
,
0001
0000
0100
0010
1000
0000
0001
0100
,
0010
0000
1000
0001
0020
0000
0230
0000
,
2300
0000
3002
0000
0103
0000
0010
1000
,
0001
0000
1000
0100
0010
0001
1000
0000
,
0010
0000
1000
0000
0100
0000
0010
0001
,
0010
0000
0100
1000
0010
1000
0001
0000
,
0100
0010
0200
0000
,
0320
0000
2030
0000
,
3002
0000
0000
0000
0013
0100
0010
0100
,
0000
0001
1000
0001
0000
0100
0001
0100
,
0000
0010
1000
0001
1000
0100
0001
0000
,
0001
0100
1000
0000
0001
0100
1000
0000
,
1000
0100
0001
0000
0001
0010
0100
0000
,
0010
0100
1000
0000
0001
0100
1000
0100
,
0001
0100
1000
0100
0001
0010
1000
0000
,
1000
0010
0001
0000
1000
0010
0001
0000
,
0001
0010
1000
0000
1000
0100
0010
0000
,
0100
0010
0001
0000
1000
0010
0001
0010
,
1000
0010
0001
0010
1000
0000
1000
0000
,
0001
0000
0101
0000
0100
0001
1000
0001
,
1000
0001
0010
0100
,
1000
0100
1000
0000
0100
0000
0010
0000
,
0001
0000
0011
0000
0010
0100
1000
0001
,
2000
0000
0000
3001
1000
0001
0200
0000
,
0310
0000
0100
0001
1000
0000
0010
0000
,
0100
0000
1010
0000
1000
0001
1000
0001
,
0100
0001
0010
0100
,
1000
0001
1000
0000
0001
0000
0100
0000
,
0010
0000
1000
0000
0001
0100
0010
1000
,
0002
0000
0000
0003
,
0000
0000
1000
0000
;

//---------------dance-single - ----------------
#NOTES:
     dance-single:
     :
     Easy:
     6:
     0.271947,0.331328,0.008032,0.152612,0.000000,237.000000,236.000000,1.000000,19.000000,0.000000,0.000000,0.271947,0.331328,0.008032,0.152612,0.000000,237.000000,236.000000,1.000000,19.000000,0.000000,0.000000:
0000
0000
0000
0000
,
0000
0000
0000
0000
,
0000
0000
0100
0000
,
1000
0000
0001
0001
,
0001
0000
0100
0000
,
0001
0000
0010
0000
,
1000
0000
0100
0100
,
0100
0000
0001
0000
,
0100
0000
0001
1000
,
0000
0100
0100
0100
,
0010
0000
0001
0000
,
1000
0000
0001
0000
,
0100
0000
0010
0000
,
1000
0000
0000
0002
,
0000
0000
1003
1000
,
0000
0010
0000
0001
,
0000
0100
0000
1000
,
0000
0100
0000
0100
,
0000
0010
0000
0001
,
0000
0100
0000
0010
,
0000
0100
0000
1000
,
0000
0001
0000
1000
,
0000
0001
0000
1000
,
0000
0100
0000
0001
,
0000
0100
0000
0001
,
0000
1000
0001
2000
,
0000
0000
3001
1000
,
0001
1000
0010
0100
,
0010
0100
0010
1000
,
0010
1000
0001
0100
,
0001
0100
0001
0010
,
0001
0010
0100
1000
,
0100
1000
0001
1000
,
0001
1000
0010
0100
,
0010
0100
0001
0100
,
0001
0100
0010
0100
,
0010
1000
0100
1000
,
0100
1000
0100
0010
,
0001
0010
0002
0000
,
2003
0000
3010
0020
,
0000
0000
0000
0030
0100
0000
0000
0100
,
0000
0001
0001
2000
,
0000
0000
3001
0010
,
0100
1000
0001
0100
,
0010
1000
0020
0000
,
0230
0000
0302
0000
,
0000
0000
0000
0003
0110
0000
0000
0010
,
0010
0000
1000
0000
0001
0000
0000
1000
,
1000
0000
0010
0000
0001
0000
0000
0100
,
0100
0000
0001
0000
1000
0000
0000
0001
,
0001
0000
1000
0000
0001
0000
0000
0100
,
0100
0000
0010
0000
1000
0000
0000
0001
,
0001
0000
1000
0000
0100
0000
0000
0010
,
0010
0002
0023
0230
,
2300
0000
3002
0000
0103
0000
0000
1000
,
0001
0000
0010
1000
,
0001
0000
1000
0000
0100
0000
0000
0010
,
0001
1000
0100
1000
,
0010
0100
0200
0000
,
0302
0000
0023
0000
,
0230
0000
0000
0000
1300
0000
0000
0001
,
0000
0000
1000
0000
0000
0010
0000
0000
,
1000
1000
0001
0010
,
0100
1000
0100
0010
,
0001
1000
0010
1000
,
0010
1000
0001
1000
,
0001
1000
0001
1000
,
0001
0010
0001
0010
,
0001
0010
0001
0100
,
0010
0100
0010
1000
,
0001
1000
0010
0000
,
0001
0000
1000
1000
,
1000
0000
0010
0000
,
1000
0000
0100
0000
,
0001
0000
0010
0010
,
0010
0000
1000
0000
,
0010
0000
1000
0000
,
0100
0000
0001
0001
,
0001
0000
0010
0000
,
1000
0000
0001
0000
,
0010
0000
0001
1000
,
0002
0000
0000
0003
,
0000
0000
1000
0000
;

//---------------dance-single - ----------------
#NOTES:
     dance-single:
     :
     Beginner:
     2:
     0.172118,0.164158,0.000000,0.112451,0.000000,150.000000,150.000000,0.000000,14.000000,0.000000,0.000000,0.172118,0.164158,0.000000,0.112451,0.000000,150.000000,150.000000,0.000000,14.000000,0.000000,0.000000:
0000
0000
0000
0000
,
0000
0000
0000
0000
,
0000
0000
0010
0000
,
0001
0000
1000
0000
,
1000
0000
0010
0000
,
1000
0000
0100
0000
,
0001
0000
0010
0000
,
0010
0000
1000
0000
,
0010
0000
1000
0001
,
0000
0010
0000
0010
,
0000
0000
1000
0000
,
0001
0000
1000
0000
,
0010
0000
0100
0000
,
0001
0000
0000
2000
,
0000
0000
3001
0000
,
0000
0100
0000
1000
,
0000
0010
0000
0001
,
0000
0010
0000
0010
,
0000
0100
0000
1000
,
0000
0010
0000
0100
,
0000
0010
0000
0001
,
0000
1000
0000
0001
,
0000
1000
0000
0001
,
0000
0010
0000
1000
,
0000
0010
0000
1000
,
0000
0001
0000
0002
,
0000
0000
1003
0000
,
1000
0000
0100
0000
,
0100
0000
0100
0000
,
0100
0000
1000
0000
,
1000
0000
1000
0000
,
1000
0000
0010
0000
,
0010
0000
1000
0000
,
1000
0000
0100
0000
,
0100
0000
1000
0000
,
1000
0000
0100
0000
,
0100
0000
0010
0000
,
0010
0000
0010
0000
,
1000
0000
2000
0000
,
3002
0000
0003
0200
,
0000
0000
0000
0300
0010
0000
0000
0000
,
0000
1000
0000
0002
,
0000
0000
1003
0000
,
0010
0000
1000
0000
,
0100
0000
0200
0000
,
0320
0000
2030
0000
,
0000
0000
0000
3000
0010
0000
0000
0100
,
0000
0000
0001
0000
0000
0000
0000
0001
,
0000
0000
0000
0000
1000
0000
0000
0010
,
0000
1000
0000
0000
,
1000
0000
1000
0000
,
0010
0000
0001
0000
,
1000
0000
0010
0000
,
0100
0000
0200
0300
,
0002
0003
0010
0000
,
1000
0000
0100
0000
,
1000
0000
0010
0000
,
1000
0000
0010
0000
,
0100
0000
0020
0000
,
0030
0000
0200
0000
,
0300
0000
0001
0000
,
0000
0001
0000
0000
,
0001
0000
1000
0000
,
0010
0000
0010
0000
,
1000
0000
0010
0000
,
0100
0000
1000
0000
,
0001
0000
1000
0000
,
0001
0000
1000
0000
,
0001
0000
1000
0000
,
0001
0000
0100
0000
,
1000
0000
0100
0000
,
1000
0000
0001
0000
,
0001
0000
0100
0000
,
0001
0000
0010
0000
,
1000
0000
0100
0000
,
0100
0000
0001
0000
,
0100
0000
0001
0000
,
0010
0000
1000
0000
,
1000
0000
0100
0000
,
0001
0000
1000
0000
,
0100
0000
1000
0000
,
2000
0000
0000
3000
;
