#VERSION:0.83;
#TITLE:Conflict;
#SUBTITLE:(VILA Remix);
#ARTIST:siromaru + cranky;
#TITLETRANSLIT:;
#SUBTITLETRANSLIT:;
#ARTISTTRANSLIT:;
#GENRE:;
#ORIGIN:;
#CREDIT:;
#BANNER:;
#BACKGROUND:Conflict (VILA Remix)-bg.png;
#PREVIEWVID:;
#JACKET:Conflict (VILA Remix)-jacket.png;
#CDIMAGE:;
#DISCIMAGE:;
#LYRICSPATH:;
#CDTITLE:;
#MUSIC:Conflict (VILA Remix).mp3;
#OFFSET:-0.070000;
#SAMPLESTART:103.368553;
#SAMPLELENGTH:12.000000;
#SELECTABLE:YES;
#BPMS:0.000=160.000;
#STOPS:;
#DELAYS:;
#WARPS:;
#TIMESIGNATURES:0.000=4=4;
#TICKCOUNTS:0.000=4;
#COMBOS:0.000=1;
#SPEEDS:0.000=1.000=0.000=0;
#SCROLLS:0.000=1.000;
#FAKES:;
#LABELS:0.000=Song Start;
#BGCHANGES:;
#KEYSOUNDS:;
#ATTACKS:
;

//---------------dance-single - ----------------
#NOTEDATA:;
#CHARTNAME:;
#STEPSTYPE:dance-single;
#DESCRIPTION:;
#CHARTSTYLE:;
#DIFFICULTY:Hard;
#METER:15;
#RADARVALUES:0.718948,0.880907,0.296957,0.119825,0.557446,966.000000,909.000000,57.000000,23.000000,0.000000,0.000000,0.000000,0.000000,0.000000,0.718948,0.880907,0.296957,0.119825,0.557446,966.000000,909.000000,57.000000,23.000000,0.000000,0.000000,0.000000,0.000000,0.000000;
#CREDIT:;
#NOTES:
0000
0000
0000
0000
,
0000
0000
0000
0000
,
0000
0000
0000
0000
,
0000
0000
0000
0000
,
0000
0000
0000
0100
,
0000
0000
0010
0000
,
0000
1000
0001
0010
,
0100
0010
0100
1000
,
0010
0100
0001
0010
,
0100
1000
0010
0100
,
0010
0100
0001
1000
,
0001
0100
0010
0100
,
0000
0001
1000
0100
,
0010
0100
1000
0010
,
0100
0001
0100
0000
,
0001
0010
0100
1000
,
0010
0000
0100
0000
0000
0001
1000
0000
,
0100
0010
0001
1000
,
0100
0110
0010
0001
,
1000
0000
0000
0001
,
0000
0000
0000
0000
1000
0000
0000
0010
,
0100
0001
1000
0010
,
0100
0000
0000
0001
1000
0000
1100
0000
,
0100
0010
0011
0001
,
1000
1001
0001
0100
,
0110
0000
0010
1000
0001
0000
1000
0000
,
0100
0010
0001
1000
0001
0000
1001
0000
,
1000
0000
0100
0000
0010
0001
0010
0100
,
0110
0010
0001
1000
,
0010
0000
0100
0001
1000
0000
0010
0000
,
0100
0010
0100
0000
0001
0000
1000
0100
,
1000
0000
0100
0000
0010
0001
0010
0000
,
0200
0000
0000
0000
,
0000
0000
2000
0000
,
0000
0000
0000
0000
0000
0000
0000
0300
,
0002
0000
0000
0000
,
0000
0000
0000
3000
0100
0000
0103
0000
,
1001
0000
0000
0000
1000
0000
0100
0010
0100
0000
0000
0000
0010
0000
0000
0000
,
0100
1000
0100
0000
0010
0001
1000
0001
,
0020
0000
0230
0000
1300
0010
0100
0001
,
0100
0000
0000
0001
1000
0000
0000
0000
0000
0000
0000
0000
1100
0000
0000
0000
,
0011
0000
1001
0000
1000
0010
0100
0001
,
0010
0000
0000
0001
1000
0000
0000
0000
0010
0000
0000
0000
0100
0000
0000
0100
,
0001
2000
3200
0320
,
0032
0000
0003
0010
0100
0000
0000
0100
1000
0000
0000
1000
0001
0000
1000
0000
,
1001
0000
0001
0000
0010
0000
0001
1000
0001
0000
0100
0000
0010
0000
0100
0010
,
0100
0000
0001
0000
0010
0000
0100
1000
0100
0000
1000
0000
1010
0000
0000
0000
,
0101
0001
1000
0010
0100
0001
0010
0100
,
1000
0000
0100
0000
0010
0000
0000
0000
0011
0000
0000
0000
0001
0000
0000
1000
,
0100
0000
0000
0000
1001
0000
0000
1000
0010
0000
0000
0000
0110
0000
0000
0100
,
0001
0000
0000
0000
0101
0000
0000
0100
0010
0000
0000
0000
1010
0000
0000
1000
,
0200
0000
0000
0000
0310
0000
0000
0010
0002
0000
0000
0000
1003
0000
0000
0001
,
1000
0001
1000
0001
1000
0010
0100
0010
0100
0010
0000
0000
,
1000
0100
1000
0001
0100
0001
1000
0100
,
0010
0100
1000
0010
0100
0001
1000
0100
,
0010
0001
0010
0100
1000
0000
0010
0100
0001
1000
0010
0000
1000
0100
0010
0001
,
1000
0100
0010
0001
1000
0010
0100
0001
,
1000
0010
1000
0001
0100
0001
0100
1000
,
0100
0010
0100
0000
0001
1000
0001
0000
1000
0010
1000
0000
0001
0000
0010
0000
,
0100
1000
0100
0010
0001
0000
1000
0010
0100
0001
1000
0000
0001
0010
0100
1000
,
0001
0000
0010
0000
0100
0000
1000
0000
0010
1000
0001
1000
0100
0000
0100
0000
,
1000
1000
0010
0010
0100
0101
0001
1000
,
0001
1001
1000
0100
0010
0001
0010
0001
,
1000
0001
0100
0001
1000
0000
0010
0100
0001
0100
0010
0000
1000
0010
0100
0010
,
1000
0001
0010
0100
1000
0100
0010
0001
,
0010
0010
0100
0100
1000
1001
0001
1000
,
0010
0110
0100
0001
1000
0100
1000
0001
,
0100
0010
0100
0010
1000
0000
0100
0010
0100
0010
0001
0000
0100
0010
0100
0010
,
1000
0000
0110
1001
,
1000
0010
1000
0000
0001
0000
0100
0000
0010
0100
0010
0000
1000
0000
0100
0000
,
0010
0001
0010
0000
0100
0000
1000
0000
0001
1000
0001
0000
0100
0000
0010
0000
,
1000
0100
1000
0000
0100
0000
0010
0000
0001
0010
0001
0000
0010
0000
0100
0000
,
1000
0100
0010
0000
0100
0010
0001
0000
1000
0001
0100
0001
0010
0100
1000
0010
,
1000
0001
1000
0000
0010
0000
0100
0000
0010
1000
0010
0000
0100
0000
0010
0000
,
0100
0001
0100
0000
0010
0000
1000
0000
0001
1000
0001
0000
0100
0000
0010
0000
,
1000
0001
1000
0000
0010
0000
0100
0000
0001
0010
0001
0000
1000
0000
0010
0000
,
1000
0100
1000
0100
0010
0001
0010
0001
1000
0010
1000
0010
0100
0001
0100
0001
,
1000
0010
0100
0000
0001
0000
0010
0000
0100
1000
0010
0000
0100
0000
0001
0000
,
0100
0010
1000
0000
0001
0000
0010
0000
0100
1000
0001
0000
0010
0000
0100
0000
,
1000
0100
0010
0000
0001
0000
1000
0000
0010
0100
0001
0000
1000
0000
0010
0000
,
1000
0001
0010
0000
0100
0000
1000
0000
0010
0100
0001
0000
0010
0000
0100
0000
,
1000
0100
0010
0000
0001
0000
1000
0000
0001
1000
0100
0000
0010
0000
0001
0000
,
1000
0100
0010
0000
0001
0000
0100
0000
0010
0100
1000
0000
0100
0000
0001
0000
,
0010
0100
1000
0000
0001
0000
1000
0000
0010
0100
0001
0000
1000
0000
0100
0000
,
0010
0001
1000
0000
0100
0000
0010
0000
0002
0000
0000
0000
0023
0000
0000
0000
,
0130
1000
0010
0000
0100
0001
0010
0000
0100
1000
0001
0000
0100
0010
1000
0000
,
0010
0100
0001
0000
0010
0100
1000
0000
0100
0010
0001
0000
0010
0100
1000
0000
,
0010
0100
0001
0000
1000
0001
0100
0000
0010
1000
0100
0000
0010
0001
1000
0000
,
0001
0100
0000
0010
1000
0000
0001
0100
0000
0010
1000
0000
0001
0000
0100
0000
,
2002
0000
3003
0100
0010
0200
0000
0000
,
0310
0000
0000
0010
0000
0000
0010
0000
2010
0000
0000
0000
0001
0000
3001
0000
,
0100
0001
0100
0001
1000
0000
0010
1000
0010
1000
0001
0000
0010
0100
0010
0100
,
2000
0000
0000
0000
3020
0000
0000
0000
0130
0001
0100
0001
0010
0000
0100
0000
,
1000
0001
1000
0010
0100
0001
0000
0001
,
0010
0100
1000
0100
0010
0000
0001
0000
0001
0000
1000
0000
1001
0000
0000
0000
,
1000
0100
1000
0100
0010
0000
0001
0010
0001
0010
0100
0000
1000
0001
1000
0001
,
0200
0000
0000
0000
0000
0000
0310
1000
0001
0100
0010
1000
0001
0000
0000
0000
,
0011
0000
0000
0110
0000
0000
1100
0000
0000
1010
0000
0000
0110
0000
0000
0101
,
0000
0000
0011
0000
0000
1100
0000
0000
1000
0001
0010
0100
1000
0000
0000
1010
,
0000
0000
0101
0000
0000
0110
0000
0000
1010
0000
0000
1100
0000
0000
0011
0000
,
0000
1001
0000
0000
0001
0010
0100
1000
0001
0010
0000
0000
0010
0001
0000
0000
,
0001
0100
0000
0000
0100
0010
0000
0000
0010
1000
0010
0000
0100
0001
0100
0000
,
0010
1000
0001
0000
0010
0100
1000
0001
0010
0001
1000
0100
1000
0010
0100
0001
,
0100
0010
1000
0000
0000
0000
1001
0000
0000
0110
0000
0000
1010
0000
0000
0101
,
0000
0000
0010
0000
1000
0000
0010
0100
0001
0000
1000
0100
0010
0000
0001
0100
,
0010
0000
1000
0001
0100
0000
0010
1000
0100
0000
0010
0001
1000
0000
0100
0010
,
0001
0000
1000
0000
0100
0000
1000
0001
0010
0000
0100
1000
0010
0000
0100
0001
,
0100
0000
0010
1000
0001
0000
1000
0010
1000
0000
0001
0010
0100
0000
1000
0001
,
1000
0100
0110
0000
0011
0000
0001
0010
,
0100
0000
1000
0000
0001
0000
0000
1000
0100
0000
0000
0000
0110
0000
0000
0000
,
1001
0000
1000
0001
0010
0000
0100
1000
0010
0000
1000
0001
0100
0000
0001
0010
,
0100
0000
1000
0100
0010
0000
0000
0010
0001
0000
0000
0001
0100
0000
0000
0100
,
0010
0000
0010
0000
0100
0000
0010
1000
0001
0000
0010
0100
1000
0000
0100
0010
,
0001
0000
1000
0001
1000
0000
0010
1000
0010
0000
0100
0001
0010
0000
0100
1000
,
0100
0000
0010
0000
0001
0000
0000
0000
1000
0100
1000
0000
0001
0010
0001
0000
,
1000
0010
1000
0000
0001
0100
0001
1000
0100
1000
0010
0100
0001
0010
0001
0010
,
0100
1000
0100
0000
2100
0000
0000
0000
3010
0000
0000
0010
0100
0000
0000
0100
,
0001
0000
0000
0000
0102
0000
0000
0000
0013
0000
0000
0010
0100
0000
0000
0100
,
1000
0000
0000
0000
1001
0000
0001
1000
0001
0000
1000
0000
1100
0000
0100
0010
,
0100
0000
0010
0000
0110
0000
0100
1000
0100
0000
1000
0000
1001
0000
0001
0000
,
0010
1000
0010
0001
0100
1000
0100
0001
,
0010
0000
0100
0000
1000
0000
0010
0000
0100
0000
0010
0000
0100
0000
0001
1000
,
0001
0000
1000
0100
0010
0001
0010
0100
1000
0001
1000
0010
0100
0010
1000
0100
,
1000
0001
0100
0010
0200
0000
0000
0000
0000
0000
0000
0000
0000
0000
0000
0000
,
0000
0000
0000
0000
,
0000
0300
0000
0000
;

//---------------dance-single - ----------------
#NOTEDATA:;
#CHARTNAME:;
#STEPSTYPE:dance-single;
#DESCRIPTION:;
#CHARTSTYLE:;
#DIFFICULTY:Challenge;
#METER:17;
#RADARVALUES:0.832075,1.207169,0.312586,0.349055,0.885661,1118.000000,1058.000000,60.000000,67.000000,0.000000,0.000000,0.000000,0.000000,0.000000,0.832075,1.207169,0.312586,0.349055,0.885661,1118.000000,1058.000000,60.000000,67.000000,0.000000,0.000000,0.000000,0.000000,0.000000;
#CREDIT:;
#NOTES:
// measure 0
0000
0000
0000
0000
,  // measure 1
0000
0000
0000
0000
,  // measure 2
0000
0000
0000
0000
,  // measure 3
0000
0000
0000
0000
,  // measure 4
0000
0000
0000
0002
,  // measure 5
0000
0000
2003
0000
,  // measure 6
0000
3020
0100
1000
,  // measure 7
0230
0010
0001
0320
,  // measure 8
1000
0001
2030
0100
,  // measure 9
0010
3002
0100
1000
,  // measure 10
0023
0001
0100
0032
,  // measure 11
0010
0100
1000
0200
,  // measure 12
0003
0320
1000
0100
,  // measure 13
2030
0100
0001
3200
,  // measure 14
1000
0010
2300
0001
,  // measure 15
0010
3002
0010
1000
,  // measure 16
0203
0000
0010
0000
0000
0001
0302
0000
,  // measure 17
0023
0230
0302
0203
,  // measure 18
1300
1001
0002
0203
,  // measure 19
1300
0000
0000
0200
,  // measure 20
0000
0000
0000
0000
0302
0000
0000
1000
,  // measure 21
1000
0023
0100
0001
,  // measure 22
0230
0000
0000
1000
1000
0000
0320
0000
,  // measure 23
0001
1000
0032
0010
,  // measure 24
0100
2003
0001
0100
,  // measure 25
3001
0000
0010
0001
1000
0000
0200
0000
,  // measure 26
0310
0001
0010
0100
1000
0000
1010
0000
,  // measure 27
0010
0000
0200
0000
0301
0100
0010
1000
,  // measure 28
1100
0100
0010
0002
,  // measure 29
0013
0000
0100
1000
0002
0000
0103
0000
,  // measure 30
0010
1000
0002
0000
0103
0000
0010
1000
,  // measure 31
0002
0000
0103
0000
0001
0010
0100
0000
,  // measure 32
2000
0000
0000
0000
,  // measure 33
0000
0000
0002
0000
,  // measure 34
0000
0000
0000
0000
0000
0000
0000
3000
,  // measure 35
0200
0000
0000
0000
,  // measure 36
0000
0000
0000
0003
0010
0000
0310
0000
,  // measure 37
1001
0000
0000
0000
0010
0000
1000
0001
0100
0000
0000
0000
0010
0000
0000
1000
,  // measure 38
0100
0000
0000
0000
0100
0000
0010
0001
1000
0000
0100
0000
1000
0000
0001
0000
,  // measure 39
0010
0001
1000
0100
1000
0010
0100
0001
,  // measure 40
0010
0000
0000
0010
0100
0000
0000
1000
0001
0000
0000
0100
0010
0000
0000
0100
,  // measure 41
0001
0000
0000
0000
1001
0000
0000
0001
1000
0000
0000
1000
0100
0000
0000
0100
,  // measure 42
0010
0000
0000
0010
0001
0000
0000
0001
0100
0000
0000
0000
0110
0000
0000
0010
,  // measure 43
1000
0000
2020
3030
0202
0303
0220
0330
,  // measure 44
2002
0000
3003
1000
0001
0000
0000
0001
0010
0000
0000
0010
0100
0000
1000
0000
,  // measure 45
1100
0000
0100
0000
0010
0000
0001
0010
0100
0000
1000
0000
0001
0000
1000
0010
,  // measure 46
0100
0000
0001
0000
0010
0000
0001
0100
0010
0000
1000
0000
1100
0000
0000
0000
,  // measure 47
0011
0001
0010
0100
1000
0010
0100
0001
,  // measure 48
0010
0000
0000
0010
0001
0000
0000
0000
0101
0000
0000
0100
0010
0000
0000
1000
,  // measure 49
0100
0000
0000
0010
0001
0000
0000
1000
0010
0000
0000
0100
0001
0000
0000
1000
,  // measure 50
0100
0000
0000
0010
0001
0000
0000
0100
1000
0000
0000
0000
1100
0000
0000
0100
,  // measure 51
0010
0000
0100
0000
0001
0000
0000
0001
1000
0000
0100
0000
0010
0000
0000
0001
,  // measure 52
0100
1000
0100
0001
0010
1000
0010
0001
0100
0010
0000
0000
,  // measure 53
0100
0001
1000
0001
1000
0010
0100
0001
,  // measure 54
0010
0100
1000
0010
0100
0001
1000
0100
,  // measure 55
0010
0001
0010
0001
0100
0000
0010
1000
0010
1000
0001
0000
1000
0100
1000
0100
,  // measure 56
0010
0001
1000
0010
1000
0001
0100
0001
,  // measure 57
0100
0010
1000
0001
0100
0010
1000
0100
,  // measure 58
0010
0001
1000
0000
0001
1000
0100
0000
1000
0001
0100
0000
0010
0000
1000
0000
,  // measure 59
0100
1000
0100
1000
0010
0000
0100
0001
0100
0001
1000
0000
0001
0010
0001
0010
,  // measure 60
0100
0000
1000
0000
0001
0000
0010
0000
0100
1000
0001
0100
0010
0000
0010
0000
,  // measure 61
1000
1100
0001
0101
1000
0110
0100
0010
,  // measure 62
1000
1001
0001
0100
0001
0010
0100
1000
,  // measure 63
0001
0100
0001
0100
0010
0000
1000
0100
1000
0100
0010
0000
0001
1000
0001
1000
,  // measure 64
0010
0100
0001
0010
0100
1000
0010
0001
,  // measure 65
0010
1010
0100
0101
0001
1100
1000
0001
,  // measure 66
0100
0110
0010
1000
0001
0010
1000
0010
,  // measure 67
0001
0010
0100
1000
0100
0000
0100
0010
0001
1000
0010
0000
0010
1000
0001
1000
,  // measure 68
0100
0000
0110
1001
,  // measure 69
0001
0010
0100
0000
1000
0000
0100
0000
0010
0001
1000
0000
0010
0000
0100
0000
,  // measure 70
0001
0100
0010
0000
1000
0000
0100
0000
0010
0001
1000
0000
0100
0000
1000
0000
,  // measure 71
0001
0010
0100
0000
1000
0000
0001
0000
0100
0010
1000
0000
0100
0000
0010
0000
,  // measure 72
0001
0100
0010
1000
0100
0010
0001
0100
0010
1000
0100
0010
0001
1000
0001
0000
,  // measure 73
1000
0010
0100
0001
1000
0000
0001
0000
0010
0001
0010
0001
0100
0000
0010
0000
,  // measure 74
1000
0010
0100
0001
1000
0000
0100
0000
0010
0001
1000
0001
0010
0000
0100
0000
,  // measure 75
1000
0100
0010
0001
1000
0000
0001
0000
1000
0010
0100
0001
0100
0000
0010
0100
,  // measure 76
0001
1000
0100
1000
0001
0010
0001
0100
0010
1000
0100
1000
0010
0100
0001
0000
,  // measure 77
0010
0100
1000
0010
0100
0000
0110
0000
0010
0100
0001
0010
0100
0000
1100
0000
,  // measure 78
1000
0010
0100
0001
1000
0000
1010
0000
0010
0100
0001
0100
0010
0000
0110
0000
,  // measure 79
0100
0010
1000
0100
0010
0000
0011
0000
0001
1000
0010
0100
1000
0000
1100
0000
,  // measure 80
0100
0010
0001
1000
0100
0000
0101
0000
0001
0010
0100
0010
0001
0000
0011
0000
,  // measure 81
0010
0100
1000
0100
0010
0001
1000
0000
0010
0100
0001
1000
0001
0010
0100
0000
,  // measure 82
1000
0100
0010
0001
1000
0010
0100
0000
0010
1000
0001
0010
0100
1000
0100
0000
,  // measure 83
0010
0001
0010
0100
1000
0010
0100
0000
0001
0010
0100
1000
0010
0100
0010
0000
,  // measure 84
1000
0001
1000
0010
0100
0001
0010
0000
0200
0000
0000
0000
1300
0000
0001
0000
,  // measure 85
1000
0000
0010
0000
0100
0000
0001
0000
0000
0010
0000
0000
0100
0000
0000
1000
0000
0000
0001
0000
0000
0010
0000
0000
0100
0000
1000
0000
0010
0000
0100
0000
0000
0001
0000
0000
1000
0000
0000
0010
0000
0000
0100
0000
0000
0001
0000
0000
,  // measure 86
1000
0000
0010
0000
0100
0000
0001
0000
0000
0010
0000
0000
0100
0000
0000
1000
0000
0000
0100
0000
0000
0010
0000
0000
0001
0000
0010
0000
0100
0000
1000
0000
0000
0001
0000
0000
1000
0000
0000
0010
0000
0000
0100
0000
0000
0001
0000
0000
,  // measure 87
0010
0000
0100
0000
1000
0000
0010
0000
0000
0100
0000
0000
0001
0000
0000
1000
0000
0000
0100
0000
0000
0010
0000
0000
0001
0000
1000
0000
0100
0000
1000
0000
0000
0010
0000
0000
0100
0000
0000
0001
0000
0000
0100
0000
0000
0000
0000
0000
,  // measure 88
0001
0010
0000
0100
1000
0000
0010
0100
0000
0001
1000
0000
0010
0000
1000
0000
,  // measure 89
2200
0000
3300
0100
0010
0002
0000
0000
,  // measure 90
0103
0000
0000
0110
0000
0000
0002
0000
2000
0000
3003
0000
0101
0000
0100
0000
,  // measure 91
0010
1000
0001
1000
0010
0000
0100
0001
1000
0001
0100
0000
0010
1000
0001
0010
,  // measure 92
0100
0000
1000
0000
0100
0000
0000
0000
0000
0010
0000
0000
0001
0000
0100
0000
0001
0000
0000
0000
0000
1000
0000
0000
0001
0000
0000
0100
0000
0000
0001
0000
0000
0100
0000
0000
0010
0000
0000
0000
0000
0000
0010
0000
0000
0000
0000
0000
,  // measure 93
0100
0001
1000
0010
0100
0101
0000
0001
,  // measure 94
1000
0001
1000
0001
0100
0000
0010
0000
0010
0000
1000
0000
1100
0000
0000
0000
,  // measure 95
0010
0001
0010
0100
1000
0000
0010
1000
0010
0100
0001
0000
1000
0100
0010
0001
,  // measure 96
1000
0000
0001
0000
1000
0000
0001
0000
1000
0000
0001
0000
1000
0000
0000
0000
0000
0000
0100
0000
0000
0100
0000
0000
0010
0000
0000
0010
0000
0000
0001
0000
0000
0001
0000
0000
1000
0000
0000
0000
0000
0000
0000
0000
0000
0000
0000
0000
,  // measure 97
1001
0000
0001
0100
0000
0000
0101
0000
0100
0010
0000
0000
0110
0000
0100
0001
,  // measure 98
0000
0000
1001
0000
1000
0010
0000
0000
1000
0100
0010
0001
0100
0000
0100
0001
,  // measure 99
0000
0001
1000
0000
1000
0001
0000
0001
0100
0000
0100
0010
0000
0010
1000
0000
,  // measure 100
1000
0100
0000
0100
0010
0001
1000
0001
0100
0010
0000
0010
0100
0001
0000
0001
,  // measure 101
1000
0100
0000
0100
0010
0001
0000
0001
1000
0010
1000
0100
0010
0100
1000
0100
,  // measure 102
0010
0000
0000
0001
0000
0000
0010
0000
0000
0100
0000
0000
0010
0000
0000
0001
0000
0000
1000
0000
0000
0010
0000
0000
0100
0000
0000
0010
0000
0000
1000
0000
0000
0001
0000
0000
0100
0000
0000
0010
0000
0000
1000
0000
0010
0000
0100
0000
,  // measure 103
0001
0000
0100
0000
0010
0000
1000
0000
0000
0000
0000
0000
0000
0000
0000
0000
0000
0000
2200
0000
0000
0000
0000
0000
3300
0000
0000
0022
0000
0000
0000
0000
0000
0033
0000
0000
2002
0000
0000
0000
0000
0000
3003
0000
0000
0100
0000
0000
,  // measure 104
0001
0000
1000
0000
0100
0000
0010
0100
1000
0010
0100
0010
1000
0001
0100
0010
,  // measure 105
0100
0001
0010
0001
1000
0100
1000
0100
0010
0001
0010
0100
1000
0010
0100
0001
,  // measure 106
0100
0010
1000
0001
0100
0000
0001
0010
0001
0100
0010
1000
0010
0100
0001
0010
,  // measure 107
0001
1000
0100
0010
0100
1000
0001
0100
0010
1000
0010
0100
0001
1000
0100
0010
,  // measure 108
0100
1000
0001
0010
0100
0000
1000
0001
0100
0000
0010
1000
0001
0000
1000
0100
,  // measure 109
0001
0000
0100
0010
0001
0000
0100
1000
0100
0000
0001
0010
0100
0000
0010
0001
,  // measure 110
1000
0100
1000
0001
0010
0001
1000
0100
0010
0001
1000
0010
1000
0001
0100
0010
,  // measure 111
1000
0100
1000
0001
0200
0000
0000
0301
0020
0000
0000
0130
2000
0000
0000
3001
,  // measure 112
1000
0000
0010
0000
0100
0000
0010
1000
0001
0010
0001
0100
0010
1000
0100
1000
,  // measure 113
0001
0100
0010
1000
0100
0010
0001
1000
0010
0100
1000
0100
0001
0010
0100
0010
,  // measure 114
0001
1000
0100
0010
0100
1000
0100
0000
0001
0100
1000
0000
0001
0100
1000
0000
,  // measure 115
0001
0010
1000
0000
0001
0010
1000
0010
0001
0100
0001
0010
1000
0010
0100
1000
,  // measure 116
0010
0100
0001
0000
0202
0000
0303
0000
0110
0000
0000
0010
1000
0000
0000
1000
,  // measure 117
0100
0010
0001
0000
2002
0000
3003
0000
1100
0000
0000
1000
0100
0000
0000
0100
,  // measure 118
0010
0001
1000
0000
1001
0000
0001
1000
0001
0010
0100
0000
1100
0000
1000
0010
,  // measure 119
1000
0001
0100
0000
0110
0000
0010
1000
0010
0100
0001
0000
0011
0000
0010
0000
,  // measure 120
0100
1000
0101
0010
1010
0100
0101
0010
,  // measure 121
0110
0000
1000
0000
1001
0000
0100
0000
0110
0000
0001
0000
1010
0000
0100
0001
,  // measure 122
1000
0000
0000
0000
0000
0000
0001
0000
0000
0010
0000
0000
0100
0000
0000
1000
0000
0000
0010
0000
0000
0100
0000
0000
0010
0000
0000
1000
0000
0000
0001
0000
0000
0100
0000
0000
0001
0000
0000
0010
0000
0000
0100
0000
1000
0000
0100
0000
,  // measure 123
1000
0000
0000
0010
0000
0000
0100
0000
0001
0000
0100
0000
0002
0000
0000
0000
0000
0000
0000
0000
0000
0000
0000
0000
0000
0000
0000
0000
0000
0000
0000
0000
0000
0000
0000
0000
0000
0000
0000
0000
0000
0000
0000
0000
0000
0000
0000
0000
,  // measure 124
0000
0000
0000
0000
,  // measure 125
0000
0003
0000
0000
;

//---------------dance-single - ----------------
#NOTEDATA:;
#CHARTNAME:;
#STEPSTYPE:dance-single;
#DESCRIPTION:;
#CHARTSTYLE:;
#DIFFICULTY:Medium;
#METER:13;
#RADARVALUES:0.524698,0.717776,0.187552,0.437621,0.117220,705.000000,669.000000,36.000000,84.000000,0.000000,0.000000,0.000000,0.000000,0.000000,0.524698,0.717776,0.187552,0.437621,0.117220,705.000000,669.000000,36.000000,84.000000,0.000000,0.000000,0.000000,0.000000,0.000000;
#CREDIT:;
#NOTES:
0000
0000
0000
0000
,
0000
0000
0000
0000
,
0000
0000
0000
0000
,
0000
0000
0000
0000
,
0000
0000
0000
2000
,
0000
0000
3002
0000
,
0000
0013
0100
1000
,
0001
0000
1000
0001
,
1000
0100
0010
0100
,
1000
0010
0100
0001
,
0100
0010
1000
0010
,
0100
0001
0010
0100
,
0000
1000
0100
0010
,
0001
0010
0001
1000
,
0010
1000
0100
0000
,
0010
0001
1000
0010
,
0100
0000
1000
0000
0000
0100
0010
0000
,
1000
0001
0010
0001
,
1000
1100
0100
0010
,
0001
0000
0000
0200
,
0000
0000
0000
0000
0302
0000
0000
0100
,
0100
2003
0000
0100
,
3200
0000
0000
0010
0010
0000
0320
0000
,
0100
0100
0032
1000
,
1000
2003
0010
0010
,
3002
0000
0000
0100
0100
0000
0103
0000
,
0010
1000
0001
0100
0010
0000
0110
0000
,
0100
0000
0001
0000
1000
0001
1000
0100
,
1100
1000
0100
0010
,
0001
0000
0010
0001
0100
0000
0010
0000
,
1000
0001
0100
0000
0010
0000
1000
0001
,
0100
0000
0010
0000
1000
0001
0010
0000
,
0200
0000
0000
0000
,
0000
0000
2000
0000
,
0000
0000
0000
0000
0000
0000
0000
0300
,
0002
0000
0000
0000
,
0000
0000
0000
0000
0000
0000
0000
3003
,
1001
0000
1000
0001
0100
0000
0010
0000
,
0100
0001
1000
0000
0010
0000
0100
0001
,
0020
0000
0230
0000
1300
0010
0100
0000
,
0001
0000
0000
0001
1000
0000
0000
0000
0000
0000
0000
0000
1100
0000
0000
0000
,
0011
0000
1001
0000
1000
0010
0100
0000
,
0010
0000
0000
1000
0001
0000
0000
0000
0010
0000
0000
0000
0100
0000
0000
0010
,
0002
2003
3200
0320
,
0032
0000
0003
0010
0100
0000
0000
1000
0001
0000
0000
0100
0010
0000
0000
0000
,
1001
1000
0010
1000
0001
0100
0010
0100
,
0001
1000
0100
0000
1000
0010
1010
0000
,
0101
0000
1001
0000
0100
0001
0010
0100
,
1000
0100
0010
0000
0011
0000
0001
0000
,
0100
0000
0000
0000
1001
0000
0000
1000
0010
0000
0000
0000
0110
0000
0000
0000
,
0001
0000
0000
0000
0101
0000
0000
0100
0010
0000
0000
0000
1010
0000
0000
0000
,
0200
0000
0000
0000
0310
0000
0000
1000
0002
0000
0000
0000
2003
0000
0000
0000
,
3002
0000
0000
0203
0000
0000
0310
0100
0010
0100
0000
0000
,
0001
0100
0001
1000
0100
1000
0010
0100
,
0010
1000
0001
1000
0100
0010
0001
0010
,
0100
0000
0000
0100
1000
0000
0010
0000
0000
0010
1000
0000
0001
0000
0000
0001
,
0010
0100
1000
0100
1000
0001
0010
0001
,
1000
0010
0100
0001
1000
0100
0010
0100
,
1000
0100
0010
0001
0010
0100
0010
0001
,
1000
0000
0000
1000
0001
0000
0010
0000
0000
0010
0100
0000
0010
0000
0000
0010
,
0001
1000
0100
1000
0002
0000
0103
0100
,
0010
1000
0010
0100
0001
0100
0000
0001
,
1000
0100
0000
0100
0010
0001
1000
0100
,
0010
0000
0000
0010
0001
0000
1000
0000
0000
1000
0010
0000
0100
0000
0000
0100
,
0001
0010
0100
1000
0100
0010
0001
1000
,
0100
1000
0001
0010
0001
0100
0000
0010
,
0100
0001
0000
0001
1000
0100
1000
0001
,
0100
0000
0000
0100
0001
0000
1000
0000
0000
1000
0001
0000
0010
0000
0000
0010
,
0100
0000
0000
0000
2000
0000
0002
3003
,
1000
1000
0100
0010
0001
0001
1000
0010
,
0100
0100
0001
1000
0010
0010
1000
0100
,
1000
1000
0010
0100
0001
0001
1000
0001
,
2000
3200
0320
0032
,
0013
0010
0100
1000
0001
0001
0100
0010
,
1000
1000
0001
0010
0100
0100
1000
0001
,
1000
1000
0001
0100
0010
0010
0100
0001
,
0020
0230
2300
3002
,
2003
3100
0010
0001
0200
0310
0100
0001
,
2000
3100
0010
0001
0020
0031
1000
0001
,
0200
0310
1000
0010
2000
3001
0100
0010
,
0200
0301
0010
0100
2000
3010
1000
0001
,
0101
0010
1000
0100
1100
1000
0001
0100
,
0101
0001
1000
0001
1001
1000
0010
0100
,
0110
0010
1000
0100
1100
1000
0100
0010
,
0011
0001
1000
0010
0200
0000
0302
0000
,
1003
0100
1000
0010
1000
0100
1000
0000
,
0001
0100
0001
0010
0001
0100
0001
0000
,
1000
0001
1000
0010
1000
0001
1000
0000
,
0010
0000
0000
0010
0000
0000
1000
0000
0000
1000
0000
0000
0001
0000
0010
0000
,
0200
0000
0000
1300
0001
0020
0000
0000
,
0031
0000
0000
0001
0000
0000
1000
0000
0200
0000
0000
0000
1000
0000
1300
0000
,
0001
0000
0000
0001
0000
0000
0100
0000
0000
0100
0000
0000
0010
0000
0000
0010
,
2000
0000
3200
0000
0310
0001
0010
0100
,
1000
0001
1000
0010
0100
0001
0000
0001
,
0010
0110
1100
1001
,
1000
0000
0000
1000
0000
0000
0001
0000
0000
0001
0000
0000
0100
0000
0000
0100
,
0020
0000
0000
1030
0001
1000
0001
0000
,
0020
0000
0000
0230
0000
0000
2300
0000
0000
3020
0000
0000
0230
0000
0000
0302
,
0000
0000
2003
0000
0000
3020
0000
0000
0230
0000
0000
0000
0302
0000
0000
0023
,
0000
0000
0230
0000
0000
2300
0000
0000
3002
0000
0000
0203
0000
0000
0302
0000
,
0000
2003
0000
0000
3020
0000
0000
0000
1030
0000
0000
0000
0100
0000
0000
0000
,
0010
0001
1000
0001
,
0010
0100
1000
0100
0010
0001
1000
0100
,
0010
0000
0100
0000
0000
0000
0020
0000
0000
0032
0000
0000
2003
0000
0000
3020
,
0000
0130
0001
0010
0001
1000
0010
0001
,
0010
1000
0100
0010
0100
0000
0100
0010
,
0001
1000
0100
1000
0001
0100
0001
1000
,
0100
0010
0001
0010
0100
0000
1000
0000
,
0100
0010
0110
0000
0011
0000
0001
0010
,
0100
0000
1000
0000
0001
0000
0000
1000
0100
0000
0000
0000
1001
0000
0000
0000
,
0110
0100
0010
0000
0010
1000
0100
0010
,
0100
0000
1000
0000
0010
0000
0000
0010
0200
0000
0000
0000
0302
0000
0000
0000
,
2003
0000
3001
0100
0001
0010
0100
1000
,
0010
1000
0100
1000
0001
0000
0001
1000
,
0001
0100
0010
0000
1010
0000
0101
0001
,
0010
1000
0010
0001
0100
0000
0001
0000
,
0100
0010
2000
0000
3020
0000
0230
0000
,
0301
1000
0002
0000
0023
0000
0230
0000
,
1300
0001
0101
0000
0001
1000
1100
0000
,
0100
0010
0110
0000
0100
1000
1001
0000
,
0001
0000
0010
0001
0100
1000
0100
0010
,
0100
0001
0010
0100
1000
0001
0010
0100
,
0100
1000
0100
0001
0100
1000
0010
0001
,
0010
0000
1000
0001
2000
0000
0000
0000
0000
0000
0000
0000
0000
0000
0000
0000
,
0000
0000
0000
0000
,
0000
3000
0000
0000
;

//---------------dance-single - ----------------
#NOTEDATA:;
#CHARTNAME:;
#STEPSTYPE:dance-single;
#DESCRIPTION:;
#CHARTSTYLE:;
#DIFFICULTY:Easy;
#METER:6;
#RADARVALUES:0.294724,0.424141,0.031259,0.520977,0.015629,396.000000,390.000000,6.000000,100.000000,0.000000,0.000000,0.000000,0.000000,0.000000,0.294724,0.424141,0.031259,0.520977,0.015629,396.000000,390.000000,6.000000,100.000000,0.000000,0.000000,0.000000,0.000000,0.000000;
#CREDIT:;
#NOTES:
0000
0000
0000
0000
,
0000
0000
0000
0000
,
0000
0000
0000
0000
,
0000
0000
0000
0000
,
0000
0000
0000
0200
,
0000
0000
0302
0000
,
0000
0023
0000
0000
,
0230
0000
0000
2300
,
0000
0000
3002
0000
,
0000
2003
0000
0000
,
3002
0000
0000
0203
,
0000
0000
0010
0310
,
0000
2000
0000
0000
,
3200
0000
0000
0320
,
0000
0000
0032
0000
,
0000
0023
0000
0000
,
0230
0000
0000
1300
,
1000
0001
0001
0010
,
0010
0110
0100
1000
,
1000
0000
0000
0200
,
0000
0000
0320
0000
,
0000
0032
0000
0000
,
2003
0000
0000
3020
,
0000
0000
0230
0000
,
0000
0302
0000
0000
,
2003
0000
0000
3020
,
0000
0000
0230
0000
,
0000
0302
0000
0000
,
0023
0000
0000
0230
,
0000
0000
2300
0000
,
0000
3200
0000
0000
,
0320
0000
0000
0000
,
0032
0000
0000
0000
,
0000
0000
2003
0000
,
0000
0000
0000
0000
,
0002
0000
0000
0000
,
0000
0000
0000
0000
0000
0000
0000
3003
,
1001
1000
0001
0100
,
0010
0010
0000
1000
,
0001
0001
1000
0100
,
0010
0010
0000
0001
,
0010
0001
1000
0100
,
1000
0010
0000
0100
,
0020
2030
3002
0023
,
0230
1300
1000
1000
,
0001
0010
0001
0100
,
0010
0100
0000
0010
,
1000
0010
0100
0001
,
0100
0010
0000
1000
,
0100
1000
0010
0110
,
0100
0001
1000
1001
,
0002
0203
0302
0023
,
0230
2300
0000
0000
,
3001
1000
0001
0010
,
0001
0100
0010
1000
,
0100
0010
0100
0010
0001
0010
0001
1000
,
0001
1000
0010
1000
,
0100
0010
0001
0100
,
0020
2030
3002
0013
,
0100
1000
0100
0010
0100
0010
0001
1000
,
0001
0100
0002
1003
,
0010
0000
0100
0000
0001
0010
0000
0100
,
1000
0100
0000
0000
0010
0000
0001
0000
,
0010
0100
0010
0100
1000
0010
1000
0010
,
0100
0001
0010
0100
,
1000
0000
0100
0000
0010
0001
0000
1000
,
0010
1000
0000
0000
0001
0000
0100
0000
,
0001
0100
0001
0100
0010
1000
0010
1000
,
0001
0000
0200
0320
,
2030
0001
3002
0100
,
0203
0010
0320
1000
,
2030
0001
3002
0100
,
0203
0010
0001
0010
,
0302
1000
2003
0100
,
3200
0010
0320
0001
,
0032
1000
2003
0100
,
0010
0100
0010
0100
,
3020
1000
0230
0010
,
0302
1000
0023
0001
,
0230
0010
2300
0001
,
3020
1000
0230
0001
,
0320
0100
2030
0100
,
3020
1000
0230
0010
,
0302
0010
2003
0100
,
3002
1000
0203
0010
,
0301
0001
0001
1000
,
1000
1000
0010
0010
,
0010
0100
0100
0100
,
2002
0000
0000
0000
0000
0000
0000
3003
,
2000
0000
0000
0000
0010
3020
0000
0000
,
0230
0000
0000
0001
0302
0000
2003
0000
,
3200
0000
0000
0320
0000
0000
0032
0000
,
1003
0001
0010
0100
,
1000
0100
0010
0001
,
1000
0010
0100
0001
,
0020
0000
0000
0230
0000
0000
2300
0000
,
3002
0000
0000
0000
0000
0003
1001
0000
,
1000
0000
0000
1000
0000
0000
0001
0000
,
0000
0000
0001
0000
0000
0000
0000
0000
0200
0000
0000
0000
0300
0000
0000
0010
,
0000
0000
0000
0000
0000
0010
0000
0000
0000
0000
0000
0100
0000
0000
0000
0000
,
0000
0100
0000
0000
0000
0000
0000
0000
0001
0000
0000
0000
0010
0000
0000
0000
,
0100
1000
0100
0010
,
0001
1000
0010
0100
,
0001
0000
0001
0000
0000
0000
2000
0000
0000
3002
0000
0000
2003
0000
0000
0002
,
3003
0100
0010
0000
1000
0000
0001
0000
,
0010
0000
0100
0010
0100
0000
0000
0000
,
1000
0100
1000
0001
,
0100
0000
0001
1000
0001
0000
0000
0000
,
0100
0010
1000
0100
,
0010
0100
1000
0000
,
0010
0100
0001
1000
,
0001
0010
0100
0000
,
1000
0100
1000
0001
,
0010
0000
0100
1000
0100
0000
0000
0000
,
0010
0001
0010
0100
,
0010
0000
0001
1000
0100
0000
0000
0000
,
0010
0001
1000
0100
,
0010
0001
0010
0100
,
1000
0001
0001
1000
,
1000
0100
0100
0010
,
0010
0001
0100
1000
,
0010
0001
0100
1000
,
0100
0001
0010
1000
,
0010
0001
0200
0000
0000
0000
0000
0000
,
0000
0000
0000
0000
,
0000
0300
0000
0000
;
