#TITLE:Commander;
#SUBTITLE:;
#ARTIST:Kelly Rowland feat David Guetta;
#TITLETRANSLIT:;
#SUBTITLETRANSLIT:;
#ARTISTTRANSLIT:;
#CREDIT:;
#BANNER:Commander .png;
#BACKGROUND:Commander -bg.png;
#LYRICSPATH:;
#CDTITLE:;
#MUSIC:Commander .mp3;
#OFFSET:0.440;
#SAMPLESTART:122.600;
#SAMPLELENGTH:12.000;
#SELECTABLE:YES;
#BPMS:0.000=125.000;
#STOPS:;
#BGCHANGES:0.000=Commander.avi=1.000=1=0=1,
99999=-nosongbg-=1.000=0=0=0 // don't automatically add -songbackground-
;

//---------------dance-single - ----------------
#NOTES:
     dance-single:
     :
     Hard:
     13:
     0.657,0.639,0.505,0.387,0.168: // measure 1
0000
0000
1000
0010
1000
0001
0100
0001
,  // measure 2
1000
0100
0001
0100
1000
0010
0100
0001
,  // measure 3
0010
0100
1000
0100
0010
0001
1000
0010
,  // measure 4
1000
0100
0010
0100
1000
0001
0010
0100
,  // measure 5
0010
0001
1000
0010
1000
0100
0010
0001
,  // measure 6
0010
0100
1000
0010
1000
0001
0100
0001
,  // measure 7
1000
0010
0001
0010
1000
0100
0001
0100
,  // measure 8
1000
0100
0001
1000
0010
0001
1000
0010
,  // measure 9
0100
0001
1000
0010
0001
1000
0100
0001
,  // measure 10
2000
0000
0010
0000
0100
0000
3010
0100
,  // measure 11
0001
0100
1000
0100
0001
0010
0200
0000
,  // measure 12
0000
0000
0310
0001
1000
0000
0010
0000
0100
0000
0001
0000
1001
0000
0000
0000
,  // measure 13
1010
1000
0010
0100
0001
0010
0100
1000
,  // measure 14
0002
1000
0100
0010
,  // measure 15
1003
0010
0100
0001
0010
0100
2000
0000
,  // measure 16
0000
0000
3100
0010
0001
0000
0010
0000
0100
0000
1000
0000
0001
0010
0100
1000
,  // measure 17
0001
1000
0010
0100
0001
0010
0100
1000
,  // measure 18
0200
0000
0010
0000
1000
0000
0310
0001
,  // measure 19
0010
1000
0010
0001
1000
0010
0100
0110
,  // measure 20
0010
0100
0001
1000
0001
0010
0100
1100
,  // measure 21
1000
0100
0011
0000
1001
0000
1010
2000
,  // measure 22
0010
0001
0010
0100
,  // measure 23
3001
0100
1001
0000
0101
0000
1010
1010
,  // measure 24
0000
0100
0001
0010
0100
1000
0010
0100
,  // measure 25
0001
1000
1010
0010
0100
0010
0110
0100
,  // measure 26
0001
0100
0102
0000
1003
0100
0120
0000
,  // measure 27
0031
2001
0000
3200
0010
0310
0002
0000
,  // measure 28
1003
0000
1000
0000
0010
1000
0001
0000
0100
0001
0010
0000
0001
1000
0100
0000
,  // measure 29
1000
0001
0010
0000
0101
0000
0100
0000
0010
0000
0100
0000
0110
0000
0010
0000
,  // measure 30
1000
0010
2010
0000
3001
0010
0210
0000
,  // measure 31
1300
2002
3003
0200
1000
0000
0001
0000
,  // measure 32
1000
0000
0310
1000
0001
0010
1001
0000
,  // measure 33
1001
0000
0100
0000
0010
0000
1000
0000
0010
1000
0001
0000
0010
0100
1000
0000
,  // measure 34
0100
0010
0001
0000
1000
0010
1000
0000
0001
0000
1000
0000
0020
0000
0000
0000
,  // measure 35
0130
0120
0000
2030
0010
3010
1020
0000
,  // measure 36
0130
0100
0010
1000
0001
0010
1100
0000
,  // measure 37
0010
0000
0001
0000
1000
0000
0001
0000
1000
0010
1000
0000
0001
0100
0001
0000
,  // measure 38
0010
0100
0010
0000
0100
1000
0100
0000
0010
0001
0010
0000
0200
0000
0000
0000
,  // measure 39
2300
0002
3003
0110
0100
0001
2001
0000
,  // measure 40
3010
0100
0010
1000
0001
0010
1010
0000
,  // measure 41
1000
0010
0011
0000
1001
0000
1100
0000
,  // measure 42
0101
0000
0110
0010
1010
1000
1001
0000
,  // measure 43
0110
0011
1010
0101
,  // measure 44
1001
0110
1010
0101
,  // measure 45
0110
1100
0101
1001
,  // measure 46
0110
0000
1001
0000
0110
0010
1010
0000
,  // measure 47
1010
1000
1001
0001
0101
0100
0110
0000
,  // measure 48
1010
0020
0000
2000
0000
0000
0000
0030
,  // measure 49
3001
1000
0001
0100
1000
0001
0010
1000
,  // measure 50
0002
0000
0100
0000
0010
0000
0103
0010
,  // measure 51
1000
0010
0001
0010
1000
0100
0020
0000
,  // measure 52
0031
1000
0010
0001
0010
1000
1001
0010
,  // measure 53
0101
0001
0100
0010
1000
0100
0010
0001
,  // measure 54
2000
0001
0010
0100
,  // measure 55
3001
0100
0010
1000
0100
0010
0002
0000
,  // measure 56
1003
0000
0010
0000
1000
0000
0100
0000
0010
0000
0001
0000
1000
0100
0010
0001
,  // measure 57
1000
0001
0100
0010
1000
0100
0010
0001
,  // measure 58
0020
0000
0100
0000
0001
0000
0100
0030
,  // measure 59
0001
1000
0100
1000
0001
0100
0110
0000
,  // measure 60
1010
0010
1000
0001
1000
0100
1200
0000
,  // measure 61
0310
0001
1100
0000
1001
0000
0011
0002
,  // measure 62
0100
1000
0100
0010
,  // measure 63
1003
0001
1001
1000
1010
0000
0110
0110
,  // measure 64
0000
0010
1000
0100
0010
0001
0100
0010
,  // measure 65
1000
0001
0101
0100
0010
0100
0110
0010
,  // measure 66
1000
0010
2010
0000
3001
0010
0210
0000
,  // measure 67
1300
1002
0000
0023
0100
0130
2000
0000
,  // measure 68
3001
0000
0001
0000
0100
0001
1000
0000
0010
1000
0100
0000
1000
0001
0010
0000
,  // measure 69
0001
1000
0100
0000
1010
0000
0010
0000
0100
0000
0010
0000
0110
0000
0100
0000
,  // measure 70
0001
0100
0102
0000
1003
0100
0120
0000
,  // measure 71
0031
2002
3003
0020
0001
0000
1000
0000
,  // measure 72
0001
0000
0130
0001
1000
0100
1001
0000
,  // measure 73
1001
0000
0010
0000
0100
0000
0001
0000
0100
0001
1000
0000
0010
1000
0001
0000
,  // measure 74
0010
0100
1000
0000
0100
0010
0001
0000
1000
0000
0001
0000
0200
0000
0000
0000
,  // measure 75
0310
0210
0000
0302
0100
0103
0201
0000
,  // measure 76
0310
0010
0100
0001
1000
0100
0011
0000
,  // measure 77
0100
0000
1000
0000
0001
0000
1000
0000
0001
0100
0001
0000
1000
0010
1000
0000
,  // measure 78
0100
0010
0100
0000
0010
0001
0010
0000
0100
1000
0100
0000
0020
0000
0000
0000
,  // measure 79
0032
2000
3003
0110
0010
1000
1002
0000
,  // measure 80
0103
0010
0100
0001
1000
0100
0101
0000
,  // measure 81
0001
0000
0100
0000
1000
0100
1000
0000
0001
0100
0001
0000
1000
0010
1000
0000
,  // measure 82
0001
0100
0001
0000
0010
0100
0010
0000
0100
0010
0100
0000
0010
0001
1000
0000
,  // measure 83
0100
1000
0001
0000
0100
0010
1000
0000
0100
0010
0001
0000
1000
0010
0001
0000
,  // measure 84
1000
0100
0001
0000
0010
0100
1000
0000
0010
0100
1000
0000
0100
0010
0001
0000
,  // measure 85
0010
1000
0100
0000
0010
0001
0010
0000
0100
1000
0100
0000
0010
0001
1000
0000
,  // measure 86
0100
1000
0010
0000
0100
0010
1000
0000
0100
0010
0001
0000
0010
0100
1000
0000
,  // measure 87
0001
0010
0001
0000
0100
0010
0100
0000
0010
1000
0010
0000
1000
0100
0010
0000
,  // measure 88
0001
0010
0100
0000
1000
0000
1000
0000
0001
0000
0001
0000
0101
0000
0100
0010
,  // measure 89
1000
1010
0101
0100
0010
0100
0110
0010
,  // measure 90
1000
0010
2010
0000
3001
0010
0210
0000
,  // measure 91
1300
1002
0000
0023
0100
0130
2000
0000
,  // measure 92
3001
0000
0001
0000
0100
0001
1000
0000
0010
1000
0100
0000
1000
0001
0010
0000
,  // measure 93
0001
1000
0100
0000
1010
0000
0010
0000
0100
0000
0010
0000
0110
0000
0100
0000
,  // measure 94
0001
0100
0102
0000
1003
0100
0120
0000
,  // measure 95
0031
2002
3003
0120
1000
0000
0100
0000
,  // measure 96
1000
0000
0130
0001
1000
0100
1001
0000
,  // measure 97
1001
0000
0010
0000
0100
0000
0001
0000
0100
0010
1000
0000
0001
1000
0100
0000
,  // measure 98
0010
0001
0010
0000
0100
1000
0100
0000
1000
0000
0001
0000
0200
0000
0000
0000
,  // measure 99
0310
0210
0000
0301
0101
0010
0201
0000
,  // measure 100
0310
0010
0100
0001
1000
0100
0011
0000
,  // measure 101
0100
0000
1000
0000
0001
0000
1000
0000
0001
0100
0001
0000
1000
0010
1000
0000
,  // measure 102
0100
0010
0100
0000
0010
0001
0010
0000
0100
1000
0100
0000
0020
0000
0000
0000
,  // measure 103
0032
2000
3003
0110
0010
1000
1002
0000
,  // measure 104
0103
0010
0100
0001
1000
0100
0101
0000
,  // measure 105
0100
0100
2100
0000
0010
0000
3002
0000
,  // measure 106
0100
0000
0023
0001
0001
0100
0230
0000
,  // measure 107
1000
1000
0300
2000
0100
0000
3002
0000
,  // measure 108
1000
0203
1000
0320
,  // measure 109
0100
2030
0100
3020
,  // measure 110
0001
0000
0032
0000
0100
0100
0203
0000
,  // measure 111
1000
1000
0300
2000
0010
0000
3020
0000
,  // measure 112
0001
0000
0032
0000
1000
0003
2000
0000
,  // measure 113
0010
3000
1002
0000
0013
0000
0000
0000
;

//---------------dance-single - Copied from----------------
#NOTES:
     dance-single:
     Copied from:
     Medium:
     10:
     0.477,0.433,0.164,0.496,0.000:
1000
0001
0010
0100
,
1000
0100
0010
0001
,
1000
0010
0100
0001
,
1000
0001
0100
0010
,
1000
0001
0010
0100
,
0010
0001
1000
0100
,
1000
0001
0100
0001
,
1000
0000
0010
0000
0100
0010
0100
0000
,
0001
0010
0001
0000
1000
0001
0200
0000
,
0010
0000
1000
0000
0010
0000
0301
1000
,
0001
1000
0001
1000
0020
0000
0000
0100
,
0130
0001
1000
0001
1001
0000
0010
1000
,
0010
0100
0001
0010
0100
1000
0002
0000
,
1000
0100
0010
1000
,
0103
0001
0010
0100
2000
0000
0000
0001
,
3001
0010
0100
1000
0001
0000
0101
0000
,
0100
0010
1000
0100
1000
0001
0200
0000
,
0001
0000
1000
0000
0001
0000
0310
1000
,
0010
1000
0001
0001
0100
0100
0010
1000
,
0100
0010
0001
0001
0010
0010
0100
1000
,
0200
0000
0320
0000
0031
0200
0010
0000
,
0001
0000
0010
0000
1000
0000
0301
1000
,
0002
0000
2003
0000
0010
3010
0000
0100
,
0001
1000
0001
1000
0010
0100
0001
1000
,
1020
0000
0100
0030
0210
0000
0001
0300
,
0102
0000
1003
0100
0020
0000
0031
0200
,
0000
0301
1000
0001
0200
0000
0301
1000
,
0020
0000
0230
0000
0302
0000
1003
0001
,
0200
0000
0010
0300
0120
0000
1000
0030
,
2010
0000
3001
0010
0200
0000
1300
0002
,
0000
0203
0010
0000
0010
0000
0010
0000
,
0310
1000
0010
0100
0010
0000
1000
0001
,
1000
0002
0100
1000
,
0010
0000
0103
0010
0200
0000
0301
2000
,
0000
3001
1000
0001
0200
0000
0310
0100
,
0010
1000
0001
0010
0100
0000
0010
0001
,
0000
0001
2000
0000
0001
0000
0010
0000
,
0100
0000
3010
0100
0002
0000
1003
0010
,
0000
0100
0010
0100
0002
0000
1003
0010
,
0100
0001
1000
0010
0100
0000
0001
1000
,
0010
1001
0010
0101
,
0001
1001
1000
1010
,
0010
0110
0100
0101
,
0001
1001
1000
1100
,
0100
0110
0010
0011
,
0001
1001
1000
1010
,
0010
0000
0110
0000
0100
0000
0100
0002
,
0000
0023
0000
0000
0000
0000
0031
1000
,
0000
0001
1000
0100
0010
0001
2000
0000
,
0001
0000
0010
0000
0100
0000
3001
0100
,
0010
1000
0100
0010
0002
0000
1003
0001
,
1000
0001
0100
0010
0100
0010
1000
0001
,
1000
0100
0010
0001
0010
0100
0020
0000
,
1000
0000
0001
0000
1000
0000
0031
1000
,
0001
1000
0010
0010
0100
0000
0001
1000
,
0010
0100
0001
0000
1001
0000
2000
0000
,
3010
1000
0100
0010
0001
0010
0200
0000
,
1000
0000
0010
0000
1300
0000
0001
1000
,
0010
0100
0001
1000
0010
0000
1000
0010
,
0100
0001
1000
0001
0100
0000
1000
0001
,
0100
0000
1001
0000
0010
0001
0200
0000
,
1000
0000
0001
0000
1000
0000
0310
1000
,
1001
0000
0110
0000
0100
0100
0000
0010
,
1000
0001
0010
0100
1000
0010
0100
0001
,
0201
0000
0010
0300
0120
0000
1000
0030
,
2010
0000
3001
0010
0200
0000
1300
0020
,
0000
1030
0001
1000
0020
0000
1030
0001
,
0200
0000
0320
0000
2030
0000
3001
1000
,
0020
0000
0100
0030
0210
0000
0001
0300
,
0102
0000
1003
0100
0020
0000
0031
2000
,
0000
3020
0100
0000
0100
0000
0100
0000
,
0130
0001
0100
0010
0100
0000
0001
1000
,
0001
2000
0010
0001
,
0100
0000
3010
0100
0020
0000
1030
0002
,
0000
1003
0001
1000
0020
0000
0130
0010
,
0100
0001
1000
0100
0010
0000
0100
1000
,
0000
1000
0002
0000
1000
0000
0100
0000
,
0010
0000
0103
0010
2000
0000
3001
0100
,
0000
0010
0100
0010
2000
0000
3001
0100
,
0010
1000
0001
0100
0010
0000
1000
0001
,
0010
0100
1000
0000
2020
0000
0030
3001
,
1000
0100
0010
0100
2000
0000
0000
3001
,
0100
1000
0100
0001
0200
0000
0000
0301
,
1000
0010
0001
1000
0200
0000
0000
0301
,
1000
0100
0010
0001
0020
0000
0000
0130
,
1000
0100
0010
0001
0020
0000
0000
0032
,
0000
1003
1000
0010
0020
0000
0000
0000
,
1030
0001
1000
0001
1001
1000
0010
1000
,
1020
0000
0100
0030
0210
0000
0001
0300
,
0102
0000
1003
0100
0020
0000
0031
0200
,
0000
0301
1000
0001
0200
0000
0301
1000
,
0020
0000
0230
0000
0302
0000
1003
0001
,
0200
0000
0010
0300
0120
0000
1000
0030
,
2010
0000
3001
0010
0200
0000
1300
0002
,
0000
0203
0010
0000
0010
0000
0010
0000
,
0310
1000
0010
0100
0010
0000
1000
0001
,
1000
0002
0100
1000
,
0010
0000
0103
0010
0200
0000
0301
2000
,
0000
3001
1000
0001
0200
0000
0310
0100
,
0010
1000
0001
0010
0100
0000
0010
0001
,
0000
0001
2000
0000
0001
0000
0010
0000
,
0100
0000
3010
0100
0002
0000
1003
0010
,
0000
0100
0010
0100
0002
0000
1003
0010
,
0100
0001
1000
0010
0100
0000
0001
1000
,
0020
0000
0230
0000
,
0320
0000
0230
0000
,
0320
0000
2030
0000
,
3200
0000
0320
0000
,
0032
0000
0023
0000
,
0230
0000
2300
0000
,
3020
0000
0230
0000
,
0302
0000
2003
0000
,
3001
0000
0000
0000
;

//---------------dance-single - Copied from Copied f----------------
#NOTES:
     dance-single:
     Copied from Copied f:
     Easy:
     6:
     0.396,0.433,0.100,0.564,0.000:
1000
1001
0000
0000
,
0100
0110
0000
0000
,
1000
1010
0000
0000
,
0001
0101
0000
0000
,
0100
0110
0000
0000
,
0010
1001
0000
0000
,
1000
1100
0000
0000
,
0100
0110
0010
0001
,
1000
0000
0010
0000
1000
0001
2000
0000
,
0010
0010
0010
3010
,
0100
0000
0010
0100
0002
0000
0000
0000
,
0100
0103
1001
0010
,
0010
0000
0100
0000
0001
1000
0002
0000
,
0010
0010
0010
0010
,
0013
0000
0010
0100
2000
0000
0000
0001
,
3001
0000
1000
0001
1000
0000
1001
0000
,
2000
3002
0023
0230
,
1000
1000
1000
1300
,
1000
0001
1000
0000
0001
0100
0001
0000
,
1000
0001
1000
0000
0010
1000
0010
1000
,
0200
0000
0320
0000
0031
1000
0002
0000
,
1000
0000
1000
0000
1000
0000
1003
0010
,
0200
0000
0302
0000
1000
1003
0000
0000
,
1000
0001
1000
0001
,
2020
0000
0000
3030
0202
0000
0000
0303
,
2001
0000
3001
0001
0002
0000
0103
0200
,
0000
0310
1000
0000
0001
0000
1000
0000
,
0020
0230
0302
2003
,
3020
0000
0230
0000
,
0302
0000
1003
1000
2000
0000
3001
0002
,
0000
0203
0010
0000
0010
0000
0010
0000
,
0301
1000
0001
1000
0001
0000
1000
0001
,
1000
0002
1000
1000
,
1000
0000
1003
1000
2000
0000
3010
0010
,
0000
0100
0100
0001
0002
0000
1003
0010
,
1000
0000
0001
0100
0001
0000
0100
0100
,
0000
0001
2000
0000
0010
0000
0010
0000
,
0010
0000
3010
0100
0020
0000
0130
0010
,
0000
2000
3002
2003
,
3001
1000
0020
0000
0130
0000
0010
1000
,
0010
1000
0001
1000
,
0001
1000
0001
1000
,
0001
0100
0010
0100
,
0010
0100
0010
1000
,
0001
1001
1000
0001
,
1000
0001
1000
0010
,
0100
0000
0010
0000
0100
0000
0010
0010
,
0000
2002
0000
0000
0000
0000
0000
0000
,
3003
1000
0010
2000
,
0001
0000
0001
0000
0001
0000
3001
1000
,
0001
0000
1000
0001
2000
0000
3010
1000
,
0010
0000
0100
0010
0100
0000
0001
0100
,
0010
0000
1000
0010
0100
0000
0020
0000
,
0100
0100
0100
0130
,
0001
1000
0020
0130
,
0010
1000
1001
2000
,
3001
0001
0100
0200
,
0010
0000
0010
0000
0310
0000
0010
1000
,
0010
0000
0100
0000
0100
0000
0001
0100
,
0001
0000
1000
0000
1000
0000
0010
0100
,
0010
0000
1000
0000
0002
0200
0000
0000
,
0000
0000
0000
0303
,
1000
0000
0001
0000
0100
0000
0000
0010
,
1000
0001
1000
0001
,
0202
0000
0000
0303
2020
0000
0000
3030
,
1002
0000
1003
1000
2000
0000
3010
0020
,
0000
0130
0001
0000
1000
0000
0001
0000
,
0200
0320
2030
3002
,
0203
0000
0320
0000
,
2030
0000
3001
0001
0002
0000
1003
2000
,
0000
3020
0100
0000
0100
0000
0100
0000
,
1030
0001
1000
0001
1000
0000
0001
1000
,
0001
2000
0001
0001
,
0001
0000
3001
0001
0002
0000
0103
0100
,
0000
0010
0010
1000
2000
0000
3001
0100
,
0001
0000
1000
0010
1000
0000
0010
0010
,
0000
1000
0002
0000
0100
0000
0100
0000
,
0100
0000
0103
0010
0200
0000
0310
1000
,
0000
0002
2003
3002
,
1003
0001
0200
0000
0310
0000
1000
0001
,
1000
1000
0002
0000
,
0103
0010
2000
0000
,
3001
0100
0002
0000
,
1003
0010
0200
0000
,
0310
1000
0002
0000
,
0013
0000
0100
0000
2000
0000
0000
3001
,
0000
1000
1000
0000
0002
0000
0000
0000
,
0103
0000
0100
0000
0010
0100
0010
1000
,
2020
0000
0000
3030
0202
0000
0000
0303
,
2001
0000
3001
0001
0002
0000
0103
0200
,
0000
0310
1000
0000
0001
0000
1000
0000
,
0020
0230
0302
2003
,
3020
0000
0230
0000
,
0302
0000
1003
1000
2000
0000
3001
0002
,
0000
0203
0010
0000
0010
0000
0010
0000
,
0301
1000
0001
1000
0001
0000
1000
0001
,
1000
0002
1000
1000
,
1000
0000
1003
1000
2000
0000
3010
0010
,
0000
0100
0100
0001
0002
0000
1003
0010
,
1000
0000
0001
0100
0001
0000
0100
0100
,
0000
0001
2000
0000
0010
0000
0010
0000
,
0010
0000
3010
0100
0020
0000
0130
0010
,
0000
2000
3002
2003
,
3001
1000
0020
0000
0130
0000
0010
1000
,
0020
0000
0230
0000
,
0320
0000
0230
0000
,
0320
0000
2030
0000
,
3200
0000
0320
0000
,
0032
0000
0023
0000
,
0230
0000
2300
0000
,
3020
0000
0230
0000
,
0302
0000
2003
0000
,
3001
0000
0000
0000
;
