#TITLE:Climax Sentou;
#SUBTITLE:;
#ARTIST:Dp.Honda;
#TITLETRANSLIT:;
#SUBTITLETRANSLIT:;
#ARTISTTRANSLIT:;
#CREDIT:;
#BANNER:Climax Sentou-bn.png;
#BACKGROUND:Climax Sentou-bg.png;
#LYRICSPATH:;
#CDTITLE:;
#MUSIC:Climax Sentou.mp3;
#OFFSET:0.080;
#SAMPLESTART:81.000;
#SAMPLELENGTH:12.000;
#SELECTABLE:YES;
#BPMS:0.000=170.000;
#STOPS:;
#BGCHANGES:;

//---------------dance-single - ----------------
#NOTES:
     dance-single:
     :
     Hard:
     14:
     0.681,0.800,0.017,0.154,0.607:
0000
0000
0000
1000
0000
0000
0000
0001
,
0000
0000
0000
1000
0000
0000
0000
0010
,
0000
0000
0000
0100
0000
0000
0000
0001
,
0000
0000
0000
1000
0000
0000
0001
0010
,
1000
0001
0100
1000
0000
1000
0000
0010
,
0000
0010
0000
0100
0000
0100
0000
0001
,
0000
0001
1000
0010
0000
0010
0000
1000
,
0000
1000
0000
0001
0010
1000
0001
0100
,
1000
0010
0100
0010
0000
0000
0000
1000
,
0000
0000
0000
0010
0000
0000
0000
0100
,
0000
0000
0000
0001
0000
0000
0000
1000
,
0001
0100
0010
0000
0010
0000
0010
0000
,
1000
0010
0100
0001
0000
0000
0000
0100
,
0000
0000
0000
1000
0000
0000
0000
0100
,
0000
0000
0000
0001
0000
0010
0000
0000
,
0100
1000
0010
0000
0010
0001
0010
1000
,
0001
0100
1000
0001
0000
0010
0000
0000
,
2000
0000
3002
0000
,
1003
0010
0100
0002
0000
0000
0000
0000
,
0203
0000
0000
0000
0301
1000
0001
0010
,
1000
0001
0100
2000
0000
0000
0000
0000
,
3020
0000
0230
0000
,
0301
1000
0010
0002
0000
0000
0000
0000
,
0023
0000
0000
1030
1000
0010
0010
0100
,
0100
0001
0001
1000
0010
0100
0001
1000
,
0010
0100
0001
0010
0100
1000
0001
0010
,
0100
1000
0010
0100
1000
0100
0001
0010
,
0100
1000
0100
0010
0001
1000
0010
0100
,
0010
1000
0001
0100
0001
0010
0100
1000
,
0001
0010
0001
1000
0100
1000
0010
0100
,
0010
1000
0001
0100
0010
1000
0100
0010
,
0100
1000
0001
0010
0100
0010
0001
0010
,
0100
1000
0010
0100
0001
1000
0010
0001
,
0010
1000
0100
0001
0100
1000
0010
0100
,
0010
1000
0001
0010
0001
0100
1000
0100
,
0010
1000
0100
0010
0001
0010
1000
0010
,
0001
0010
0100
1000
0100
0001
0100
1000
,
0010
0100
1000
0100
0010
1000
0001
0010
,
0100
1000
0010
0100
0010
0100
0010
0001
,
0010
1000
0010
0100
1000
0100
0001
0010
,
1000
0010
0001
0200
0000
0000
0000
0000
,
0000
0000
0000
0000
,
0320
0000
0000
0000
,
0000
0000
0000
1030
0010
0001
1000
0100
,
0001
0010
0100
2000
0000
0000
0000
0000
,
0000
0000
0000
0000
0001
0002
0000
0000
,
0000
0000
0000
0000
0000
0000
0000
0000
0000
0003
0000
0000
3010
0000
1000
0000
0001
0000
0100
0000
0001
0000
1000
0000
,
0001
0010
0100
0010
0001
1000
0010
0100
0010
1000
0100
0010
,
0001
0000
0010
0000
0100
0000
1000
0000
0010
0000
0100
0000
0001
0000
1000
0000
0010
0000
1000
0000
0000
2010
0000
0000
,
0000
0000
3002
0000
0000
0000
1003
0000
0000
0010
0100
0000
0000
0100
0001
0000
,
0000
0001
1000
0000
0000
1000
0001
0000
0000
0001
0010
0000
0000
0010
1000
0000
,
0000
1000
0010
0000
0000
0010
0001
0000
0000
0001
0010
0000
0000
0010
1000
0000
,
0000
1000
0001
0000
0000
0001
0100
0000
0000
0100
1000
0000
0000
1000
0010
0000
,
0000
0010
0001
0000
0000
0001
1000
0000
0000
1000
0100
0000
0000
0100
0001
0000
,
0000
0001
0010
0000
0000
0010
1000
0000
0000
1000
0001
0000
0000
0001
0100
0000
,
0000
0100
1000
0000
0000
1000
0001
0000
0000
0001
0100
0000
0000
0100
0010
0000
,
0000
0000
0000
0010
0000
0000
1000
0000
0000
0000
0000
0000
0000
0000
0000
1000
0000
0000
0001
0000
0000
0000
0100
0000
0000
0000
0010
0000
0000
0000
0100
0000
0000
0000
0001
0000
0000
0000
1000
0000
0000
0000
0010
0000
0000
0000
0100
0000
,
0000
0001
0000
1000
0000
0010
0000
0100
0000
0001
0000
1000
0000
0001
0000
0100
0000
0010
0000
1000
0000
0001
0000
0100
,
0000
0001
0000
0010
0000
0100
0000
1000
0000
0100
0000
0010
0000
0001
0000
1000
0000
0010
0000
1000
0000
0001
0000
0100
,
0000
0001
0000
0010
0000
0100
0000
0010
0000
0001
0000
1000
0000
0001
0000
0100
0000
1000
0000
0100
0000
0001
0000
0010
,
0000
1000
0000
0010
0000
0001
0000
0010
0000
1000
0000
0001
0000
0100
0000
1000
0000
0010
0000
0001
0000
1000
0000
0100
,
0000
0001
0000
0010
0000
0100
0000
1000
0000
0010
0000
0001
0000
1000
0000
0100
0000
0001
0000
0010
0000
0100
0000
1000
,
0000
0010
0000
0001
0000
1000
0000
0100
0000
0001
0000
0010
0000
1000
0000
0001
0000
0100
0000
1000
0000
0010
0000
0100
,
0000
0001
0000
0010
0000
0100
0000
1000
0000
0010
0000
0100
0000
0001
0000
0010
0000
0001
0000
1000
0000
0100
0000
1000
,
0000
0010
0000
0100
0000
0001
0000
0010
0000
0100
0000
0010
0000
0001
0000
0100
0000
0010
0000
1000
0000
0100
0000
0010
,
0000
0100
0000
1000
0000
0010
0000
0100
0000
0000
0000
0000
0000
0000
0000
2010
0000
0000
0000
0000
0000
3002
0000
0000
,
0000
0000
1003
0000
0010
0100
0010
0000
1000
0000
0001
0000
0100
0001
0100
0000
,
0001
0000
0010
0000
0001
1000
0001
0000
1000
0000
0010
0000
0100
0001
0100
0000
,
0010
0000
1000
0000
0001
0100
0001
0000
0010
0000
0100
0000
1000
0100
1000
0000
,
0100
0000
0010
0000
0001
0010
0001
0000
0010
0000
1000
0000
0010
0001
0010
0000
,
0001
0000
0100
0000
1000
0100
1000
0000
0100
0000
0001
0000
0010
0100
0010
0000
,
0001
0000
1000
0000
0010
0100
0001
0000
0010
0000
0100
0000
1000
0001
0100
0000
,
0001
0000
1000
0000
0001
0010
0100
0000
1000
0000
0001
0000
0100
0010
1000
0000
,
0001
0000
0010
0000
0001
0010
0100
0000
1000
0000
0010
0000
0100
0001
0010
0000
,
0100
0000
1000
0000
0010
1000
0100
0000
0010
0000
0001
0000
0010
0100
1000
0000
,
0100
0000
0010
0001
0010
0000
0100
1000
0100
0000
0010
0100
1000
0010
0100
0001
,
0010
0100
2000
0000
0000
0000
0000
0000
0000
0000
0000
0000
0000
0000
0000
0000
,
0000
0000
0000
0000
,
3001
0000
0000
0000
;

//---------------dance-single - Copied from----------------
#NOTES:
     dance-single:
     Copied from:
     Medium:
     10:
     0.454,0.467,0.000,0.077,0.047:
0000
0000
0000
1000
0000
0000
0000
0001
,
0000
0000
0000
1000
0000
0000
0000
0010
,
0000
0000
0000
0100
0000
0000
0000
0001
,
0000
0000
0000
1000
0000
0000
0000
0010
,
0000
0100
0010
1000
0000
1000
0000
0010
,
0000
0010
0000
0100
0000
0100
0000
0001
,
0000
0001
1000
0001
0000
0001
0000
0100
,
0000
0100
0000
0001
0000
1000
0000
0100
,
0010
0001
0010
0100
0000
0000
0000
1000
,
0000
0000
0000
0010
0000
0000
0000
0100
,
0000
0000
0000
0001
0000
0000
0000
1000
,
0000
0000
0010
0010
,
0100
0010
1000
0010
0000
0000
0000
0100
,
0000
0000
0000
0001
0000
0000
0000
1000
,
0000
0000
0000
0001
0000
0000
0000
0000
,
0100
0010
0100
0000
0010
0100
0010
1000
,
0001
1000
0001
0100
0000
0010
0000
0000
,
1000
0000
0001
0000
,
0100
0010
1000
0010
0000
0000
0000
0000
,
0100
0000
0000
0000
0001
0010
0100
1000
,
0001
0100
0001
1000
0000
0000
0000
0000
,
0010
0000
0100
0000
,
0010
0100
0010
0200
0000
0000
0000
0000
,
0310
0000
0000
1000
0001
1000
0001
0100
,
0010
0100
0010
1000
0001
0100
0000
0001
,
1000
0100
0000
0010
0100
1000
0000
0010
,
0100
0001
0000
0100
0010
0100
0000
0010
,
0100
0010
0000
0100
0001
1000
0000
0010
,
0100
0001
0000
1000
0001
1000
0000
0001
,
0100
0001
0000
1000
0010
0100
0000
0010
,
0100
0001
0000
1000
0001
0100
0000
0001
,
1000
0100
0000
0010
0100
1000
0000
0010
,
0100
0001
0000
0100
0010
0100
0000
0010
,
0100
0010
0000
0100
0001
1000
0000
0010
,
0100
0001
0000
1000
0001
1000
0000
0001
,
0100
0001
0000
1000
0010
0100
0000
0010
,
0100
0001
0000
0100
0001
1000
0000
0010
,
0100
0001
0000
1000
0001
1000
0000
0001
,
0100
0001
0000
1000
0010
0100
0000
0010
,
0100
0001
0000
1000
0010
1000
0001
0100
,
0001
1000
0010
2000
0000
0000
0000
0000
,
0000
0000
0000
0000
,
3002
0000
0000
0000
,
0000
0000
0000
1003
1000
0001
0001
0100
,
0100
0010
0010
2000
0000
0000
0000
0000
,
0000
0000
0000
0000
0001
0001
0000
0000
,
0000
0000
3001
1000
,
0010
0100
0001
0010
,
0100
0000
1000
0000
0100
0000
0000
0020
,
0000
0032
0000
1003
0000
0010
0000
0100
,
0000
0010
0000
0100
0000
0001
0000
1000
,
0000
1000
0010
0000
0000
0010
0100
0000
0000
0000
0001
0000
0000
0000
1000
0000
,
0000
0000
0001
0000
0000
0000
0100
0000
0000
0100
0010
0000
0000
0010
1000
0000
,
0000
1000
0001
0000
0000
0001
0100
0000
0000
0000
0010
0000
0000
0000
1000
0000
,
0000
0001
0000
0010
0000
0100
0000
1000
,
0000
0001
0100
0000
0000
0100
0010
0000
0000
0010
1000
0000
0000
1000
0001
0000
,
0000
0001
1000
0000
0000
0000
0001
0000
0000
0000
0100
0000
0000
0000
0010
0000
,
0000
1000
0000
0001
1000
0001
0000
0100
,
0000
0100
0000
0010
1000
0010
0000
1000
,
0000
1000
0000
0001
0010
0100
0000
0010
,
0000
0010
0000
0001
1000
0100
0000
0010
,
0000
0010
0000
0001
0100
0010
0000
1000
,
0000
1000
0000
0100
1000
0001
0000
0010
,
0000
0010
0000
0001
1000
0010
0000
0100
,
0010
0100
0001
0100
1000
0100
0010
0100
,
0001
1000
0001
0000
0000
0200
0000
0320
,
0000
1030
0001
0100
0000
0001
1000
0100
,
0000
0010
0100
1000
0000
0010
0100
0001
,
0000
0100
0010
0100
0000
0010
0100
0010
,
0000
0100
0001
1000
0000
0010
0100
0001
,
0000
1000
0001
1000
0000
0001
0100
0001
,
0000
1000
0010
0100
0000
0010
0100
0001
,
0000
1000
0001
0100
0000
0001
1000
0100
,
0000
0010
0100
1000
0100
0010
0001
1000
,
0001
0100
0010
0100
0000
0010
0100
0010
,
0000
0100
0001
1000
0000
0010
0100
0001
,
1000
0002
0000
0000
0000
0000
0000
0000
,
0000
0000
0000
0000
,
0003
0000
0000
0000
;

//---------------dance-single - Copied from Copied f----------------
#NOTES:
     dance-single:
     Copied from Copied f:
     Easy:
     5:
     0.328,0.329,0.009,0.085,0.000:
0000
0000
0000
0001
0000
0000
0000
1000
,
0000
0000
0000
0001
0000
0000
0000
0100
,
0000
0000
0000
0010
0000
0000
0000
1000
,
0000
0000
0000
0001
0000
0000
0000
0100
,
0000
0010
0000
0100
0000
0001
0000
0100
,
0000
0100
0000
0010
0000
0010
0000
1000
,
0000
0001
0000
1000
0000
0001
0000
0010
,
0000
0010
0000
0100
0000
1000
0000
0001
,
0000
1000
1000
1000
0000
0000
0000
0010
,
0000
0000
0000
0100
0000
0000
0000
0001
,
0000
0000
0000
1000
0000
0000
0000
0001
,
0000
0000
0100
0100
,
0000
0010
0010
0010
0000
0000
0000
0100
,
0000
0000
0000
0001
0000
0000
0000
0100
,
0000
0000
0000
0010
0000
0000
0000
0000
,
1000
1000
1000
0000
0000
0010
0000
0010
,
0000
0100
0000
0100
0000
0001
0000
0000
,
0001
0000
1000
0000
,
0000
0010
0010
0010
0000
0000
0000
0000
,
0100
0000
0000
0000
0001
0000
0000
1000
,
0000
0010
0000
1000
0000
0000
0000
0000
,
0001
0000
0100
0000
,
0000
0010
0000
0220
0000
0000
0000
0000
,
0330
0000
0000
0001
0000
1000
0000
0100
,
0000
0001
0000
0010
0000
1000
0000
1000
,
0000
0010
0000
0100
0000
0001
0000
0100
,
0000
0010
0000
1000
0000
1000
0000
0001
,
0000
0001
0000
0100
0000
0100
0000
0010
,
0000
0010
0000
1000
0000
1000
0000
0001
,
0000
1000
0000
0001
0000
1000
0000
0010
,
0000
0100
0000
0010
0000
0100
0000
0001
,
0000
0100
0000
0100
0000
0010
0000
0010
,
0000
1000
0000
1000
0000
0100
0000
0010
,
0000
0001
0000
1000
0000
0010
0000
0100
,
0000
0010
0000
1000
0000
0001
0000
1000
,
0000
0010
0000
0100
0000
0010
0000
0010
,
0000
0100
0000
0100
0000
0001
0000
0001
,
0000
1000
0000
1000
0000
0010
0000
0100
,
0000
0001
0000
1000
0000
0100
0000
1000
,
0000
0010
0000
0001
0000
0010
0000
1000
,
0000
0010
0000
0020
0000
0000
0000
0000
,
0000
0000
0000
0000
,
0230
0000
0000
0000
,
0000
0000
0000
0301
0000
1000
0000
0010
,
0000
0100
0000
0020
0000
0000
0000
0000
,
0000
0000
0000
0000
1000
1030
0000
0000
,
0000
0000
1000
0001
,
0100
0010
1000
0100
,
0010
0000
0001
0000
0010
0000
0000
0200
,
0000
2300
0000
3001
0000
0100
0000
0010
,
0000
0100
0000
0010
0000
1000
0000
0001
,
0000
0100
0000
0010
0000
1000
0000
0001
,
0000
1000
0000
0010
0000
0100
0000
0001
,
0000
1000
0000
0010
0000
0100
0000
0001
,
0000
1000
0000
0100
0000
0010
0000
0001
,
0000
0010
0000
0100
0000
0001
0000
1000
,
0000
0001
0000
1000
0000
0010
0000
0100
,
0000
0010
0000
1000
0000
1000
0000
0010
,
0000
0010
0000
0100
0000
0100
0000
0001
,
0000
0001
0000
1000
0000
1000
0000
0100
,
0000
0100
0000
1000
0000
1000
0000
0010
,
0000
0010
0000
0100
0000
0100
0000
0001
,
0000
0001
0000
1000
0000
1000
0000
0010
,
0000
0010
0000
1000
0000
0001
0000
0100
,
0000
0001
0000
1000
0000
0010
0000
1000
,
0000
0001
0000
0000
0000
0020
0000
0230
,
0000
0310
0000
1000
0000
1000
0000
0010
,
0000
0100
0000
0001
0000
0100
0000
0010
,
0000
1000
0000
1000
0000
0001
0000
0001
,
0000
0100
0000
0100
0000
0010
0000
0010
,
0000
1000
0000
1000
0000
0001
0000
1000
,
0000
0001
0000
1000
0000
0010
0000
0100
,
0000
0010
0000
0100
0000
0001
0000
0100
,
0000
0100
0000
0010
0000
0010
0000
1000
,
0000
1000
0000
0100
0000
0010
0000
0001
,
0000
1000
0000
0010
0000
0100
0000
0010
,
0000
2000
0000
0000
0000
0000
0000
0000
,
3000
0000
0000
0000
;

//---------------dance-single - Copied from Copied f----------------
#NOTES:
     dance-single:
     Copied from Copied f:
     Beginner:
     2:
     0.186,0.197,0.000,0.034,0.000:
0000
0000
0000
0001
0000
0000
0000
1000
,
0000
0000
0000
0001
0000
0000
0000
0100
,
0000
0000
0000
0010
0000
0000
0000
1000
,
0000
0000
0000
0001
0000
0000
0000
0100
,
0000
0000
0000
0100
0000
0000
0000
0100
,
0000
0000
0000
0010
0000
0000
0000
1000
,
0000
0000
0000
1000
0000
0001
0000
0000
,
0000
0010
0000
0000
0000
1000
0000
1000
,
0000
0000
0000
0010
0000
0000
0000
0001
,
0000
0000
0000
0100
0000
0000
0000
0010
,
0000
0000
0000
1000
0000
0000
0000
0001
,
0000
0000
0100
0100
,
0000
0000
0000
0010
0000
0000
0000
0100
,
0000
0000
0000
0001
0000
0000
0000
0100
,
0000
0000
0000
0010
0000
0000
0000
0000
,
0000
1000
0000
0000
0000
0010
0000
0000
,
0000
0100
0000
0000
0000
0001
0000
0000
,
0001
0000
1000
0000
,
0000
0000
0000
0010
0000
0000
0000
0000
,
0100
0000
0000
0000
0001
0000
0000
1000
,
0000
0010
0000
1000
0000
0000
0000
0000
,
0001
0000
0100
0000
,
0000
0010
0000
0010
0000
0000
0000
0000
,
0000
0000
0000
0000
,
0000
0000
0000
0010
0000
0000
0000
0010
,
0000
0000
0000
0100
0000
0000
0000
0100
,
0000
0000
0000
0001
0000
0000
0000
0001
,
0000
0000
0000
1000
0000
0000
0000
0010
,
0000
0000
0000
1000
0000
0000
0000
0001
,
0000
0000
0000
0001
0000
0000
0000
0010
,
0000
0000
0000
0010
0000
0000
0000
0100
,
0000
0000
0000
1000
0000
0000
0000
0010
,
0000
0000
0000
0001
0000
0000
0000
0100
,
0000
0000
0000
0010
0000
0000
0000
1000
,
0000
0000
0000
0001
0000
0000
0000
0100
,
0000
0000
0000
1000
0000
0000
0000
0010
,
0000
0000
0000
0001
0000
0000
0000
0100
,
0000
0000
0000
0010
0000
0000
0000
0100
,
0000
0000
0000
0001
0000
0000
0000
0010
,
0000
0000
0000
1000
0000
0000
0000
0010
,
0000
0010
0000
0020
0000
0000
0000
0000
,
0000
0000
0000
0000
,
2030
0000
0000
0000
,
0000
0000
0000
3001
0000
0000
0000
1000
,
0000
0000
0000
0020
0000
0000
0000
0000
,
0000
0000
0000
0000
0000
1030
0000
0000
,
0000
0000
1000
0000
,
0100
0000
1000
0000
,
0010
0000
0000
0000
0010
0000
0000
1000
,
0000
1000
0000
0001
0000
0000
0000
0010
,
0000
0000
0000
0010
0000
0000
0000
0001
,
0000
0000
0000
0010
0000
0000
0000
0001
,
0000
0000
0000
0010
0000
0000
0000
0001
,
0000
0000
0000
0010
0000
0000
0000
0001
,
0000
0000
0000
0100
0000
0000
0000
0001
,
0000
0000
0000
0100
0000
0000
0000
1000
,
0000
0000
0000
1000
0000
0000
0000
0100
,
0000
0000
0000
1000
0000
0000
0000
0100
,
0000
0000
0000
0001
0000
0000
0000
0100
,
0000
0000
0000
1000
0000
0000
0000
0100
,
0000
0000
0000
0001
0000
0000
0000
0010
,
0000
0000
0000
1000
0000
0000
0000
0010
,
0000
0000
0000
0001
0000
0000
0000
0010
,
0000
0000
0000
0100
0000
0000
0000
1000
,
0000
0000
0000
1000
0000
0000
0000
0010
,
0000
0010
0000
0000
0000
0100
0000
0100
,
0000
0010
0000
0000
0000
0010
0000
0000
,
0000
0100
0000
0000
0000
0100
0000
0000
,
0000
0001
0000
0000
0000
0001
0000
0000
,
0000
1000
0000
0000
0000
0010
0000
0000
,
0000
1000
0000
0000
0000
0001
0000
0000
,
0000
0001
0000
0000
0000
0010
0000
0000
,
0000
0010
0000
0000
0000
0100
0000
0000
,
0000
1000
0000
0000
0000
0010
0000
0000
,
0000
0001
0000
0000
0000
0100
0000
0000
,
0000
0010
0000
0000
0000
1000
0000
0000
,
0000
0020
0000
0000
0000
0000
0000
0000
,
0030
0000
0000
0000
;

//---------------dance-single - Copied from----------------
#NOTES:
     dance-single:
     Copied from:
     Challenge:
     15:
     0.806,0.833,0.308,0.359,0.645: // measure 1
0000
0000
0000
0002
0000
2003
0000
3002
,  // measure 2
0000
0203
0000
0320
0000
2030
0000
3002
,  // measure 3
0000
1003
0010
0110
0000
0200
0000
0302
,  // measure 4
0000
0023
0000
0230
0000
0301
0001
1000
,  // measure 5
1000
0010
0010
1001
0000
0100
0000
1001
,  // measure 6
0000
0001
0000
0101
0000
0100
0000
0110
,  // measure 7
0000
0010
1000
1010
0000
0010
0000
0110
,  // measure 8
0000
0000
2000
0000
0000
0000
3001
0000
0100
0000
0010
0000
1000
0000
0001
0010
,  // measure 9
0100
0010
0001
1000
0000
1001
0000
0001
,  // measure 10
0200
0000
0310
1000
0001
0100
2000
0000
,  // measure 11
3100
0001
0010
0100
0000
1100
0000
1000
,  // measure 12
0001
0100
0020
0000
1000
0000
0032
0000
,  // measure 13
0013
1000
0100
0010
0000
0110
0000
0010
,  // measure 14
0002
0000
1003
0010
0100
1000
0001
0000
,  // measure 15
0010
1000
0100
0010
0000
0011
0000
0000
,  // measure 16
0001
1000
0200
0000
0310
0001
0010
1000
,  // measure 17
0001
0100
1000
0010
0000
0110
0000
0000
,  // measure 18
2010
0100
3002
0010
,  // measure 19
1003
1000
0001
0102
0000
0010
0000
1000
,  // measure 20
0203
0000
0000
0000
0301
1000
0001
0010
,  // measure 21
1000
0001
0100
2100
0000
0001
0000
0100
,  // measure 22
3020
0000
0000
1000
0230
0000
0010
0000
,  // measure 23
0301
1000
0010
0012
0000
1000
0000
0010
,  // measure 24
0023
0000
0000
1030
1000
0010
0010
0100
,  // measure 25
0100
0001
0001
1000
0010
0100
0001
1000
,  // measure 26
0010
0100
0001
0010
0100
1000
0001
0010
,  // measure 27
0100
1000
0010
0100
1000
0100
0001
0010
,  // measure 28
0100
1000
0100
0010
0001
1000
0010
0100
,  // measure 29
0010
1000
0001
0100
0001
0010
0100
1000
,  // measure 30
0001
0010
0001
1000
0100
1000
0010
0100
,  // measure 31
0010
1000
0001
0100
0010
1000
0100
0010
,  // measure 32
0100
1000
0001
0010
0100
0010
0001
0010
,  // measure 33
0100
1000
0010
0101
0010
1000
0001
1001
,  // measure 34
0100
0010
1000
0101
0001
1000
0010
0110
,  // measure 35
0100
0001
0100
1010
0001
0100
1000
0101
,  // measure 36
0010
1000
0100
2010
3010
0120
0130
0201
,  // measure 37
0301
1002
1003
2010
3010
0100
0001
0011
,  // measure 38
0010
0100
1000
1100
0100
0010
0001
1001
,  // measure 39
1000
0010
0100
0101
0001
1000
0010
1010
,  // measure 40
1000
0000
0001
0000
0010
0000
0110
0000
0100
0000
1000
0000
0001
0000
1000
0001
,  // measure 41
1000
0001
0100
0010
1000
0010
0200
0000
0000
0000
0000
0000
0000
0000
0000
0000
,  // measure 42
0000
0000
0000
0000
,  // measure 43
0320
0000
0000
0000
,  // measure 44
0000
0000
0000
0031
0010
1000
0001
0010
,  // measure 45
1000
0001
0100
2000
0000
0000
0000
0000
,  // measure 46
0000
0000
0000
0000
0001
0002
0000
0000
,  // measure 47
0000
0000
0000
0000
0000
0000
0000
0000
0000
0003
0000
0000
3010
0000
1000
0000
0001
0000
0100
0000
0001
0000
1000
0000
,  // measure 48
0001
0010
0100
0010
0001
1000
0010
0100
0010
1000
0100
0010
,  // measure 49
0001
0000
0010
0000
0100
0000
1000
0000
0010
0000
0100
0000
0001
0000
1000
0000
0010
0000
1000
0000
0000
2010
0000
0000
,  // measure 50
0000
0000
3002
0000
0000
0000
1003
0000
0000
0010
0100
0000
0000
0100
0001
0000
,  // measure 51
0000
0001
1000
0000
0000
1000
0001
0000
0000
0001
0010
0000
0000
0010
1000
0000
,  // measure 52
0000
1000
0010
0000
0000
0010
0001
0000
0000
0001
0010
0000
0000
0010
1000
0000
,  // measure 53
0000
1000
0001
0000
0000
0001
0100
0000
0000
0100
1000
0000
0000
1000
0010
0000
,  // measure 54
0000
0010
0001
0000
0000
0001
1000
0000
0000
1000
0100
0000
0000
0100
0001
0000
,  // measure 55
0000
0001
0010
0000
0000
0010
1000
0000
0000
1000
0001
0000
0000
0001
0100
0000
,  // measure 56
0000
0100
1000
0000
0000
1000
0001
0000
0000
0001
0100
0000
0000
0100
0010
0000
,  // measure 57
0000
0000
0000
0010
0000
0000
1000
0000
0000
0000
0000
0000
0000
0000
0000
1000
0000
0000
0001
0000
0000
0000
0100
0000
0000
0000
0010
0000
0000
0000
0100
0000
0000
0000
0001
0000
0000
0000
1000
0000
0000
0000
0010
0000
0000
0000
0100
0000
,  // measure 58
0000
0001
0000
1000
0000
0010
0000
0100
0000
0001
0000
1000
0000
0001
0000
0100
0000
0010
0000
1000
0000
0001
0000
0100
,  // measure 59
0000
0001
0000
0010
0000
0100
0000
1000
0000
0100
0000
0010
0000
0001
0000
1000
0000
0010
0000
1000
0000
0001
0000
0100
,  // measure 60
0000
0001
0000
0010
0000
0100
0000
0010
0000
0001
0000
1000
0000
0001
0000
0100
0000
1000
0000
0100
0000
0001
0000
0010
,  // measure 61
0000
1000
0000
0010
0000
0001
0000
0010
0000
1000
0000
0001
0000
0100
0000
1000
0000
0010
0000
0001
0000
1000
0000
0100
,  // measure 62
0000
0001
0000
0010
0000
0100
0000
1000
0000
0010
0000
0001
0000
1000
0000
0100
0000
0001
0000
0010
0000
0100
0000
1000
,  // measure 63
0000
0010
0000
0001
0000
1000
0000
0100
0000
0001
0000
0010
0000
1000
0000
0001
0000
0100
0000
1000
0000
0010
0000
0100
,  // measure 64
0000
0001
0000
0010
0000
0100
0000
1000
0000
0010
0000
0100
0000
0001
0000
0010
0000
0001
0000
1000
0000
0100
0000
1000
,  // measure 65
0000
0010
0000
0100
0000
0001
0000
0010
0000
0100
0000
0010
0000
0001
0000
0100
0000
0010
0000
1000
0000
0100
0000
0010
,  // measure 66
0000
0100
0000
1000
0000
0010
0000
0100
0000
0000
0000
0000
0000
0000
0000
2020
0000
0000
3030
0000
0000
0102
0000
0000
,  // measure 67
0000
0000
1003
0000
0010
0100
0001
0000
0010
0000
0100
0000
1000
0001
0010
0000
,  // measure 68
0100
0000
1000
0000
0001
1000
0100
0000
0010
0000
0001
0000
0010
0001
1000
0000
,  // measure 69
0100
0000
0010
0000
0001
0100
1000
0000
0100
0000
0001
0000
0010
0100
0001
0000
,  // measure 70
1000
0000
0010
0000
0001
0010
0100
0000
1000
0000
0010
0000
0100
0001
1000
0000
,  // measure 71
0010
0000
0001
0000
1000
0100
0001
0000
0100
0000
0001
0000
0010
0100
1000
0000
,  // measure 72
0001
0000
0100
0000
0010
0100
0001
0000
0010
0000
0100
0000
1000
0001
0010
0000
,  // measure 73
0100
0000
1000
0000
0001
0010
0100
0000
1000
0000
0001
0000
0100
0010
1000
0000
,  // measure 74
0001
0000
0010
0001
1000
0000
0010
0100
0001
0000
0010
0100
1000
0001
0010
0100
,  // measure 75
1000
0010
1000
0000
0010
1000
0100
0000
0010
0000
0001
0000
0010
0100
1000
0000
,  // measure 76
0100
0000
0010
0001
1000
0000
0100
1000
0001
0000
1000
0100
1000
0010
0100
0001
,  // measure 77
0010
0100
0020
0000
0000
0000
0000
0000
0000
0000
0000
0000
0000
0000
0000
0000
,  // measure 78
0000
0000
0000
0000
,  // measure 79
0130
0000
0000
0000
;
