#TITLE:City Angel;
#SUBTITLE:;
#ARTIST:PINK PONG;
#TITLETRANSLIT:;
#SUBTITLETRANSLIT:;
#ARTISTTRANSLIT:;
#CREDIT:;
#BANNER:City Angel-bn.png;
#BACKGROUND:City Angel-bg.png;
#LYRICSPATH:;
#CDTITLE:;
#MUSIC:City Angel.mp3;
#OFFSET:-0.040;
#SAMPLESTART:26.520;
#SAMPLELENGTH:12.000;
#SELECTABLE:YES;
#BPMS:0.000=145.000;
#STOPS:105.250=0.100
,106.000=0.100
,106.750=0.100
,107.500=0.100
,176.500=0.080
,177.250=0.080
,178.000=0.080
;
#BGCHANGES:;

//---------------dance-single - ----------------
#NOTES:
     dance-single:
     :
     Hard:
     15:
     0.808,0.984,0.067,0.087,1.000:
0000
0000
1000
0001
1000
0000
0010
0000
,
0100
0000
0001
0000
0000
1000
0000
0000
0100
0000
0000
0000
0010
0000
0000
0000
,
0001
0000
1000
0000
0000
0010
0000
0000
0100
0000
0000
0000
0001
0000
0000
0000
,
1000
0000
0010
0100
0000
0010
0100
0000
0001
0000
1000
0000
0000
0010
0000
0000
,
0100
0001
0000
1000
0010
0001
0010
1000
,
0001
1001
0000
1000
0100
0001
0100
1000
,
0001
0101
0000
0001
1000
0010
1000
0001
,
0100
0110
0000
0010
1000
0001
0010
0100
,
1000
0000
0100
0010
0000
0100
1000
0000
0010
0000
0100
0000
0001
0000
1000
0000
,
0010
0000
1000
0010
0000
0100
0001
0000
1000
0000
0010
0000
0100
0000
0001
0000
,
0010
0000
0100
1000
0000
0100
0010
0000
0001
0000
1000
0000
0100
0000
1000
0000
,
0001
0000
0010
0100
0000
1000
0100
0000
0010
0000
0001
0000
1000
0000
0010
0000
,
0100
0000
0001
1000
0000
0010
1000
0000
0001
0000
0100
0000
0010
0000
0001
0000
,
0010
0000
0100
0001
0000
1000
0010
0000
0100
0000
1000
0000
0100
0000
0001
0000
,
0010
0000
0100
1000
0000
1000
0001
0000
0010
0000
0100
0000
1000
0000
0010
0000
,
0100
0000
0101
0000
0001
1000
0010
0000
0000
0100
0001
1000
0010
0100
0001
0000
,
2000
0000
0000
0000
3001
0100
1000
0000
0000
0001
0010
1000
0010
0001
0010
0000
,
0000
1000
0100
0001
0100
1000
0100
0000
0000
0010
0001
0010
1000
0010
0001
0000
,
0000
1000
0100
0001
0100
1000
0001
0000
0000
1000
0010
0001
0010
1000
0001
0000
,
0000
1000
0010
0001
0010
1000
0001
0000
0000
0010
1000
0001
0100
1000
0001
0000
,
0000
1000
0010
0001
0010
1000
0010
0000
0000
0100
0001
0100
1000
0100
0001
0000
,
0000
0010
0100
1000
0100
0001
0100
0000
0000
1000
0100
0001
0100
1000
0010
0000
,
0000
0100
0010
0001
0010
1000
0100
0000
0000
0010
0001
0010
1000
0010
0001
0000
,
0000
0100
1000
0100
0001
0100
0010
0000
0000
0100
1000
0001
0010
1000
0100
0000
,
0000
1000
0100
0001
0100
1000
0100
0000
0000
0010
0001
0010
1000
0010
0001
0000
,
0000
0100
1000
0100
0001
0100
1000
0000
0000
0001
0010
1000
0010
0001
1000
0000
,
0000
0100
0001
1000
0010
2000
0000
3010
0200
0000
0310
2000
0000
3010
0200
0000
,
0000
0000
0000
0000
,
0301
1000
0010
0000
0100
0000
0010
0000
0000
1000
0000
0001
0000
1000
0010
0000
,
0000
0100
0010
0000
1000
0000
0001
0000
0000
0000
0100
0000
0000
0010
1000
0000
,
0000
1000
0010
0000
0100
0000
0001
0000
0000
1000
0000
0010
0000
0100
0001
0000
,
0000
1000
0100
0000
0010
0000
0100
0000
0000
0000
1000
0000
0000
0001
0100
0000
,
0000
0010
1000
0000
0010
0000
0100
0000
0000
0001
0000
0100
0000
0010
1000
0000
,
0000
0001
0010
0000
0100
0000
0010
0000
0000
0000
0001
0000
0000
1000
0100
0000
,
0000
0010
0001
0000
1000
0000
0100
0000
0000
1000
0000
0010
0000
0100
0010
0000
,
0000
1000
0010
0000
0100
0000
0001
0000
0000
0000
0100
0000
0000
0010
1000
0000
,
0001
1000
0010
0000
0100
0000
0010
0000
0000
1000
0000
0001
0000
1000
0010
0000
,
0000
0100
0010
0000
1000
0000
0001
0000
0000
0000
0100
0000
0000
0010
1000
0000
,
0000
1000
0010
0000
0100
0000
0001
0000
0000
1000
0000
0010
0000
0100
0001
0000
,
0000
1000
0100
0000
0010
0000
0100
0000
0000
0000
1000
0000
0000
0001
0100
0000
,
0000
0010
0100
0000
0010
0000
1000
0000
0000
0001
0000
0100
0000
0010
1000
0000
,
0000
0001
0010
0000
0100
0000
0010
0000
0000
0000
0001
0000
0000
1000
0100
0000
,
1000
0010
0100
0001
0100
0010
1000
0100
0010
0001
0100
1000
0100
0001
0010
0100
,
0010
0001
0010
0100
1000
0001
0010
0001
0100
0010
1000
0010
0001
0010
1000
0100
,
0010
0100
2000
0000
3010
0200
0000
0301
0020
0000
0031
0100
0010
1000
0000
0010
,
1000
0000
0010
0000
0100
0001
0000
0100
0010
0000
1000
0000
0001
0000
0100
0001
,
1000
0000
0010
0000
0100
0010
0000
1000
0001
0000
0100
0000
0010
1000
0000
0001
,
0100
0000
0010
0000
1000
0010
0000
0100
0001
0000
0010
0000
0100
1000
0000
0100
,
0001
0000
0100
0000
1000
0010
0000
0010
0001
0000
0010
0000
1000
0001
0000
0001
,
0100
0000
0010
0000
1000
0100
0000
0100
0010
0000
0001
0000
0010
0100
0000
0100
,
1000
0000
0100
0000
0001
0100
0000
0100
1000
0000
0010
0000
0100
0001
0000
1000
,
0010
0000
0100
0000
0001
1000
0000
0010
1000
0000
0100
0000
0010
0001
0000
1000
,
0001
0000
0100
0000
0010
1000
0000
0010
0100
0000
0001
0000
1000
0100
0000
0010
,
0001
0000
0010
0000
0100
1000
0000
0100
0010
0000
0001
0000
1000
0000
0100
0010
,
0100
0000
0010
0000
0001
1000
0000
0010
1000
0000
0001
0000
0100
0010
0000
1000
,
0010
0000
0100
0000
0001
1000
0000
0010
0100
0000
0001
0000
0010
0100
0000
1000
,
0100
0000
0010
0000
0001
1000
0000
0001
0010
0000
0100
0000
1000
0010
0000
0010
,
1000
0000
0100
0000
1000
0010
0000
0010
0001
0000
0010
0000
1000
0001
0000
0001
,
0100
0000
0010
0000
1000
0100
0000
0100
0010
0000
0001
0000
0010
0100
0000
0100
,
1000
0000
0100
0000
0001
0100
0000
0100
1000
0000
0010
0000
0100
0001
0000
1000
,
0010
0000
0100
0000
0001
1000
0000
0010
1000
0000
0100
0000
0010
0000
1001
0000
,
0100
0000
1001
0000
0100
0000
1001
0000
0100
0000
1000
0010
0100
0002
0000
0000
,
0003
0000
0000
0000
;

//---------------dance-single - Copied from----------------
#NOTES:
     dance-single:
     Copied from:
     Medium:
     11:
     0.539,0.507,0.058,0.135,0.289:
0000
0000
0100
0010
1000
0000
0010
0000
,
1000
0000
0001
0000
0000
0001
0000
0000
1000
0000
0000
0000
1000
0000
0000
0000
,
0010
0000
0100
0000
0000
0010
0000
0000
0010
0000
0000
0000
0100
0000
0000
0000
,
0100
0000
0001
0000
1000
0000
0001
0000
0100
0000
0010
0000
0000
0010
0000
0000
,
1000
0001
0000
0100
0010
0100
0010
0100
,
0010
0200
0000
0301
1000
0001
1000
0001
,
1000
0002
0000
1003
0010
1000
0010
1000
,
0010
2000
0000
3001
0100
0001
0100
0001
,
0100
0002
0000
0103
0010
1000
0010
0100
,
0000
1001
0000
0001
1000
0001
1000
0001
,
0000
0110
0000
0010
1000
0001
1000
0010
,
0000
1010
0000
0100
0001
1000
0001
0100
,
0000
0101
0000
0001
1000
0010
1000
0001
,
0000
1010
0000
1000
0010
0100
0010
1000
,
0000
1001
0000
0001
0010
0100
1000
0001
,
0000
0000
1000
0000
0001
1000
0000
0000
0000
0000
0010
0000
0100
0001
0000
0000
,
0200
0000
0000
0000
0301
1000
0000
0000
0000
0000
0010
0000
0100
0001
0000
0000
,
0000
0000
1000
0000
0001
0100
0000
0000
0000
0000
0010
0000
0100
0001
0000
0000
,
0000
0000
0100
0000
0001
1000
0000
0000
0000
0000
0010
0000
0100
0010
0000
0000
,
0000
0000
1000
0000
0010
0100
0000
0000
0000
0000
0010
0000
1000
0001
0000
0000
,
0000
0000
0100
0000
0010
1000
0000
0000
0000
0000
0001
0000
1000
0100
0000
0000
,
0000
0000
1000
0000
0001
1000
0000
0000
0000
0000
0010
0000
0100
0001
0000
0000
,
0000
0000
1000
0000
0001
0100
0000
0000
0000
0000
0010
0000
0100
0001
0000
0000
,
0000
0000
0100
0000
0001
1000
0000
0000
0000
0000
0010
0000
0100
0010
0000
0000
,
0000
0000
1000
0000
0010
0100
0000
0000
0000
0000
0010
0000
1000
0001
0000
0000
,
0000
0000
0100
0000
0010
1000
0000
0000
0000
0001
1000
0001
1000
0001
1000
0000
,
0000
0000
0010
0000
0000
2000
0000
0000
3002
0000
0000
2003
0000
0000
3020
0000
,
0000
0000
0000
0000
,
1030
0001
1000
0010
0000
0100
0001
1000
,
0000
0010
1000
0001
0000
0100
0010
0100
,
0000
0001
1000
0010
0000
1000
0001
0100
,
0000
0010
1000
0001
0000
1000
0010
1000
,
0000
0001
0100
0001
0000
1000
0100
0010
,
0000
0001
0010
0100
0000
1000
0001
0100
,
0000
0010
1000
0100
0000
1000
0001
0100
,
0000
0010
0100
0001
0000
0100
0010
1000
,
0001
1000
0001
0100
0000
0010
1000
0001
,
0000
0100
0001
1000
0000
0010
0100
0010
,
0000
1000
0001
0100
0000
0001
1000
0010
,
0000
0100
0001
1000
0000
0001
0100
0001
,
0000
1000
0010
1000
0000
0001
0010
0100
,
0000
1000
0010
0100
0000
0001
1000
0010
,
1000
1000
0001
0001
0100
0100
0010
0010
,
1000
1000
0100
0100
0010
0010
0001
0001
,
1000
0000
2000
0000
0000
3002
0000
0000
0203
0000
0000
0000
0000
0000
0000
0000
,
0000
0000
0000
0000
0000
0000
0000
0310
,
1000
0000
0010
0000
0000
0100
0000
0000
0001
0000
1000
0000
0000
0010
0000
0000
,
0100
0000
0010
0000
0000
0100
0000
0000
0001
0000
0010
0000
0000
0100
0000
0000
,
1000
0000
0100
0000
0000
0010
0000
0000
0001
0000
1000
0000
0000
0010
0000
0000
,
0100
0000
0001
0000
0000
1000
0000
0000
0010
0000
0100
0000
0000
0001
0000
0000
,
1000
0000
0010
0000
0000
0100
0000
0000
0010
0000
0100
0000
0000
0001
0000
0000
,
1000
0000
0001
0000
0000
0100
0000
0000
0001
0000
0010
0000
0000
0001
0000
0000
,
1000
0000
0100
0000
0000
0010
0000
0000
0001
0000
0010
0000
0000
0100
0000
0000
,
1000
0000
0010
0000
0000
1000
0000
0000
0010
0000
0100
0000
0000
0000
0010
0000
,
1000
0000
0010
0000
0000
0100
0000
0000
0001
0000
1000
0000
0000
0010
0000
0000
,
0100
0000
0010
0000
0000
0100
0000
0000
0001
0000
0010
0000
0000
0100
0000
0000
,
1000
0000
0100
0000
0000
0010
0000
0000
0001
0000
1000
0000
0000
0010
0000
0000
,
0100
0000
0001
0000
0000
1000
0000
0000
0010
0000
0100
0000
0000
0001
0000
0000
,
1000
0000
0010
0000
0000
0100
0000
0000
0010
0000
0100
0000
0000
0001
0000
0000
,
1000
0000
0001
0000
0000
0100
0000
0000
0001
0000
0010
0000
0000
0001
0000
0000
,
1000
0000
0100
0000
0000
0010
0000
0000
0001
0000
0010
0000
0000
0000
0100
0000
,
0100
0000
1000
0000
1000
0000
0100
0000
0100
0000
0010
0001
0020
0002
0000
0000
,
0033
0000
0000
0000
;

//---------------dance-single - Copied from Copied f----------------
#NOTES:
     dance-single:
     Copied from Copied f:
     Easy:
     7:
     0.408,0.477,0.000,0.231,0.019:
0000
0000
1000
0001
0200
0000
0010
0000
,
0301
0000
0100
0001
2000
0000
0010
0000
,
3001
0000
1000
0001
0020
0000
0001
0000
,
0130
0000
1000
0001
2000
0000
0010
0000
,
3001
1000
0001
1000
,
0010
0100
0000
0000
0001
0000
1000
0000
,
0010
0100
0000
0000
0010
0000
1000
0000
,
0001
0100
0000
0000
0010
0000
1000
0000
,
0001
1000
0000
0000
0010
0000
1000
0000
,
0100
1000
0000
0000
0001
0000
0100
0000
,
0010
0100
0000
0000
0010
0000
1000
0000
,
0001
0010
0000
0000
0100
0000
1000
0000
,
0100
0010
0000
0000
0001
0000
1000
0000
,
0010
0100
0000
0000
0001
0000
1000
0000
,
0010
0100
0000
0000
0001
0000
0010
0000
,
0100
1000
0100
0000
0000
0010
0001
0000
,
2000
0000
3001
1000
0000
0001
0100
1000
,
0000
0001
0100
1000
0000
0001
0100
1000
,
0000
0001
0100
1000
0000
0001
0100
1000
,
0000
0001
0100
1000
0000
0001
0100
1000
,
0000
1000
0100
0001
0000
1000
0100
0001
,
0000
1000
0100
0001
0000
1000
0100
0001
,
0000
1000
0100
0001
0000
1000
0100
0001
,
0000
1000
0100
0001
0000
1000
0100
0001
,
0000
1000
0100
0001
0000
1000
0100
0001
,
0000
1000
0100
0001
0000
1000
0100
0001
,
0000
0000
2000
0000
0010
0000
0000
0010
0000
0000
0010
0000
0000
3010
0000
0000
,
0000
0000
0000
0000
,
0001
0000
1000
0010
0000
0000
0100
0001
,
0000
0000
0001
1000
0000
0000
1000
0010
,
0000
0000
0010
0100
0000
0000
0100
0001
,
0000
0000
0001
0010
0000
0000
0010
0100
,
0000
0000
0100
1000
0000
0000
1000
0001
,
0000
0000
0001
1000
0000
0000
1000
0010
,
0000
0000
0010
0100
0000
0000
0100
0010
,
0000
0000
0001
1000
0000
0000
1000
0010
,
0000
0000
0010
0100
0000
0000
0100
0001
,
0000
0000
0001
1000
0000
0000
1000
0010
,
0000
0000
0010
0100
0000
0000
0100
0001
,
0000
0000
0001
1000
0000
0000
1000
0001
,
0000
0000
0001
0010
0000
0000
0010
0100
,
0000
0000
0100
1000
0000
0000
1000
0002
,
2000
0003
3002
0000
0203
0000
0320
0000
,
2030
0000
3002
0000
0203
0000
0310
0100
,
0000
0010
0000
0000
1000
0000
0000
0001
0000
0000
0100
0000
0000
0000
0000
0000
,
0000
0000
0000
0000
0000
0000
0000
0001
,
1000
0001
0000
0100
0000
0010
0000
1000
,
0000
0001
0000
0010
0000
0100
0000
1000
,
0000
0100
0000
0010
0000
0001
0000
0010
,
0000
1000
0000
0100
0000
0001
0000
1000
,
0000
0010
0000
0100
0000
0010
0000
1000
,
0000
0010
0000
0001
0000
0100
0000
1000
,
0000
0001
0000
0100
0000
0010
0000
1000
,
0000
0001
0000
1000
0000
0010
0000
1000
,
0001
1000
0000
0010
0000
0200
0000
0302
,
0000
1003
0000
0200
0000
0310
0000
0002
,
0000
0010
0000
0100
0000
1000
0000
0010
,
0000
0100
0000
0010
0000
1003
0000
0020
,
0000
0130
0000
0010
0000
2000
0000
3002
,
0000
0103
0000
0020
0000
1030
0000
0200
,
0000
0310
0000
0001
0000
1000
0000
0001
,
1000
0001
1000
0001
1000
0001
2000
0000
,
3000
0000
0000
0000
;

//---------------dance-single - Copied from Copied from Copied f----------------
#NOTES:
     dance-single:
     Copied from Copied from Copied f:
     Beginner:
     2:
     0.217,0.417,0.000,0.231,0.000: // measure 1
0000
0001
2000
0000
,  // measure 2
3000
0010
0200
0000
,  // measure 3
0300
0001
0020
0000
,  // measure 4
0030
0100
2000
0000
,  // measure 5
3001
0000
1000
0010
,  // measure 6
0100
0100
0000
0000
0000
0000
0000
0000
,  // measure 7
0001
0001
0000
0000
0000
0000
0000
0000
,  // measure 8
1000
1000
0000
0000
0000
0000
0000
0000
,  // measure 9
0010
0010
0000
0000
0000
0000
0000
0000
,  // measure 10
0100
0100
0000
0000
0000
0000
0000
0000
,  // measure 11
0001
0001
0000
0000
0000
0000
0000
0000
,  // measure 12
1000
1000
0000
0000
0000
0000
0000
0000
,  // measure 13
0001
0001
0000
0000
0000
0000
0000
0000
,  // measure 14
0100
0100
0000
0000
0000
0000
0000
0000
,  // measure 15
0001
0001
0000
0000
0000
0000
0000
0000
,  // measure 16
0100
0100
0100
0000
0000
0010
0010
0000
,  // measure 17
0200
0301
0000
0100
,  // measure 18
0000
0010
0000
1000
,  // measure 19
0000
0010
0000
0100
,  // measure 20
0000
0001
0000
0010
,  // measure 21
0000
0100
0000
1000
,  // measure 22
0000
0010
0000
0100
,  // measure 23
0000
0010
0000
1000
,  // measure 24
0000
0010
0000
0100
,  // measure 25
0000
0001
0000
1000
,  // measure 26
0000
0010
0000
0100
,  // measure 27
0000
0020
0000
0000
0000
0000
0000
0000
,  // measure 28
0030
0000
0000
0000
,  // measure 29
0001
0001
0000
0010
,  // measure 30
0000
0001
0000
1000
,  // measure 31
0000
0010
0000
0100
,  // measure 32
0000
0001
0000
0010
,  // measure 33
0000
0100
0000
1000
,  // measure 34
0000
0001
0000
1000
,  // measure 35
0000
0010
0000
0100
,  // measure 36
0000
0001
0000
1000
,  // measure 37
0000
0010
0000
0100
,  // measure 38
0000
0001
0000
1000
,  // measure 39
0000
0010
0000
0100
,  // measure 40
0000
0001
0000
1000
,  // measure 41
0000
0001
0000
0010
,  // measure 42
0000
0100
0000
1000
,  // measure 43
0000
0020
2030
3002
,  // measure 44
0023
0230
2300
3001
,  // measure 45
0200
0000
0000
0300
,  // measure 46
0000
0000
0000
0000
0000
0000
0000
1000
,  // measure 47
0000
0001
0000
0100
0000
0000
0000
0100
,  // measure 48
0000
0001
0000
0010
0000
0000
0000
0010
,  // measure 49
0000
0100
0000
0010
0000
0000
0000
0010
,  // measure 50
0000
0001
0000
1000
0000
0000
0000
1000
,  // measure 51
0000
0010
0000
0100
0000
0000
0000
0100
,  // measure 52
0000
0001
0000
1000
0000
0000
0000
1000
,  // measure 53
0000
0001
0000
0100
0000
0000
0000
0100
,  // measure 54
0000
0001
0000
0010
0000
0000
0000
0002
,  // measure 55
0000
0003
0000
0000
0000
2000
0000
3020
,  // measure 56
0000
0030
0000
2000
0000
3000
0000
0020
,  // measure 57
0000
0000
0000
0000
,  // measure 58
0000
0000
0000
0000
0000
0030
0000
0200
,  // measure 59
0000
0300
0000
0000
0000
0020
0000
2030
,  // measure 60
0000
3000
0000
0002
0000
0003
0000
2000
,  // measure 61
0000
3000
0000
0000
0000
0000
0000
1000
,  // measure 62
0000
0001
0000
1000
0000
0001
0200
0000
,  // measure 63
0300
0000
0000
0000
;
