#VERSION:0.83;
#TITLE:Charcol's Sword Dance;
#SUBTITLE:;
#ARTIST:Zektbach;
#TITLETRANSLIT:;
#SUBTITLETRANSLIT:;
#ARTISTTRANSLIT:;
#GENRE:;
#ORIGIN:;
#CREDIT:;
#BANNER:;
#BACKGROUND:;
#PREVIEWVID:;
#JACKET:Charcol's Sword Dance-jacket.png;
#CDIMAGE:;
#DISCIMAGE:;
#LYRICSPATH:;
#CDTITLE:;
#MUSIC:Charcol's Sword Dance.mp3;
#OFFSET:0.000000;
#SAMPLESTART:67.218468;
#SAMPLELENGTH:12.000000;
#SELECTABLE:YES;
#BPMS:0.000=140.000;
#STOPS:80.250=0.120,
88.000=0.120,
95.750=0.120,
103.500=0.120,
105.250=0.200,
106.750=0.200,
108.250=0.200,
109.750=0.220;
#DELAYS:;
#WARPS:;
#TIMESIGNATURES:0.000=4=4;
#TICKCOUNTS:0.000=4;
#COMBOS:0.000=1;
#SPEEDS:0.000=1.000=0.000=0;
#SCROLLS:0.000=1.000;
#FAKES:;
#LABELS:0.000=Song Start;
#BGCHANGES:;
#KEYSOUNDS:;
#ATTACKS:
;

//---------------dance-single - ----------------
#NOTEDATA:;
#CHARTNAME:;
#STEPSTYPE:dance-single;
#DESCRIPTION:;
#CHARTSTYLE:;
#DIFFICULTY:Hard;
#METER:16;
#RADARVALUES:0.948212,0.920928,0.194182,0.000000,1.540213,752.000000,730.000000,22.000000,0.000000,0.000000,0.000000,0.000000,0.000000,0.000000,0.948212,0.920928,0.194182,0.000000,1.540213,752.000000,730.000000,22.000000,0.000000,0.000000,0.000000,0.000000,0.000000,0.000000;
#CREDIT:;
#NOTES:
0000
0000
0000
0000
1001
0000
0000
0000
1010
0000
0010
0000
0100
0000
0000
0001
,
0000
0000
1000
0000
0000
0000
0100
0000
0000
0010
0000
0000
0011
0000
0000
1001
,
0000
0000
0000
0000
0110
0000
0000
0000
0010
0000
1000
0000
0001
0000
0000
1000
,
0000
0000
0100
0000
0000
0000
0010
0000
0000
0001
0000
0000
1000
0000
0000
0010
,
0000
0000
0000
0000
0000
0000
0100
0000
0000
0000
0000
0000
0000
0000
0000
0000
0000
0000
0010
0000
0000
0000
0000
0000
1000
0000
0000
0000
0000
0000
0000
0000
0001
0100
0000
0000
0000
0000
0000
0000
0000
0000
0010
0000
0000
0000
0000
0000
,
1000
0000
0000
0000
0001
0010
0100
1000
0001
0010
0100
1000
0100
0010
0001
1000
,
0100
0000
0000
0000
0000
0000
0010
0000
0000
0000
0000
0000
0000
0000
0000
0000
0000
0000
0001
0000
0000
0000
0000
0000
1000
0000
0000
0000
0000
0000
0000
0000
0010
0100
0000
0000
0000
0000
0000
0000
0000
0000
0010
0000
0000
0000
0000
0000
,
1000
0000
0000
0000
0001
1000
0010
0100
0001
1000
0010
0100
0001
0010
0100
1000
,
0100
0010
0001
1000
0010
1000
0001
0100
0001
0010
0100
0010
0001
1000
0010
1000
,
0010
0100
0001
1000
0010
0000
0100
0001
0000
1000
0010
0000
0100
0001
1000
0100
,
0010
0001
1000
0010
0000
0100
0001
0000
1000
0010
0100
0001
0000
1000
0000
0010
,
1000
0000
0010
0000
1000
0001
0000
0100
0000
0010
1000
0001
1000
0100
0010
0001
,
0000
0010
0100
0000
1000
0010
1000
0001
0000
0010
0100
0000
1000
0000
0001
1000
,
0000
0100
0010
0000
0001
0010
0100
1000
0010
0100
0010
1000
0000
0001
1000
0000
,
0010
0100
0001
0010
0000
0100
0000
1000
0010
0000
0100
0001
0000
1000
0100
0000
,
0010
0100
0010
0001
1000
0100
0010
0001
0000
0100
0010
0000
1000
0010
0100
0001
,
0000
0000
0000
0100
0000
0000
0010
0000
0000
0000
0000
0000
1000
0000
0010
0000
0100
0000
0001
0000
1000
0000
0000
0000
0001
0000
0010
0000
0100
0000
1000
0000
0000
0000
0000
0000
1000
0000
0010
0000
0100
0000
0001
0000
0000
0000
0000
0000
,
0001
0010
0100
1000
0000
0000
1000
0010
0100
0001
0000
0000
0001
0010
0100
1000
0000
0000
1000
0010
0100
0001
0000
0000
,
0001
0000
0010
0000
0100
0000
1000
0000
0000
0000
0000
0000
0010
0000
0000
0100
0000
0000
0001
0000
0000
1000
0000
0000
0100
0000
0000
1000
0000
0000
0010
0000
0000
0100
0000
0000
0001
0000
0000
0010
0000
0000
0001
0000
0000
1000
0000
0000
,
0100
1000
0010
0100
0001
1000
0100
0010
0001
1000
0100
0010
0001
0100
0001
1000
,
0000
1001
0000
1000
0010
1000
0100
0010
0001
0000
1000
0010
1000
0001
0100
0010
,
0100
0001
0010
0001
1000
0100
0010
0100
1000
0010
0100
0001
0100
0010
1000
0000
,
1100
0000
0100
0010
0001
0010
0100
1000
0010
1000
0001
0100
0001
0010
0100
0010
,
0001
1000
0100
1000
0001
0010
0100
0010
0001
1000
0010
0100
1000
0100
0000
0110
,
0000
0010
0100
0001
0100
1000
0100
0000
0010
1000
0001
0010
1000
0010
0001
1000
,
0010
0100
0001
0010
0001
1000
0100
1000
0010
0100
1000
0100
0001
0000
0101
0000
,
0100
0010
1000
0100
0010
0001
1000
0010
0100
0001
0010
0100
1000
0010
0100
1000
,
0100
0001
0010
0100
0010
0001
1000
0010
0100
0010
1000
0001
0100
0001
1000
0100
,
0010
0001
1000
0100
0010
0001
0010
0100
1000
0001
0010
0100
1000
0001
1000
0010
,
0100
0001
1000
0010
0100
0001
0010
0100
1000
0010
0100
1000
0100
0001
0010
0100
,
0010
0001
1000
0010
0001
1000
0100
0001
1000
0100
0010
0100
1000
0001
0010
0100
,
0010
0001
1000
0010
0001
0010
1000
0100
0001
0100
1000
0010
0100
1000
0100
0001
,
0010
0100
1000
0001
0100
1000
0100
0001
1000
0010
0001
0010
0100
0001
0010
0100
,
0010
0001
1000
0100
0010
0100
1000
0010
0100
1000
0100
0001
0010
0100
1000
0001
,
0100
0010
0001
0010
0100
1000
0100
0001
1000
0100
0010
0001
1000
0010
0001
1000
,
0100
0001
1000
0010
0100
0001
0010
1000
0010
0000
0001
0010
0100
1000
0010
0100
,
1000
0000
0000
0100
0000
0000
0001
0000
1000
0000
0000
0000
0010
0000
0000
0100
0000
0000
0001
0000
0000
0010
0000
0000
0001
0000
0000
1000
0000
0000
0100
0000
0000
1000
0000
0000
0010
0000
0000
0100
0000
0000
0001
0000
0010
0000
0000
0000
,
0100
0000
0000
1000
0000
0000
0010
0000
0000
0100
0000
0000
0001
0000
0000
0010
0000
0000
0001
0000
0000
1000
0000
0000
0010
0000
0000
0100
0000
0000
0001
0000
1000
0000
0000
0000
0001
0000
0000
0010
0000
0000
0100
0000
0000
1000
0000
0000
,
0100
0000
0000
0010
0000
0000
0001
0000
0000
1000
0000
0000
0010
0000
0000
1000
0000
0000
0001
0000
0100
0000
0000
0000
0010
0000
0000
1000
0000
0000
0001
0000
0000
0000
0000
0000
1000
0000
0000
0000
0000
0000
0010
0000
0000
0100
0000
0000
,
0000
0000
0000
0001
0000
0000
0000
0000
0000
1000
0000
0000
0010
0000
0000
0100
0000
0000
0001
0000
1000
0000
0010
0000
1000
0000
0001
0000
0100
0000
0010
0000
0000
1000
0000
0000
0001
0000
0000
0010
0000
0000
0100
0000
0000
1000
0000
0000
,
0000
0100
0000
0010
0001
1000
0010
0000
0100
0000
0000
0010
1000
0000
0000
0000
,
1001
0000
0000
0001
0100
0000
0000
0000
0101
0000
0000
0001
1000
0010
1000
0100
,
0010
0000
0000
0010
0001
0000
0000
0000
0100
0001
1000
0000
0001
0000
0100
0010
,
0000
0000
0000
1000
0000
0000
0000
0000
0000
0001
0000
0000
0100
0000
0000
0010
0000
0000
1000
0000
0001
0000
0100
0000
0001
0000
1000
0000
0010
0000
0100
0000
0000
0001
0000
0000
1000
0000
0000
0100
0000
0000
0010
0000
0000
0001
0000
0000
,
0000
0010
0000
0100
1000
0001
0100
0000
0010
0000
0000
0100
0001
0000
0000
0000
,
0101
0000
0000
0100
0010
0000
0000
0000
1010
0000
0000
1000
0001
0100
0001
0010
,
0100
0000
0000
0100
0010
0000
0000
0000
0001
1000
0001
1000
0000
0001
0000
0100
,
0010
0000
0010
0000
0000
1000
0001
0000
0000
0001
0010
0000
0010
0000
0100
1000
,
0010
1000
0000
0001
0000
0100
0010
0100
0010
1000
0000
0001
0000
1000
0010
0100
,
0001
0010
0100
1000
0001
0000
0100
0000
0100
0010
1000
0100
0000
0010
0000
0000
,
0001
0010
0001
0100
0000
0010
0000
1000
0100
0000
0000
0010
0000
0001
1000
0000
,
1000
0100
0000
0000
1000
0000
0001
0100
0000
0001
0000
0000
1000
0001
0000
1000
,
0100
0000
0000
0001
0000
0000
0100
0000
0000
1000
0000
0000
0010
0000
0100
0000
0000
0000
0000
0000
0000
0010
0000
0000
0100
0000
0000
0010
0000
0000
1000
0000
0000
0001
0000
0000
1000
0000
0000
0100
0000
0000
0010
0000
0000
0001
0000
0000
,
1000
0010
1000
0001
0100
0010
0000
0000
1001
0000
1000
0000
0001
0000
0101
0000
,
0100
0000
1010
0000
0000
0101
0000
0000
0001
0100
0000
0000
0010
1000
0001
0000
,
0100
0010
1000
0000
0001
0010
0100
0000
1000
0010
0100
0000
0001
0000
1000
0010
,
1000
0000
0000
0000
0000
0000
0001
0000
0100
0000
0000
0000
0000
0000
0000
1010
0000
0000
0000
0000
0000
0000
0000
0000
0100
0000
0010
0000
0000
0000
0000
0000
0000
0000
0000
0000
1000
0000
0000
0100
0000
0000
0010
0000
0000
0000
0000
0000
,
0100
0010
0001
0000
0010
0001
1000
0000
1001
0000
0000
0000
0101
0000
0100
0000
,
0010
0000
0000
1000
0000
0000
0001
0000
0000
0000
0010
0000
0000
0100
0000
0000
,
1000
0000
0000
0001
0000
0000
0000
0000
0110
0000
0000
0000
0100
0000
0001
0000
,
1000
0000
0000
0001
0000
0000
0010
0000
0000
0000
0100
0000
0000
1000
0000
0000
,
0001
0000
0000
0100
0000
0000
0110
0000
0000
0000
0000
0000
0000
0000
0000
0000
;

//---------------dance-single - ----------------
#NOTEDATA:;
#CHARTNAME:;
#STEPSTYPE:dance-single;
#DESCRIPTION:;
#CHARTSTYLE:;
#DIFFICULTY:Medium;
#METER:12;
#RADARVALUES:0.540935,0.568809,0.035306,0.044132,0.485454,429.000000,425.000000,4.000000,5.000000,0.000000,0.000000,0.000000,0.000000,0.000000,0.540935,0.568809,0.035306,0.044132,0.485454,429.000000,425.000000,4.000000,5.000000,0.000000,0.000000,0.000000,0.000000,0.000000;
#CREDIT:;
#NOTES:
0000
0000
0000
0000
0001
0000
0000
0000
0100
0000
0001
0000
1000
0000
0000
0001
,
0000
0000
1000
0000
0000
0000
0100
0000
0000
0010
0000
0000
0001
0000
0000
1000
,
0000
0000
0000
0000
1001
0000
0000
0000
0001
0000
1000
0000
0100
0000
0000
0010
,
0000
0000
0001
0000
0000
0000
1000
0000
0000
0010
0000
0000
0100
0000
0000
0001
,
0000
0000
2000
0000
0000
0000
3001
0000
1000
0000
0000
0010
0000
0000
0100
0000
,
0001
0000
1000
0010
0100
0001
0010
0100
,
1000
0000
0010
0000
0000
0000
0100
0000
0001
0000
0000
1000
0000
0000
0010
0000
,
0100
0000
0001
1000
0001
0100
0010
0100
,
0001
0010
0001
1000
0100
1000
0010
0100
,
0010
0000
1000
0000
0001
0000
0000
0001
0000
0000
0001
0000
1000
0000
0010
0000
,
1000
0000
0000
0001
0000
0100
0020
0000
0000
0000
0000
0000
0030
0000
0000
0000
,
1000
0000
0001
0000
1000
0010
0000
0100
0000
0000
0000
0000
0001
0000
0000
0100
,
0000
0000
0002
0000
0000
0000
0000
0000
0000
0000
0000
0000
0013
0000
0000
0100
,
0000
0000
0010
0000
0001
0000
1000
0000
0010
0000
0000
0100
0000
0001
2000
0000
,
0000
0000
0000
0000
3010
0000
0000
0000
0100
0000
0000
0001
0000
0000
0010
0000
,
0000
0000
0100
0000
1000
0000
0010
0000
0000
0100
0002
0000
0000
0000
0000
0000
,
0000
0000
0003
0000
0001
0000
0000
0001
0100
0000
0000
0100
0010
0000
0000
0010
,
1000
0000
0000
1000
0100
0000
0000
0100
0010
0000
0000
0010
0001
0000
0000
0001
,
0010
0000
0100
1000
0100
0010
0001
0010
,
1000
0000
0001
0000
1000
0000
0010
0000
0100
0000
0010
0000
1000
0000
0001
0010
,
0000
0100
0000
1000
0000
0001
0000
0010
0000
0100
0000
0010
0000
0001
0000
1000
,
0000
0010
0000
0100
0000
0001
0000
1000
0000
0010
0000
0100
0000
0001
1000
0000
,
0010
1000
0100
0010
0001
1000
0010
1000
,
0001
0000
0010
0000
0100
0000
0010
0000
0001
0000
1000
0000
0001
0010
0000
0001
,
0000
1000
0000
0010
0000
0100
0000
0001
0000
0010
0000
0001
0000
1000
0000
0100
,
0000
1000
0000
0010
0000
0100
0000
0001
0000
1000
0000
0010
1000
0000
0001
0000
,
1000
0000
0100
0000
0010
0001
0010
0000
0100
0000
1000
0100
1000
0000
0010
0000
,
0100
0010
0100
0000
0010
0000
1000
0001
1000
0000
0010
0000
0100
0000
0001
0000
,
0010
0001
1000
0100
1000
0010
0100
0001
,
0010
0100
0010
0001
1000
0100
1000
0010
,
0100
0010
1000
0001
0100
0001
0010
0001
,
0010
0100
0010
0001
1000
0010
0100
0001
,
1000
0100
1000
0010
0100
0010
1000
0100
,
0010
0001
0010
0100
1000
0010
0100
0001
,
1000
0100
0010
0100
1000
0010
0100
0001
,
0010
0001
1000
0100
1000
0010
0100
0010
,
1000
0000
0000
0001
1000
0000
0010
0000
0000
0100
0000
0000
0001
0000
0000
1000
0000
0000
0010
0000
0000
1000
0001
0000
,
0100
0000
0000
0010
0000
0000
1000
0000
0000
0100
0000
0000
0010
0000
0000
0001
0010
0000
0100
0000
0000
1000
0000
0000
,
0100
0000
0000
0000
0000
0000
0010
0000
0000
0000
0000
0000
0001
0000
0000
0000
0000
0000
1000
0000
0100
0000
0000
0000
0010
0000
0000
0000
0000
0000
0001
0000
0000
0000
0000
0000
1000
0000
0000
0000
0000
0000
0010
0000
0000
0100
0000
0000
,
0000
0010
0000
0100
0001
0000
1000
0000
0010
0000
1000
0000
0100
0000
0010
0000
,
0000
0001
0000
0000
0010
0000
0100
0000
1000
0000
0000
0010
0100
0000
0000
0000
,
0100
0000
0000
0001
0010
0000
0000
0000
0010
0000
0000
0000
0100
0000
1000
0000
,
0001
0000
0000
1000
0001
0000
0000
0000
0100
0000
0010
0000
1000
0000
0001
0100
,
0000
0010
0000
0100
0001
0000
1000
0000
0100
0000
1000
0000
0010
0000
0100
0000
,
0000
0001
0000
0000
1000
0000
0100
0000
0010
0000
0000
0001
0100
0000
0000
0000
,
0100
0000
0000
1000
0010
0000
0000
0000
0010
0000
0000
0000
0100
0000
0001
0000
,
1000
0000
0000
0001
0100
0000
0000
0000
0100
0000
0010
0000
0000
1000
0000
0000
,
0001
0000
0100
0000
0000
0000
0010
0000
0000
1000
0000
0000
0100
0000
0010
0000
,
0001
0000
0000
0010
0000
0000
0100
0000
1000
0000
0000
0010
0000
0000
0100
0000
,
0001
0000
1000
0000
0001
0000
0100
0000
0010
0000
0000
1000
0000
0001
0000
0000
,
0100
0000
0000
0010
0000
1000
0000
0001
0000
0000
0000
0100
0000
0000
0010
0000
,
0000
1000
0000
0000
0001
0000
0010
0000
0000
0100
0000
0000
1000
0000
0000
0010
,
0000
0000
0000
0100
0001
0000
0000
0100
0000
0000
0010
0000
1000
0000
0001
0000
,
0100
0010
1000
0000
0001
1000
0001
0001
,
0100
0000
0100
0000
0000
0001
0000
0000
1000
0000
0000
0000
0010
1000
0000
0000
,
1000
0001
0000
0000
0001
0010
0000
0000
0010
0100
0000
0000
0100
0000
1000
0000
,
0001
0000
1000
0000
0000
0010
0000
0000
0100
0000
0000
0000
0001
0100
0000
0000
,
0100
0010
0000
0000
0010
1000
0000
0000
1001
0000
0000
0000
0001
0000
0100
0000
,
0010
0000
0000
1000
0000
0000
0001
0000
0000
0000
0010
0000
0000
0100
0000
0000
,
1000
0000
0000
0001
0000
0000
0000
0000
0101
0000
0000
0000
0100
0000
0010
0000
,
1000
0000
0000
0010
0000
0000
0100
0000
0000
0000
0001
0000
0000
0010
0000
0000
,
0100
0000
0000
0010
0000
0000
0110
0000
0000
0000
0000
0000
0000
0000
0000
0000
;

//---------------dance-single - ----------------
#NOTEDATA:;
#CHARTNAME:;
#STEPSTYPE:dance-single;
#DESCRIPTION:;
#CHARTSTYLE:;
#DIFFICULTY:Easy;
#METER:5;
#RADARVALUES:0.311447,0.352120,0.035306,0.044132,0.119157,247.000000,243.000000,4.000000,5.000000,0.000000,0.000000,0.000000,0.000000,0.000000,0.311447,0.352120,0.035306,0.044132,0.119157,247.000000,243.000000,4.000000,5.000000,0.000000,0.000000,0.000000,0.000000,0.000000;
#CREDIT:;
#NOTES:
0000
0000
1000
0000
0010
1000
0001
0000
,
0000
0001
0000
0010
0000
0000
1000
0000
,
0000
0000
1001
0000
1000
0001
0010
0000
,
0000
1000
0000
0001
0000
0000
0010
0000
,
0000
0002
0000
1003
0001
0000
0000
0010
,
1000
0001
0010
0100
,
0001
0000
1000
0000
,
0010
1000
1000
0100
,
1000
1000
0010
0100
,
0100
1000
0000
0001
,
0001
0000
0000
1000
0000
0000
0200
0000
0000
0000
0000
0000
0300
0000
0000
0000
,
0001
0001
0000
1000
,
0000
2000
0000
0000
0000
0000
3100
0000
,
0000
0000
0000
0000
1000
0000
0000
0000
0100
0000
0000
0010
0000
0000
0002
0000
,
0000
0000
0103
0000
0010
0000
0000
0100
,
0000
0010
0001
0100
0000
2000
0000
0000
,
0000
3000
1000
0000
0010
0000
0100
0000
,
0001
0010
0100
1000
,
0100
0010
0010
1000
,
0001
0000
0000
0000
0001
0000
0000
0000
0010
0000
0000
0000
0001
0000
1000
0100
,
0000
0010
0000
0001
0000
0000
0000
0100
0000
0000
0000
0100
0000
0000
0000
0001
,
0000
0000
0000
0010
0000
0000
0000
0001
0000
0000
0000
0010
0000
1000
0001
0000
,
0100
0001
0000
0100
0000
0001
0000
1000
,
0000
0000
0010
0000
0000
0000
1000
0000
0000
0000
0001
0000
1000
0100
0000
1000
,
0000
0001
0000
0000
0000
0010
0000
0000
0000
0100
0000
0000
0000
0001
0000
0000
,
0000
0001
0000
0000
0000
0010
0000
1000
0000
0000
0000
0100
0001
0000
1000
0000
,
0001
0000
0000
0000
0100
1000
0000
0000
0000
0000
0001
0010
0000
0000
0000
0000
,
0010
0100
0000
0000
0000
0000
0001
1000
0000
0000
0000
0000
0010
0000
0000
0000
,
0100
0001
1000
0010
,
0100
0010
1000
0100
,
0010
0001
0010
0100
,
1000
0010
0100
0001
,
1000
0010
0100
0001
,
1000
0010
0100
0001
,
1000
0100
0010
0100
,
1000
0100
0010
0001
,
0100
0010
1000
0001
,
0010
0001
0100
0010
,
1000
0001
0100
0001
,
0100
0000
1000
0001
0100
0000
0010
0000
,
0000
0100
0001
0010
,
0010
0100
0100
0010
,
1000
1000
0010
0001
,
0100
0000
1000
0001
0010
0000
0100
0000
,
0000
0001
0100
0010
,
0010
0100
0100
0010
,
0001
0000
0010
0000
0010
0100
0000
0000
,
1000
0010
0000
0100
0000
0000
0010
0100
,
1000
0000
0000
0010
0001
0000
0000
0010
,
1000
0001
1000
0010
0100
0000
0000
0000
,
0010
0000
0000
0000
0100
0000
0000
0100
,
0000
0000
1000
0100
0000
0000
0010
0000
,
0000
0001
0000
0001
,
0010
1000
0010
0000
1000
0000
0010
0010
,
0010
0000
0010
0000
0000
1000
0000
0000
0001
0000
0000
0000
0100
0000
0000
0000
,
0001
1000
0100
0010
,
1000
0001
0000
0000
0010
0000
1000
0000
,
0010
0100
1001
1000
,
0100
0010
0100
0100
,
0001
0000
1010
0010
,
0001
0000
0000
0000
,
0010
0000
0000
0110
0000
0000
0000
0000
;

//---------------dance-single - ----------------
#NOTEDATA:;
#CHARTNAME:;
#STEPSTYPE:dance-single;
#DESCRIPTION:;
#CHARTSTYLE:;
#DIFFICULTY:Beginner;
#METER:3;
#RADARVALUES:0.171485,0.243775,0.000000,0.000000,0.075025,136.000000,136.000000,0.000000,0.000000,0.000000,0.000000,0.000000,0.000000,0.000000,0.171485,0.243775,0.000000,0.000000,0.075025,136.000000,136.000000,0.000000,0.000000,0.000000,0.000000,0.000000,0.000000,0.000000;
#CREDIT:;
#NOTES:
// measure 0
0000
0001
0000
1000
,  // measure 1
0000
0000
0010
0001
,  // measure 2
0000
1000
0001
1000
,  // measure 3
0000
0001
0000
0100
,  // measure 4
0000
0000
1000
0000
,  // measure 5
0001
0000
0100
0000
,  // measure 6
1000
0000
0001
0000
,  // measure 7
0100
0000
0001
0000
,  // measure 8
0001
0000
0100
0000
,  // measure 9
0010
0000
0000
1000
,  // measure 10
0000
0000
0000
0010
0000
0000
0000
0000
,  // measure 11
1000
0000
0100
0001
,  // measure 12
0000
0001
0000
0000
0000
0000
1000
0000
,  // measure 13
0000
0001
0000
1000
,  // measure 14
0000
0000
0010
0000
0100
0000
0000
0010
,  // measure 15
0000
0000
0000
0010
0000
0001
0000
0000
,  // measure 16
0000
0001
0000
0010
,  // measure 17
0000
0100
0000
0001
,  // measure 18
0000
0100
0000
0001
,  // measure 19
0000
1000
0000
1000
,  // measure 20
0000
0100
0000
1000
0000
0000
0000
0010
0000
0000
0000
0010
0000
0000
0000
1000
,  // measure 21
0000
0000
0000
0100
0000
0000
0000
1000
0000
0000
0000
0100
0000
0000
0000
0000
,  // measure 22
0010
1000
0000
0000
0000
1000
0000
0000
,  // measure 23
0000
0000
0100
0000
0000
0000
0000
0000
0000
0000
1000
0000
0000
0000
0000
0001
,  // measure 24
0000
1000
0000
0000
0000
0000
0000
0000
0000
0010
0000
0000
0000
0000
0000
0000
,  // measure 25
0000
1000
0000
0000
0000
0000
0000
0001
0000
0000
0000
0000
0000
0000
0001
0000
,  // measure 26
1000
0000
0000
0000
0000
0001
0000
0000
0000
0000
0000
0100
0000
0000
0000
0000
,  // measure 27
0000
0010
0000
0000
0000
0000
0000
0001
0000
0000
0000
0000
0100
0000
0000
0000
,  // measure 28
0000
1000
0000
0100
,  // measure 29
0000
0100
0000
0010
,  // measure 30
0000
1000
0000
0010
,  // measure 31
0000
0100
0000
1000
,  // measure 32
0000
0100
0000
1000
,  // measure 33
0000
0100
0000
1000
,  // measure 34
0000
0010
0000
0010
,  // measure 35
0000
0010
0000
1000
,  // measure 36
0000
0100
0000
1000
,  // measure 37
0000
1000
0000
0100
,  // measure 38
0000
1000
0000
1000
,  // measure 39
0000
0001
0000
0100
,  // measure 40
0000
0010
0000
0100
,  // measure 41
0000
0010
0000
0100
,  // measure 42
0000
0001
0000
1000
,  // measure 43
0000
0001
0000
0010
,  // measure 44
0000
1000
0000
0100
,  // measure 45
0000
0010
0000
0100
,  // measure 46
0000
0000
0100
0000
0000
0010
0000
0000
,  // measure 47
0001
0000
0000
0010
0000
0000
0000
0010
,  // measure 48
0000
0000
0000
0100
0000
0000
0000
0000
,  // measure 49
0001
0000
0010
0000
,  // measure 50
0100
0000
0000
0000
0010
0000
0000
0010
,  // measure 51
0000
0000
0001
0010
0000
0000
0100
0000
,  // measure 52
0000
1000
0000
1000
,  // measure 53
0000
0100
0001
0100
,  // measure 54
0100
0000
1000
0000
,  // measure 55
1000
0000
0010
0000
,  // measure 56
0001
0000
0100
0000
,  // measure 57
0100
0000
1000
0000
,  // measure 58
0010
0000
0010
0000
,  // measure 59
1000
0000
0001
0000
,  // measure 60
1000
0000
0000
0000
,  // measure 61
0100
0000
0000
0010
0000
0000
0000
0000
;
