#TITLE:Catharsis Garden;
#SUBTITLE:;
#ARTIST:TERRA;
#TITLETRANSLIT:;
#SUBTITLETRANSLIT:;
#ARTISTTRANSLIT:;
#CREDIT:;
#BANNER:Catharsis Garden-bn.png;
#BACKGROUND:Catharsis Garden-bg.png;
#LYRICSPATH:;
#CDTITLE:;
#MUSIC:Catharsis Garden.mp3;
#OFFSET:-0.060;
#SAMPLESTART:57.365;
#SAMPLELENGTH:12.000;
#SELECTABLE:YES;
#BPMS:0.000=195.000;
#STOPS:;
#BGCHANGES:;

//---------------dance-single - Copied from----------------
#NOTES:
     dance-single:
     Copied from:
     Hard:
     13:
     0.781,0.812,0.595,0.368,0.132: // measure 1
0000
1001
0000
0101
0000
0110
0000
1000
,  // measure 2
0100
1000
0010
0100
0010
0000
0010
0100
,  // measure 3
1000
0100
0010
1000
0001
0000
0001
0100
,  // measure 4
0010
0100
0001
1000
0001
0000
0100
0010
,  // measure 5
0001
0010
1000
0010
0100
0000
0010
1000
,  // measure 6
0000
1000
1001
0000
0101
0000
0001
0010
,  // measure 7
0100
1000
0000
1010
0000
0110
0000
0010
,  // measure 8
2000
0002
0000
0000
0000
0000
3003
1010
,  // measure 9
0000
0100
0001
0000
0101
0000
0001
0010
,  // measure 10
0100
1000
0100
0000
0110
0000
0001
0010
,  // measure 11
0100
1000
0010
0000
1010
0000
1000
0010
,  // measure 12
0100
0001
1000
0000
1010
0000
0001
1000
,  // measure 13
0010
0100
0002
0000
0100
0000
0000
2003
,  // measure 14
0000
3010
0200
0000
0302
0000
0003
0020
,  // measure 15
0000
0230
0000
2300
0000
3020
0000
0100
,  // measure 16
0030
2010
0000
0001
3000
0102
0000
1000
,  // measure 17
0003
2010
0000
0000
0000
3001
0010
0100
,  // measure 18
1000
0010
0100
0010
1000
0100
0010
0001
,  // measure 19
0100
0010
0100
0001
0010
0100
1000
0010
,  // measure 20
0100
0010
1000
0100
0010
0001
1001
0000
,  // measure 21
1000
0001
0102
0000
0000
1003
0100
0010
,  // measure 22
0001
0100
0010
0100
0001
0010
0100
1000
,  // measure 23
0010
0100
0010
1000
0100
0010
0001
0100
,  // measure 24
0010
0100
0001
0010
0100
1000
1001
0000
,  // measure 25
0001
1000
2010
0000
0000
3010
0100
0001
,  // measure 26
1000
0000
1000
0010
0100
0000
0100
0001
,  // measure 27
1000
0000
0010
0010
0010
1000
0001
0100
,  // measure 28
0010
0000
0010
0100
0001
0000
0001
0010
,  // measure 29
0100
2000
0000
3001
0000
1000
0100
0001
,  // measure 30
0100
0000
0100
0010
0001
0000
0001
0100
,  // measure 31
0010
0000
0010
1000
0100
0010
0001
1000
,  // measure 32
0010
0000
0010
0100
0002
2000
0000
0000
,  // measure 33
3003
1010
0000
0101
0000
0001
0010
0100
,  // measure 34
1000
0100
0010
0001
1000
0010
0100
0001
,  // measure 35
0010
0100
1000
0010
0100
0001
0010
0100
,  // measure 36
1000
0100
0010
0001
1000
0010
0100
0001
,  // measure 37
1000
0010
0100
0001
0000
1001
0000
1000
,  // measure 38
0010
0000
1000
0010
0100
0001
0000
0010
,  // measure 39
0100
0000
1000
0010
0100
0001
0010
0100
,  // measure 40
1000
0000
0010
0100
0001
0010
0100
0010
,  // measure 41
0000
0000
0000
0012
0000
0000
0000
0000
0000
0000
0000
0000
0000
0000
0000
1003
0000
0010
0000
1000
0000
0100
0000
0000
,  // measure 42
0000
0000
0000
0100
0000
0010
0000
0100
0000
1000
0000
0000
0000
0000
0000
1000
0000
0010
0000
1000
0000
0100
0000
0000
,  // measure 43
0000
0000
0000
0100
0000
0010
0000
0100
0000
1000
0000
0000
0000
0000
0000
1000
0000
0000
1100
0000
0000
0000
0000
0000
,  // measure 44
0010
0011
0000
0100
0110
0000
0100
1010
,  // measure 45
0000
1001
0000
0101
0000
0001
0010
0100
,  // measure 46
1000
0000
0001
0100
0010
2000
0000
0010
,  // measure 47
0000
0002
0000
0000
3003
0101
0000
0110
,  // measure 48
0000
1000
0010
0000
0110
0000
0100
0001
,  // measure 49
0100
0010
1000
0000
1001
0000
0001
0010
,  // measure 50
0100
0010
0100
0000
1100
0000
1000
0001
,  // measure 51
1000
0001
0100
0000
0110
0000
0010
1000
,  // measure 52
0001
1000
0100
0000
0110
0000
0010
0001
,  // measure 53
0010
0100
0000
1010
0000
0101
0000
0100
,  // measure 54
0002
2000
0000
0000
0000
0000
3003
1010
,  // measure 55
0000
0100
0001
0000
1001
0000
1000
0010
,  // measure 56
0100
0001
1000
0000
1100
0000
0100
0010
,  // measure 57
0001
0010
0100
0000
0110
0000
0010
0100
,  // measure 58
1000
0001
0100
0000
0101
0000
0000
1010
,  // measure 59
0000
1001
0000
1100
0000
0000
0000
0010
,  // measure 60
0000
0100
0010
0000
0010
0000
0000
0110
,  // measure 61
0000
1001
0000
0101
0000
0002
0000
0100
,  // measure 62
0000
0023
0000
0001
0000
0230
0000
0010
,  // measure 63
0000
2300
0000
0000
0000
0100
0000
0100
,  // measure 64
0000
3100
0010
0000
0011
0000
0001
0100
,  // measure 65
0000
0110
0000
0010
1000
0000
0100
1000
,  // measure 66
0100
0010
0001
0000
0101
0000
0100
1000
,  // measure 67
0100
0001
1000
0000
0001
0000
0100
0010
,  // measure 68
0100
1000
0100
0000
0010
0000
0010
1000
,  // measure 69
0000
2020
0000
3030
0220
0000
0000
0000
,  // measure 70
0330
0202
0000
0000
0000
0303
0000
0101
,  // measure 71
0000
0000
0000
0010
0000
0000
0100
0000
0000
0000
0000
0000
1100
0000
0000
0000
0000
0000
1000
0000
0100
0000
1000
0000
,  // measure 72
0100
1000
0100
0000
0000
0000
0110
0000
0000
0010
0001
0010
,  // measure 73
0001
0010
0001
0000
0000
0000
1001
0000
0000
1000
0010
1000
,  // measure 74
0010
1000
0010
0000
0000
0000
0101
0000
0000
0001
1000
0001
,  // measure 75
1000
0000
0001
0000
1000
0000
0000
0000
0000
0000
0000
0000
0110
0000
0000
0000
0000
0000
0010
0000
0000
1000
0000
0000
,  // measure 76
0010
0100
0001
0000
0011
0000
0010
0100
,  // measure 77
1000
0100
0010
0000
0001
0200
0000
0000
,  // measure 78
0000
0302
0000
0000
0000
2003
0000
0000
,  // measure 79
0000
3020
0000
0000
0000
1030
0100
0010
,  // measure 80
0001
0010
0100
1000
0100
0010
0001
0010
,  // measure 81
0100
0000
1000
0000
0100
0000
0010
0000
0001
0000
1000
0000
0010
1000
0010
0000
,  // measure 82
0100
0001
0100
0000
0001
0000
0010
0000
0100
0000
1000
0000
0100
1000
0100
0000
,  // measure 83
0010
0001
0010
0000
0001
0000
1000
0000
0001
0000
2002
0000
0000
0000
0000
0000
,  // measure 84
0000
0000
0000
0000
,  // measure 85
0000
0000
0000
0000
,  // measure 86
0000
0000
0000
0000
,  // measure 87
3003
0000
0000
0000
;

//---------------dance-single - Copied from Copied f----------------
#NOTES:
     dance-single:
     Copied from Copied f:
     Medium:
     10:
     0.607,0.609,0.160,0.415,0.000:
0000
0100
0000
0100
0000
1001
0000
0010
,
0000
0100
0010
0000
0100
0000
0000
0100
,
0000
0001
1000
0000
0010
0000
0000
1000
,
0000
0010
1000
0000
0001
0000
0000
0010
,
0000
0100
1000
0000
0010
0000
0000
0101
,
0000
0010
0010
0000
1010
0000
1000
0001
,
0100
0010
0000
0100
0000
0100
0000
0000
,
0002
2000
0000
0000
0000
0000
3003
0100
,
0000
0010
1000
0000
0001
0000
0000
0100
,
0000
0001
0010
0000
0100
0000
0000
1000
,
0001
1000
0100
0000
0010
0000
0000
0001
,
0010
0100
1000
0000
0010
0000
0000
0100
,
0000
0001
2000
0000
0000
0000
0000
3002
,
0000
0103
0020
0000
2030
0000
3000
0200
,
0000
0320
0000
0032
0000
0203
0000
0000
,
0000
0302
0000
0000
0000
2003
0000
0000
,
0000
3020
0000
0000
0000
1030
0100
1000
,
0000
0001
0010
0001
0000
0100
0010
0100
,
0000
0010
1000
0001
0000
0100
0001
1000
,
0000
0010
0100
0001
0000
1000
1001
0000
,
0001
1000
0020
0000
0030
0100
0001
0100
,
0000
0010
1000
0010
0000
0100
0001
1000
,
0000
0100
0010
0001
0000
0100
0010
1000
,
0000
0001
0100
0010
0000
1000
1001
0000
,
1000
0001
0200
0000
0300
0010
1000
0010
,
0100
0000
0001
0100
0010
0000
1000
0001
,
0100
0000
0010
0100
0001
1000
0001
1000
,
0010
0000
0100
0010
1000
0000
0001
0100
,
0010
2000
0000
0000
3000
0001
0100
0001
,
0100
0000
0010
1000
0010
0000
0100
0010
,
0100
0000
0001
1000
0001
0100
0010
0100
,
0010
0000
0100
0010
2000
0002
0000
0000
,
3003
0100
0000
0010
0000
1000
0001
0010
,
0000
0100
1000
0100
0000
0010
0001
0010
,
0000
0100
1000
0001
0000
0100
0001
1000
,
0000
0010
0100
0010
0000
0100
0010
1000
,
0000
0100
0010
0001
0000
1001
0000
0100
,
0100
0000
0001
0100
0010
1000
0000
0010
,
0010
0000
0000
0100
0000
0001
0100
0001
,
1000
0000
0010
1000
0010
0100
0000
0000
,
0000
2001
0000
0000
0000
0002
0000
0000
,
3003
0000
0001
0100
0001
1000
0000
0001
,
0000
0100
0000
1001
0000
0001
0001
0000
,
1000
1000
0000
0010
0010
0000
0100
0100
,
0000
1001
0000
0110
0000
1000
0100
0010
,
0001
0000
1000
0100
0010
0002
0000
0000
,
0000
2000
0000
0000
3003
1001
0000
0100
,
0000
0010
0100
0000
0010
0000
0000
0010
,
0000
1000
0001
0000
0100
0000
0000
0001
,
0000
0100
0001
0000
1000
0000
0000
0100
,
0000
0010
0001
0000
0100
0000
0000
1010
,
0000
0100
0100
0000
0101
0000
0001
1000
,
0010
0100
0000
0010
0000
0010
0000
0000
,
2000
0002
0000
0000
0000
0000
3003
0010
,
0000
0100
0001
0000
1000
0000
0000
0010
,
0000
1000
0100
0000
0010
0000
0000
0001
,
1000
0001
0010
0000
0100
0000
0000
1000
,
0100
0010
0001
0000
0100
0000
0000
0010
,
0000
1000
0000
0002
0000
0000
0000
2003
,
0000
3010
0200
0000
0302
0000
0003
0020
,
0000
0230
0000
2300
0000
3020
0000
0000
,
0000
2030
0000
0000
0000
3002
0000
0000
,
0000
2003
0000
0000
0000
0010
0000
0010
,
0000
3010
0100
0000
1001
0000
1000
0010
,
0000
0100
0100
0000
0001
0000
0000
1000
,
0000
0010
0100
0000
0100
0000
0001
0100
,
0001
0010
0001
0000
1000
0000
0000
0100
,
0000
0010
0001
0000
0100
0000
0100
0010
,
0000
0200
0000
0000
0320
0000
0000
0000
,
0000
2000
0030
0000
0000
3000
0000
1001
,
0000
0010
0010
0000
0100
0000
0001
0100
,
0001
0100
0010
0000
0100
0000
0010
0100
,
0010
0100
0001
0000
1000
0000
0001
0100
,
0001
1000
0001
0000
0010
0000
0100
1000
,
0100
1000
0001
0000
1001
0000
1000
0001
,
1000
0010
1000
0000
1100
0000
0100
0010
,
0001
0010
0100
0000
1000
0020
0000
0000
,
0000
2030
0000
0000
0000
3002
0000
0000
,
0000
0203
0000
0000
0000
0301
1000
0001
,
0000
1000
0001
1000
0000
0010
0100
0010
,
0000
0100
0010
0100
0000
0001
1000
0001
,
1000
0001
1000
0001
1000
0001
0100
0010
,
0100
0010
0100
0010
2000
0002
0000
0000
,
0000
0000
0000
0000
,
0000
0000
0000
0000
,
0000
0000
0000
0000
,
3003
0000
0000
0000
;

//---------------dance-single - Copied from Copied f----------------
#NOTES:
     dance-single:
     Copied from Copied f:
     Easy:
     5:
     0.472,0.487,0.047,0.491,0.000:
0000
0100
0000
0100
0000
1001
0000
0010
,
0000
0100
0000
0010
0000
0001
0000
0100
,
0000
0001
0000
1000
0000
0010
0000
1000
,
0000
0010
0000
1000
0000
0001
0000
0010
,
0000
0100
0000
1000
0000
0010
0000
0100
,
0000
0010
0000
1000
0000
0001
0000
0001
,
0000
1000
0000
0100
0000
0010
0000
0000
,
0002
2000
0000
0000
0000
0000
0000
0000
,
0000
0000
0000
0000
0000
0000
3003
0100
,
0000
0010
0000
0010
0000
0010
0000
0100
,
0000
0001
0000
1000
0000
0010
0000
0100
,
0000
0001
0000
0010
0000
0100
0000
1000
,
0000
0001
2000
0000
0000
0000
0000
3002
,
0000
0203
0000
0320
0000
2030
0000
3200
,
0000
0320
0000
0032
0000
0203
0000
0000
,
0000
0302
0000
0000
0000
2003
0000
0000
,
0000
3020
0000
0000
0000
1030
0000
1000
,
0000
0001
0000
0001
0000
0100
0000
0100
,
0000
0010
0000
0010
0000
1000
0000
1000
,
0000
0010
0000
1000
0000
0001
0001
0000
,
0000
0010
0020
0000
0030
0100
0000
0100
,
0000
0010
0000
0010
0000
0100
0000
1000
,
0000
0100
0000
0001
0000
0100
0000
1000
,
0000
0001
0000
0010
0000
0001
0001
0000
,
0000
0100
0200
0000
0300
0010
0000
0010
,
0000
0100
0000
0100
0000
0001
0000
0001
,
0000
1000
0000
1000
0000
0010
0000
0100
,
0000
0001
0000
0010
0000
0100
0000
1000
,
0000
2000
0000
0000
3000
0001
0000
0001
,
0000
0010
0000
1000
0000
0010
0000
0001
,
0000
0010
0000
1000
0000
0100
0000
0100
,
0000
0010
0000
0000
2000
0002
0000
0000
,
3003
0100
0000
0010
0000
2000
0000
3010
,
0000
0002
0000
0103
0000
2000
0000
3100
,
0000
0002
0000
0013
0000
0100
0000
1000
,
0000
0010
0000
0010
0000
0100
0000
1000
,
0000
0100
0000
0001
0000
1000
0000
0100
,
0100
0000
0000
0001
0000
1000
0000
0010
,
0010
0000
0000
0100
0000
0001
0000
1000
,
0000
0010
0000
0100
0000
0001
0000
1000
,
0000
2000
0000
0000
0000
0002
0000
0000
,
3003
0000
0000
0010
0000
1000
0000
0001
,
0000
0100
0000
0020
0000
0100
0100
0000
,
0100
0100
0000
0100
0100
0000
0100
0130
,
0000
1001
0000
1001
0000
0010
0000
0100
,
0000
0010
0000
1000
0000
0002
0000
0000
,
0000
2000
0000
0000
3003
1000
0000
0010
,
0000
0100
0000
0010
0000
0001
0000
0100
,
0000
0001
0000
1000
0000
0010
0000
1000
,
0000
0010
0000
1000
0000
0001
0000
0010
,
0000
0100
0000
1000
0000
0010
0000
0100
,
0000
0010
0000
1000
0000
0001
0000
0001
,
0000
1000
0000
0100
0000
0010
0000
0000
,
2000
0002
0000
0000
0000
0000
0000
0000
,
0000
0000
0000
0000
0000
0000
3003
0010
,
0000
0100
0000
0100
0000
0100
0000
0010
,
0000
1000
0000
0001
0000
0100
0000
0010
,
0000
1000
0000
0100
0000
0010
0000
0001
,
0000
1000
0002
0000
0000
0000
0000
2003
,
0000
3020
0000
0230
0000
0302
0000
0023
,
0000
0230
0000
2300
0000
3020
0000
0000
,
0000
2030
0000
0000
0000
3002
0000
0000
,
0000
0000
0000
0000
0000
0000
0000
0000
0000
0000
0000
0000
0000
0000
0000
0000
0000
0000
0000
0000
0000
0000
0000
0000
0200
0300
0000
0000
0000
0000
0000
0000
0000
0000
0000
0000
0000
0000
0000
0000
0000
0000
0000
0000
0000
0000
0000
0000
0000
0000
0000
0000
0000
0000
0000
0000
0000
0000
0000
0000
0000
0000
0000
0000
0000
0000
0000
0000
0000
0000
0000
0000
0000
0000
0000
0000
0000
0000
0000
0000
0000
0000
0000
0000
0000
0000
0000
0000
0000
0000
0000
0000
0000
0000
0000
0000
0000
0000
0000
0000
0000
0000
0000
0000
0000
0000
0000
0000
0000
0000
0000
0000
0000
0000
0000
0000
0000
0000
0000
0000
0100
0000
0000
0000
0000
0000
0000
0000
0000
0000
0000
0000
0000
0000
0000
0000
0000
0000
0000
0000
0000
0000
0000
0000
0000
0000
0000
0000
0000
0000
0000
0000
0000
0000
0000
0000
0000
0000
0000
0000
0000
0000
0000
0000
0000
0000
0000
0000
0100
0000
0000
0000
0000
0000
0000
0000
0000
0000
0000
0000
0000
0000
0000
0000
0000
0000
0000
0000
0000
0000
0000
0000
,
0003
0100
0100
0000
1001
0000
0010
0010
,
0000
0100
0100
0000
0000
0010
0000
1000
,
0000
0010
0000
0100
0000
0001
0000
0100
,
0000
0010
0000
1000
0000
0001
0000
0100
,
0000
0010
0000
1000
0000
0001
0000
0100
,
0000
0200
0000
0000
0302
0000
0000
0000
,
0000
2003
0000
0000
0000
3000
0000
0001
,
0000
1000
1000
0000
0100
0000
0000
0100
,
0000
0100
0000
0000
0001
0000
0000
0010
,
0000
0010
0000
0000
0100
0000
0000
1000
,
0000
1000
0000
0000
0001
0000
0000
1000
,
0000
1000
0000
0000
1001
0000
0000
0001
,
0000
0001
0000
0000
1000
0000
0000
0010
,
0000
0010
0000
0000
0010
0020
0000
0000
,
0000
0230
0000
0000
0000
0320
0000
0000
,
0000
2030
0000
0000
0000
3020
0000
0100
,
0000
0100
0000
0100
0000
0100
0000
0100
,
0000
0100
0000
0100
0000
0130
0000
0001
,
0000
1000
0000
0001
0000
1000
0000
0001
,
0000
1000
0000
0001
2000
0002
0000
0000
,
0000
0000
0000
0000
,
0000
0000
0000
0000
,
0000
0000
0000
0000
,
3003
0000
0000
0000
;

//---------------dance-single - Copied from Copied f----------------
#NOTES:
     dance-single:
     Copied from Copied f:
     Beginner:
     3:
     0.363,0.365,0.047,0.397,0.000:
0000
0000
0000
0000
0000
0100
0000
0100
,
0000
0010
0000
0000
0000
1000
0000
0010
,
0000
1000
0000
0000
0000
0100
0000
0001
,
0000
0100
0000
0000
0000
1000
0000
0100
,
0000
0010
0000
0000
0000
0100
0000
0010
,
0000
0100
0000
0000
0000
1000
0000
1000
,
0000
0001
0000
0000
0000
0100
0000
0000
,
0000
2002
0000
0000
0000
0000
0000
0000
,
0000
0000
0000
0000
0000
3003
0000
0010
,
0000
0100
0000
0100
0000
0000
0000
0010
,
0000
1000
0000
0001
0000
0000
0000
0010
,
0000
1000
0000
0100
0000
0000
0000
0001
,
0000
1000
0000
0001
0000
0000
0000
1000
,
0000
1000
0000
1000
0000
1000
0000
0001
,
0000
0001
0000
0001
0000
0001
0000
0000
,
0000
2000
0000
0000
0000
3002
0000
0000
,
0000
2003
0000
0000
0000
3010
0000
0010
,
0000
0100
0000
0100
0000
0010
0000
0010
,
0000
0100
0000
0100
0000
0010
0000
0010
,
0000
0100
0000
0100
0000
0020
0000
0000
,
0030
0200
0000
0000
0300
0001
0000
0001
,
0000
1000
0000
1000
0000
0001
0000
0001
,
0000
1000
0000
1000
0000
0001
0000
0001
,
0000
1000
0000
1000
0000
0020
0000
0000
,
0030
0200
0000
0000
0300
0010
0000
0100
,
0000
0010
0000
0000
0000
1000
0000
0001
,
0000
1000
0000
0000
0000
0100
0000
0010
,
0000
0100
0000
0000
0000
0001
0000
1000
,
0000
0002
0000
0000
0003
1000
0000
0001
,
0000
1000
0000
0000
0000
0100
0000
0010
,
0000
0100
0000
0000
0000
0010
0000
0100
,
0000
0010
0000
0000
0000
2002
0000
0000
,
3003
0010
0000
0100
0000
0002
0000
0003
,
0000
2000
0000
3000
0000
0002
0000
0003
,
0000
2000
0000
3000
0000
0010
0000
0001
,
0000
0100
0000
0000
0000
0010
0000
0001
,
0000
0010
0000
0000
0000
0001
0000
0020
,
0000
0000
0030
1000
0000
0001
0000
0200
,
0000
0000
0300
0010
0000
1000
0000
0001
,
0000
0000
0000
0010
0000
1000
0000
0001
,
0000
0002
0000
0000
0000
2000
0000
0000
,
3003
0000
0000
0010
0000
0010
0000
0010
,
0000
0010
0000
0200
0000
0000
0000
0000
,
0000
0000
0000
0000
0000
0000
0000
0310
,
0000
0100
0000
0100
0000
0000
0000
0010
,
0000
0100
0000
0001
0000
2000
0000
0000
,
0000
0002
0000
0000
3003
0010
0000
0100
,
0000
0010
0000
0000
0000
1000
0000
0010
,
0000
1000
0000
0000
0000
0100
0000
0001
,
0000
0100
0000
0000
0000
1000
0000
0100
,
0000
0010
0000
0000
0000
0100
0000
0010
,
0000
0100
0000
0000
0000
1000
0000
0001
,
0000
1000
0000
0000
0000
0100
0000
0000
,
0000
2002
0000
0000
0000
0000
0000
0000
,
0000
0000
0000
0000
0000
0000
3003
0100
,
0000
0010
0000
0100
0000
0000
0000
0100
,
0000
0001
0000
1000
0000
0000
0000
0100
,
0000
0001
0000
0010
0000
0000
0000
1000
,
0000
0001
0000
1000
0000
0000
0000
0001
,
0000
0100
0000
0001
0000
0100
0000
0001
,
0000
0200
0000
0302
0000
2003
0000
0000
,
0000
3002
0000
0000
0000
2003
0000
0000
,
0000
0000
0000
0000
0000
0000
0000
0000
0000
0000
0000
0000
0000
0000
0000
0000
0000
0000
0000
0000
0000
0000
0000
0000
0020
0030
0000
0000
0000
0000
0000
0000
0000
0000
0000
0000
0000
0000
0000
0000
0000
0000
0000
0000
0000
0000
0000
0000
0000
0000
0000
0000
0000
0000
0000
0000
0000
0000
0000
0000
0000
0000
0000
0000
0000
0000
0000
0000
0000
0000
0000
0000
0000
0000
0000
0000
0000
0000
0000
0000
0000
0000
0000
0000
0000
0000
0000
0000
0000
0000
0000
0000
0000
0000
0000
0000
0000
0000
0000
0000
0000
0000
0000
0000
0000
0000
0000
0000
0000
0000
0000
0000
0000
0000
0000
0000
0000
0000
0000
0000
0000
0000
0000
0000
0000
0000
0000
0000
0000
0000
0000
0000
0000
0000
0000
0000
0000
0000
0000
0000
0000
0000
0000
0000
0000
0000
0000
0000
0000
0000
0000
0000
0000
0000
0000
0000
0000
0000
0000
0000
0000
0000
0000
0000
0000
0000
0000
0000
0000
0000
0000
0000
0000
0000
0000
0000
0000
0000
0000
0000
0000
0000
0000
0000
0000
0000
0000
0000
0000
0000
0000
0000
,
0000
3010
0000
0000
1001
0000
0000
0100
,
0000
0010
0000
0000
0000
0100
0000
0001
,
0000
0100
0000
0000
0000
1000
0000
0010
,
0000
0100
0000
0000
0000
1000
0000
0010
,
0000
0100
0000
0000
0000
1000
0000
0010
,
0000
0020
0000
0000
2030
0000
0000
0000
,
0000
3002
0000
0000
0000
0003
0000
1000
,
0000
0002
0000
0003
0010
0000
0000
0010
,
0000
0010
0000
0000
1000
0000
0000
0100
,
0000
0100
0000
0000
0010
0000
0000
0001
,
0000
0001
0000
0000
1000
0000
0000
0001
,
0000
0001
0000
0000
0010
0000
0000
1000
,
0000
1000
0000
0000
0001
0000
0000
0100
,
0000
0100
0000
0000
0000
0200
0000
0000
,
0000
0320
0000
0000
0000
0230
0000
0000
,
0000
0302
0000
0000
0000
0203
0000
0000
,
0000
0000
0000
0000
,
0000
0000
0000
0000
0000
0300
0000
1000
,
0000
0000
0000
0001
0000
0000
0000
1000
,
0000
0000
0000
0100
0000
2002
0000
0000
,
0000
0000
0000
0000
,
0000
0000
0000
0000
,
0000
0000
0000
0000
,
3003
0000
0000
0000
;
