#VERSION:0.83;
#TITLE:Catastrophic Dance;
#SUBTITLE:;
#ARTIST:the wandering bard feat. 志方あきこ;
#TITLETRANSLIT:;
#SUBTITLETRANSLIT:;
#ARTISTTRANSLIT:the wandering bard feat. 志方あきこ;
#GENRE:;
#ORIGIN:;
#CREDIT:;
#BANNER:;
#BACKGROUND:;
#PREVIEWVID:;
#JACKET:catastrophic dance-jacket.png;
#CDIMAGE:;
#DISCIMAGE:;
#LYRICSPATH:;
#CDTITLE:;
#MUSIC:Catastrophic Dance.mp3;
#OFFSET:0.200000;
#SAMPLESTART:35.352962;
#SAMPLELENGTH:12.000000;
#SELECTABLE:YES;
#BPMS:0.000=145.030;
#STOPS:;
#DELAYS:;
#WARPS:;
#TIMESIGNATURES:0.000=4=4;
#TICKCOUNTS:0.000=4;
#COMBOS:0.000=1;
#SPEEDS:0.000=1.000=0.000=0;
#SCROLLS:0.000=1.000;
#FAKES:;
#LABELS:0.000=Song Start;
#BGCHANGES:;
#KEYSOUNDS:;
#ATTACKS:
;

//---------------dance-single - ----------------
#NOTEDATA:;
#CHARTNAME:;
#STEPSTYPE:dance-single;
#DESCRIPTION:;
#CHARTSTYLE:;
#DIFFICULTY:Hard;
#METER:16;
#RADARVALUES:0.736231,1.185167,0.231252,0.231252,0.751569,624.000000,596.000000,28.000000,28.000000,0.000000,0.000000,0.000000,0.000000,0.000000,0.736231,1.185167,0.231252,0.231252,0.751569,624.000000,596.000000,28.000000,28.000000,0.000000,0.000000,0.000000,0.000000,0.000000;
#CREDIT:;
#NOTES:
// measure 0
0000
0000
0000
2001
,  // measure 1
0000
3002
0000
0023
,  // measure 2
0000
0230
0000
2300
,  // measure 3
0000
3020
0000
0230
,  // measure 4
0000
0000
0302
0000
0000
0003
1001
0000
,  // measure 5
0010
1010
0100
0101
,  // measure 6
0001
0110
0100
1001
,  // measure 7
0100
1010
0010
0101
,  // measure 8
0001
0000
1100
0000
0010
0000
1000
0001
,  // measure 9
0100
0000
0010
1000
0001
1000
0100
0010
0001
0010
0100
1000
0010
0000
0100
0001
,  // measure 10
1000
0001
0100
0010
0100
1000
0100
0001
0010
0100
0010
0100
1000
0000
1000
0000
,  // measure 11
0001
0010
0100
1000
0010
0100
0010
0100
0001
1000
0010
0100
0010
0000
1000
0001
,  // measure 12
1000
0001
0100
0010
0100
0000
0010
1000
0001
1000
0001
0100
0010
0000
0100
0000
,  // measure 13
0001
1000
0100
0000
0010
0001
0100
0000
,  // measure 14
2010
0000
3002
0000
1003
0100
0010
0000
,  // measure 15
0001
0000
1000
0000
0010
0000
0000
0100
0000
0000
0001
0000
1000
0010
0100
0001
,  // measure 16
0010
0000
0000
0100
0000
0000
1000
0000
0000
0100
0000
0000
0010
0000
0000
0001
0000
0000
0010
0000
0100
0000
0010
0000
0100
0000
1000
0000
0100
0000
1000
0000
0001
0000
1000
0000
0001
0000
0000
0000
0000
0000
0000
0000
0000
1000
0000
0000
,  // measure 17
0000
0000
0010
0000
0000
0100
0000
0000
0001
0000
1000
0000
0000
0000
0010
0000
,  // measure 18
1000
0000
0001
0000
0100
0000
0000
0100
0000
0000
0010
0000
1000
0000
0000
0001
,  // measure 19
0000
0000
0100
0000
0000
0010
0000
0000
1000
0000
0001
0000
0000
0000
1000
0000
,  // measure 20
0100
0010
0001
0000
1001
0000
1000
0010
,  // measure 21
1000
0010
0100
0010
0100
0001
0010
0001
,  // measure 22
0010
0100
0010
0001
1000
0010
1000
0001
,  // measure 23
0100
0001
1000
0100
0010
0100
1000
0010
,  // measure 24
0100
0010
0100
0001
0010
0001
1000
0100
,  // measure 25
1000
0010
0100
0001
1000
0100
1000
0010
,  // measure 26
1000
0001
0100
0100
0010
0010
1001
1000
,  // measure 27
0001
0000
0100
0000
0100
0000
0000
0010
0100
0000
0001
1000
0001
0000
0100
0000
,  // measure 28
0010
0000
0000
0000
0000
0000
0100
0000
0000
0000
0000
0000
0001
0000
0000
1000
0000
0000
0001
0000
0000
1000
0000
0000
0001
0000
0000
1000
0000
0000
0010
0000
0100
0000
0010
0000
0100
0000
0000
0000
0000
0000
0001
0000
0000
0000
0000
0000
,  // measure 29
1000
0100
0010
0001
1000
0100
0010
0100
,  // measure 30
1000
0001
0010
0100
0010
0001
1000
0010
,  // measure 31
0100
1000
0100
0010
1000
0001
0010
0100
,  // measure 32
1000
0001
1000
0001
0100
0010
0100
0010
1000
0100
1000
0100
0010
0000
0001
0000
,  // measure 33
0100
1000
0100
0010
1000
0001
1000
0001
,  // measure 34
0010
1000
0010
0001
0100
1000
0001
0010
,  // measure 35
1000
0100
0010
0001
1000
0100
0110
0000
,  // measure 36
0011
1001
1010
0110
,  // measure 37
0010
1000
0001
0000
0100
0010
1000
0000
,  // measure 38
0001
0100
0010
0000
1000
0100
0001
0001
,  // measure 39
0100
0000
0100
0000
1000
0000
1000
0000
0010
0000
0010
0000
0100
0010
0100
0010
,  // measure 40
0100
0010
0100
0010
0100
0010
0100
0010
0100
0010
0100
0010
2000
0000
0000
0002
,  // measure 41
0000
0000
3000
0000
0203
0000
0000
0310
0000
0000
0000
0000
0000
1000
0000
0010
,  // measure 42
0000
0100
0001
0100
0001
0000
0000
0000
1010
0000
0000
0000
0101
0000
0000
0010
,  // measure 43
0100
0010
0100
0001
1000
0000
0000
0100
0010
0100
0010
0001
1000
0000
0000
0100
,  // measure 44
0010
0000
0000
0000
2002
0000
0000
0000
0000
0000
3003
0000
1001
0000
0000
1000
,  // measure 45
0000
0000
0100
0000
0010
0000
0000
0001
0000
0000
0010
0000
0100
0000
0000
1000
,  // measure 46
0000
0000
0001
0000
0100
0000
0000
0010
0000
0000
1000
0000
0001
0000
0000
0100
,  // measure 47
0000
0000
0010
0000
1000
0001
0000
0100
0000
0000
0010
0000
1000
0000
0001
0000
,  // measure 48
0100
0000
0000
0000
0000
0000
0010
0000
0000
0000
0000
0000
1000
0000
0000
0001
0000
0000
1000
0000
0000
0001
0000
0000
0100
0000
0010
0000
0100
0000
0010
0000
0100
0000
0010
0000
0100
0000
0000
0000
0000
0000
0001
0000
0000
0000
0000
0000
,  // measure 49
0100
0000
0010
1000
0100
1000
0010
0100
0001
0010
0100
0010
0001
0000
1000
0010
,  // measure 50
1000
0001
0100
0001
0010
0100
1000
0010
0100
0010
1000
0001
1000
0000
0001
1000
,  // measure 51
0001
0010
0100
1000
0001
0100
0010
0100
0001
1000
0010
0100
0010
0000
1000
0010
,  // measure 52
0100
0001
0010
0100
0010
0001
1000
0010
0100
1000
0100
0010
1000
0000
0001
0010
,  // measure 53
0100
0010
0001
1000
0100
0010
0100
1000
0001
0100
0010
0100
0001
0000
1000
0010
,  // measure 54
0100
0010
1000
0001
0010
1000
0010
0001
0100
1000
0100
0010
1000
0000
0001
1000
,  // measure 55
0001
0010
0100
1000
0010
1000
0001
0010
0001
0100
0010
0100
0001
0000
1000
0100
,  // measure 56
1000
0010
0100
0001
0010
0001
1000
0100
1000
0010
0100
0001
0100
0000
0010
0000
,  // measure 57
0100
0001
0010
0100
1000
0100
0010
0001
,  // measure 58
1000
0010
1000
0001
0100
0001
1001
1001
,  // measure 59
0110
0000
0110
0000
0010
0100
0010
0100
0010
0100
0010
0000
1010
0000
0000
0101
,  // measure 60
0000
0000
0000
1010
0000
0000
0000
0001
0010
0100
1000
0100
0010
0000
0000
0002
0000
0000
2000
0000
0000
0000
0000
0000
,  // measure 61
0000
0003
3020
0000
0000
0000
0230
0000
,  // measure 62
0000
0302
0000
2003
,  // measure 63
0000
3200
0000
0320
,  // measure 64
0000
0000
0000
0000
0032
0000
0000
0000
0000
0000
0000
0000
1003
0010
1000
0001
,  // measure 65
0100
0001
0100
0010
1000
0100
0010
0100
1000
0001
0010
0100
1000
0010
0100
1000
,  // measure 66
0100
0000
0000
0001
0000
0000
0010
0000
0000
0100
0000
0000
0010
0000
0000
0001
0000
0000
1000
0000
0000
0100
0000
0000
0001
0000
0000
0100
0000
0000
1000
0000
0000
0010
0000
0000
0100
0000
0001
0000
1000
0000
0010
0000
0100
0000
0001
0000
,  // measure 67
1000
0010
0100
0001
1000
0010
0100
0001
1000
0010
0100
0001
1000
0010
0100
0001
1000
0010
0200
0000
0000
0000
0000
0000
,  // measure 68
0302
0000
2003
0000
3010
0200
0000
0000
,  // measure 69
0000
0000
0000
0000
,  // measure 70
0300
0000
0000
0000
;

//---------------dance-single - ----------------
#NOTEDATA:;
#CHARTNAME:;
#STEPSTYPE:dance-single;
#DESCRIPTION:;
#CHARTSTYLE:;
#DIFFICULTY:Medium;
#METER:12;
#RADARVALUES:0.480202,0.520317,0.198216,0.322101,0.074331,407.000000,383.000000,24.000000,39.000000,0.000000,0.000000,0.000000,0.000000,0.000000,0.480202,0.520317,0.198216,0.322101,0.074331,407.000000,383.000000,24.000000,39.000000,0.000000,0.000000,0.000000,0.000000,0.000000;
#CREDIT:;
#NOTES:
0000
0000
0000
0200
,
0000
0320
0000
2030
,
0000
3002
0000
0023
,
0000
0230
0000
2300
,
0000
0000
3020
0000
0000
0030
1010
0000
,
1000
1001
0001
0101
,
0100
0110
0010
1010
,
1000
1100
0100
0110
,
0010
0000
0011
0000
0001
0000
1000
0100
,
1000
0010
0100
0010
1000
0001
1000
0100
,
0010
0100
1000
0010
0100
0010
1000
1001
,
0001
1000
0010
1000
0001
0010
0001
0100
,
0010
1000
0010
0100
0001
0010
0100
0000
,
1000
0001
0100
0000
0010
1000
0001
0000
,
0200
0320
2030
3001
,
1000
0000
0000
0000
0001
0000
0000
0100
0000
0000
0001
0000
1000
0000
0000
0001
,
0000
0000
0100
0000
0020
0000
0000
0000
0000
0000
0000
0000
0130
0000
0000
0001
,
0000
0000
0010
0000
0000
0100
0000
0000
1000
0000
0010
0000
0000
0000
0100
0000
,
0001
0000
0010
0000
0100
0000
0000
1000
0000
0000
0010
0000
0100
0000
0000
0001
,
0000
0000
1000
0000
0000
0100
0000
0000
1000
0000
0001
0000
0000
0000
1000
0000
,
0100
0010
0001
0000
1001
0000
1000
0000
,
0010
1000
0001
0000
0100
0001
1000
0000
,
0010
0100
0001
0000
1000
0010
0100
0000
,
0001
0010
0100
0000
0010
0100
1000
0000
,
0010
0100
0001
0000
1000
0010
0100
0000
,
0001
0010
0100
0000
1000
0001
0100
0000
,
0010
1000
0001
0001
0100
0100
0110
0000
,
0010
1000
1001
0000
0010
1000
1000
0010
,
0100
0001
0010
0100
1000
0001
0200
0000
,
0310
0100
0001
0000
1000
0100
0010
0000
,
0001
1000
0010
0000
0100
0001
1000
0000
,
0010
1000
0001
0000
0100
0010
1000
0001
,
0200
0010
0010
0010
0010
0010
0310
0000
,
1000
0001
0010
0000
0100
1000
0010
0000
,
0100
0001
1000
0000
0100
0010
0001
0000
,
0010
0100
1000
0000
0010
0100
0110
0000
,
1010
1001
0101
0011
,
0001
1000
0010
0000
0100
0010
1000
0000
,
0001
0100
0010
0000
1000
0100
0010
0010
,
0001
0001
1000
1000
0100
0100
0020
0001
,
0100
0001
0100
0001
0100
0031
2000
0000
,
0000
0000
0000
0000
3020
0000
0000
0000
0000
0000
0000
0000
0030
1000
0000
0001
,
0000
0200
0000
0000
0000
0000
0000
0000
0320
0000
0000
0000
2030
0000
0000
0000
,
0000
3000
1002
0000
0000
0000
0203
0000
,
0020
0000
0330
0000
0220
0000
0000
0000
0000
0000
0330
0000
1001
0000
0000
0010
,
0000
0000
1000
0000
0100
0000
0000
0010
0000
0000
0001
0000
1000
0000
0000
0010
,
0000
0000
1000
0000
0001
0000
0000
0100
0000
0000
0010
0000
1000
0000
0000
0100
,
0000
0000
0010
0000
0001
0000
0000
0100
0000
0000
0001
0000
1000
0000
0000
0010
,
0000
0100
0020
0000
0000
0030
0110
0100
,
0001
1000
0010
1000
0001
0010
0100
1000
,
0100
0010
0001
1000
0010
1000
0010
0100
,
0010
1000
0001
1000
0100
0010
0100
1000
,
0010
0100
0010
1000
0001
1000
0010
0100
,
0001
0010
0001
1000
0100
1000
0010
0100
,
0001
0100
0001
0010
0100
0010
0001
1000
,
0010
1000
0010
0100
0001
0010
0100
1000
,
0100
0010
0001
1000
0100
0010
0001
0000
,
1000
0000
0010
0000
0100
0001
1000
0000
,
0010
0000
1000
0000
0001
0100
0010
0010
,
1000
0000
1000
0000
0001
0000
0100
0000
0001
0000
0100
0000
0110
0000
0000
1001
,
0000
0101
0000
0010
0100
0001
2000
0000
,
0000
3200
0000
0320
,
0000
0032
0000
2003
,
0000
3020
0000
0230
,
0000
0000
0320
0000
0000
0000
1030
0001
,
1000
0100
0010
0001
0010
0100
1000
0100
,
0010
0001
1000
0010
0100
0001
2000
0010
,
0010
0100
0100
0001
0001
0100
3200
0000
,
0320
0000
0032
0000
1003
0020
0000
0000
,
0000
0000
0000
0000
,
0030
0000
0000
0000
;

//---------------dance-single - ----------------
#NOTEDATA:;
#CHARTNAME:;
#STEPSTYPE:dance-single;
#DESCRIPTION:;
#CHARTSTYLE:;
#DIFFICULTY:Easy;
#METER:4;
#RADARVALUES:0.306763,0.404691,0.074331,0.264288,0.000000,260.000000,251.000000,9.000000,32.000000,0.000000,0.000000,0.000000,0.000000,0.000000,0.306763,0.404691,0.074331,0.264288,0.000000,260.000000,251.000000,9.000000,32.000000,0.000000,0.000000,0.000000,0.000000,0.000000;
#CREDIT:;
#NOTES:
0000
0000
0000
1000
,
0000
0001
0000
0010
,
0000
0100
0000
1000
,
0000
0010
0000
2000
,
0000
0000
0002
0000
0000
3003
0100
0000
,
0010
1000
0001
1000
,
0100
0010
0001
0010
,
0100
1000
0010
0100
,
0001
1000
0001
0100
,
0010
1000
0001
0100
,
0001
0000
0100
0000
0010
0000
1000
1000
,
0010
0100
0001
1000
,
0010
0100
0001
0010
,
0100
1000
0000
0000
0010
0100
0000
0000
,
0002
2003
3020
0130
,
0000
0000
0001
0000
0000
0000
1000
0010
,
0000
0100
0002
0000
0000
0000
0103
0000
,
0000
0010
0000
0000
1000
0001
0000
0000
,
0010
0000
0100
0000
0000
1000
0010
0000
,
0000
0100
0000
0000
0001
1000
0000
0000
,
0010
0100
0110
1000
,
0001
0010
0100
1000
,
0010
0100
0001
1000
,
0010
1000
0001
0100
,
0001
0010
0100
1000
,
0010
0100
0010
1000
,
0001
0000
0100
0100
0100
0100
0020
0000
,
0000
1030
2000
0000
0000
3001
0002
0000
,
0103
0010
1000
2002
,
3003
0001
0100
0010
,
1000
0010
0100
0001
,
0010
0100
1000
0010
,
0200
0010
0010
0310
,
0000
1000
0100
0010
,
0100
0010
0001
1000
,
0010
0100
0001
1001
,
1001
0110
0110
1010
,
0100
0001
0100
0010
,
1000
0000
0100
0000
0010
0000
0001
0001
,
0001
0001
0001
0001
0001
0001
0200
0000
,
0000
0000
0000
0310
,
0000
2000
0000
0000
,
3000
0000
0000
0020
,
0000
0230
0000
0302
,
2003
0000
3020
0000
0000
0030
1001
0000
,
0000
0010
0100
0000
0000
0001
1000
0000
,
0000
0010
1000
0000
0000
0100
0010
0000
,
0000
0001
1000
0000
0000
0010
0100
0000
,
0000
0001
0010
0000
0000
0000
0110
0000
,
1000
0010
1000
0001
,
0100
0001
0010
0001
,
0010
0100
1000
0010
,
0100
0010
1000
0001
,
1000
0100
0010
0100
,
1000
0010
0100
0010
,
1000
0001
1000
0100
,
0010
0001
1000
0010
,
1000
0010
0100
1000
,
0001
0000
0010
0000
0100
0000
1000
1000
,
1000
1000
0002
0000
0000
0000
0103
0000
,
0010
0010
0000
1000
0001
0000
0200
0000
,
0000
0320
0000
2030
,
0000
3020
0000
0230
,
0000
0302
0000
0023
,
0000
0230
0000
1300
,
1000
0010
0010
0100
,
0100
0000
0001
0000
0001
0000
1000
0001
,
1000
0001
1000
0001
1000
0001
2000
0000
,
3002
0000
0023
0000
0130
0200
0000
0000
,
0000
0000
0000
0000
,
0300
0000
0000
0000
;

//---------------dance-single - ----------------
#NOTEDATA:;
#CHARTNAME:;
#STEPSTYPE:dance-single;
#DESCRIPTION:;
#CHARTSTYLE:;
#DIFFICULTY:Beginner;
#METER:2;
#RADARVALUES:0.180518,0.260159,0.033036,0.272547,0.000000,153.000000,149.000000,4.000000,33.000000,0.000000,0.000000,0.000000,0.000000,0.000000,0.180518,0.260159,0.033036,0.272547,0.000000,153.000000,149.000000,4.000000,33.000000,0.000000,0.000000,0.000000,0.000000,0.000000;
#CREDIT:;
#NOTES:
0000
0000
0000
0000
,
0000
0000
0000
0000
,
0000
0000
0000
0000
,
0000
0000
0000
0002
,
0000
0000
2000
0000
0000
3003
0010
0000
,
0000
0001
0000
0001
,
0000
0100
0000
0100
,
0000
0001
0000
0010
,
0000
0001
0000
0010
,
0000
0001
0000
0010
,
0000
0000
0010
0000
0000
0000
0001
0001
,
0000
0010
0000
0001
,
0000
0010
0000
0100
,
0010
0000
0100
0000
,
2000
3000
0002
1003
,
0000
0000
1000
0000
0000
0000
0001
0100
,
0000
2000
0000
3010
,
0000
0100
0000
0000
0001
1000
0000
0000
,
0100
0000
0000
0000
0000
0001
0000
0000
,
0000
0010
0000
0000
1000
0001
0000
0000
,
0100
0000
0110
0001
,
0000
0100
0000
0001
,
0000
0010
0000
0001
,
0000
0001
0000
0010
,
0000
0100
0000
0001
,
0000
0010
0000
0001
,
0000
0020
0000
0230
,
0000
0300
0002
0000
0000
0003
2000
0000
,
3010
0000
0001
2000
,
3000
1000
0000
0100
,
0000
0100
0000
1000
,
0000
0010
0000
0100
,
0020
0000
0000
0130
,
0000
0001
0000
0100
,
0000
0100
0000
0001
,
0000
0010
0000
1000
,
0000
0010
0000
1001
,
0000
1000
0000
0100
,
0000
0010
0000
2000
,
0000
0000
0000
3020
,
0000
0000
0000
0130
,
0000
0002
0000
0000
,
0003
0000
0000
0200
,
0000
0320
0000
2030
,
0000
0000
3002
0000
0000
0003
0110
0000
,
0000
0010
0000
0001
,
0000
0001
0000
0100
,
0000
0001
0000
0010
,
0000
0100
0000
0110
,
0001
0100
0001
1000
,
0000
1000
0100
1000
,
0000
0010
0001
0100
,
0000
0100
0001
1000
,
0000
0010
0100
0010
,
0000
0100
0010
0100
,
0000
1000
0001
0010
,
0000
1000
0001
0100
,
0000
0100
0010
0001
,
0000
0100
0010
0002
,
0000
2003
0000
3020
,
0000
0030
1000
0020
,
0000
0230
0000
0302
,
0000
2003
0000
3020
,
0000
2030
0000
3200
,
0000
0320
0000
0031
,
0000
0100
0000
0010
,
0000
1000
0000
0001
,
1000
0001
1000
0002
,
2003
0000
3200
0000
0310
0020
0000
0000
,
0000
0000
0000
0000
,
0030
0000
0000
0000
;
