#VERSION:0.83;
#TITLE:カーニバルの主題による人形のためのいびつな狂想曲;
#SUBTITLE:;
#ARTIST:楽士カンタビレオ;
#TITLETRANSLIT:Carnival no shuudai ni yoru ningyou no tame no ibitsu na kyousoukyoku;
#SUBTITLETRANSLIT:;
#ARTISTTRANSLIT:Gakushi Cantabileo;
#GENRE:;
#ORIGIN:;
#CREDIT:;
#BANNER:;
#BACKGROUND:;
#PREVIEWVID:;
#JACKET:;
#CDIMAGE:;
#DISCIMAGE:;
#LYRICSPATH:;
#CDTITLE:;
#MUSIC:Carnival no shuudai ni yoru ningyou no tame no ibitsu na kyousoukyoku.mp3;
#OFFSET:0.150000;
#SAMPLESTART:73.369957;
#SAMPLELENGTH:12.000000;
#SELECTABLE:YES;
#BPMS:0.000=106.000,
40.667=122.000,
64.750=123.000,
67.750=124.000,
70.750=125.000,
72.000=128.000,
77.250=129.000,
100.750=135.000,
122.500=124.000,
133.750=144.000,
136.250=150.000,
252.500=100.000,
254.167=90.000,
255.833=80.000;
#STOPS:;
#DELAYS:;
#WARPS:;
#TIMESIGNATURES:0.000=4=4;
#TICKCOUNTS:0.000=4;
#COMBOS:0.000=1;
#SPEEDS:0.000=1.000=0.000=0;
#SCROLLS:0.000=1.000;
#FAKES:;
#LABELS:0.000=Song Start;
#BGCHANGES:;
#KEYSOUNDS:;
#ATTACKS:
;

//---------------dance-single - ----------------
#NOTEDATA:;
#CHARTNAME:;
#STEPSTYPE:dance-single;
#DESCRIPTION:;
#CHARTSTYLE:;
#DIFFICULTY:Hard;
#METER:16;
#RADARVALUES:0.805654,0.892711,0.524612,0.270503,1.582032,688.000000,624.000000,64.000000,33.000000,0.000000,0.000000,0.000000,0.000000,0.000000,0.805654,0.892711,0.524612,0.270503,1.582032,688.000000,624.000000,64.000000,33.000000,0.000000,0.000000,0.000000,0.000000,0.000000;
#CREDIT:;
#NOTES:
// measure 0
0000
0000
0000
0000
0010
0100
0010
0000
0000
0000
1001
0000
1000
0000
0001
0000
,  // measure 1
0100
0010
0010
0100
0001
0001
1000
0100
,  // measure 2
0100
0010
0001
0001
0010
0100
0100
1000
,  // measure 3
0001
0000
0001
0000
0100
0000
0010
0000
0010
0000
1000
0001
1000
0000
0100
0000
,  // measure 4
0020
0000
0100
0000
0031
0100
0001
0000
0010
0000
0100
0000
2000
0000
0001
0000
,  // measure 5
3010
0000
0101
0000
0011
0000
0110
0000
0200
0000
0010
0000
1300
0010
1000
0000
,  // measure 6
0100
0000
0010
0000
0002
0000
0100
0000
1003
0000
0001
0010
0001
0000
0010
0000
,  // measure 7
0200
0000
0010
0000
1300
0001
1000
0000
0001
0000
0100
0000
0020
0000
0100
0000
,  // measure 8
1030
0000
1010
0000
1100
0000
0110
0000
0020
0000
0100
0000
0031
1000
0001
0000
,  // measure 9
0100
0000
0000
0000
0000
0000
0010
0000
0000
0000
0000
0000
2000
0000
0000
0000
0000
0000
0100
0000
0000
0000
0000
0000
3001
0000
0000
0000
0000
0000
0100
0000
0000
0010
0000
0000
0100
0000
0000
0000
0001
0000
0000
0000
0000
0001
0000
0000
,  // measure 10
0000
0000
0000
1000
0000
0000
0000
0000
1000
0000
0000
0000
0000
0000
0000
0001
0000
0000
0000
0000
0000
0010
0000
0000
0000
0000
0000
1000
0000
0000
0000
0000
0000
1000
0000
0000
0000
0000
0000
0010
0000
0000
0000
0000
0000
0001
0000
0000
,  // measure 11
0000
0001
0000
0100
0000
1000
0000
1000
0000
0100
0000
0001
0000
0001
0000
0010
,  // measure 12
0000
1000
0000
1000
0000
0010
0000
0001
0000
0001
0000
0100
0000
0110
0000
0110
,  // measure 13
0000
1001
0000
0000
0000
0100
0000
0001
0000
0000
0000
1000
0000
0001
0000
1000
,  // measure 14
0010
0100
0001
0010
0000
0100
0000
1000
0000
0001
0000
0000
0000
0100
0000
0010
,  // measure 15
0000
0000
0000
0100
0000
0001
0000
0010
0100
1000
0010
0100
0000
0010
0000
0100
,  // measure 16
0000
0001
0000
1000
0010
1000
0000
0001
0000
0010
0000
0100
0000
1000
0000
0001
,  // measure 17
0010
0001
0010
0100
0000
1000
0000
0010
0000
0100
0000
0001
1000
0010
0000
1000
,  // measure 18
0001
1000
0010
0100
0010
0100
0001
1000
0100
1000
0100
0010
0000
0001
0000
1000
,  // measure 19
0000
0002
0000
0000
0000
1003
0000
0200
0000
0000
0000
0310
0000
0001
0000
1000
,  // measure 20
0010
1000
0010
0100
0000
0001
0000
1000
0000
0020
0000
0000
0000
0130
0000
0002
,  // measure 21
0000
0000
0000
0013
0000
0100
1000
0001
0010
0100
1000
0010
0000
0100
0000
0001
,  // measure 22
0000
1000
0000
0001
0100
0001
0000
1000
0000
0010
0000
0100
0000
0002
0000
0000
,  // measure 23
0000
1003
0000
0010
0000
0100
0000
0010
0000
1000
0000
0000
0010
0100
0000
0001
,  // measure 24
1000
0001
1000
0010
0000
1000
0100
0010
0001
1000
0000
1001
0000
0001
0000
1000
,  // measure 25
0000
0001
0100
0001
1000
0000
0001
0010
0100
1000
0001
0010
0100
1000
0001
0010
,  // measure 26
0100
0000
1000
0000
0010
0000
0001
0000
0010
1000
0010
0000
0100
0000
0001
1000
,  // measure 27
0010
1000
0001
0010
0001
1000
0100
0010
0001
0100
0010
0000
1000
0000
0001
0000
,  // measure 28
0100
0010
0100
0000
0001
0000
1000
0100
0010
0001
1000
0100
0010
0001
1000
0100
,  // measure 29
0010
0000
0001
0000
0100
0000
1000
0000
0100
0001
0100
0000
0010
0000
1000
0001
,  // measure 30
0100
0001
1000
0100
1000
0001
0010
0100
1000
0010
0200
0000
0000
0000
0002
0000
,  // measure 31
0300
0020
0003
0200
0000
0030
2000
0300
,  // measure 32
0020
0000
0000
3000
0200
0030
0002
0000
,  // measure 33
0000
0000
0000
0000
0303
0000
1000
0010
0100
0001
0010
0100
0000
1000
0000
0010
,  // measure 34
0000
0100
0000
0001
0000
0010
0000
0100
0000
1000
0000
0001
0000
1000
0000
0010
,  // measure 35
0000
0100
0000
0001
0000
0010
0000
0001
0000
1000
0000
0100
0000
1000
0000
0001
,  // measure 36
0100
0010
0000
0100
0000
0001
0000
0010
0000
1000
0000
0010
0000
0001
0000
1000
,  // measure 37
0010
0100
0000
0001
0000
0010
0000
1000
0000
0010
0000
0001
1000
0001
0000
0010
,  // measure 38
0000
0100
1000
0100
1000
0001
0010
0001
0010
0100
1000
0100
1000
0001
0100
0001
,  // measure 39
0100
0010
1000
0010
1000
0001
0000
0100
0000
0000
0000
0001
1000
0010
0000
1000
,  // measure 40
0000
0100
0010
0001
0010
0100
1000
0100
0010
0100
1000
0001
0010
0100
0010
0001
,  // measure 41
1000
0100
0001
0100
1000
0010
0000
0100
0000
0000
0000
0001
0010
0100
0000
1000
,  // measure 42
0000
0010
0100
0001
0100
0010
0000
0110
0000
0000
0000
0100
0001
1000
0000
1001
,  // measure 43
0000
0001
0100
0001
1000
0010
1000
0001
0010
0100
1000
0010
0100
0010
1000
0100
,  // measure 44
0010
0001
1000
0010
0001
0010
1000
0100
0001
0100
1000
0010
0100
0001
0010
0100
,  // measure 45
0010
0001
1000
0100
0010
0100
1000
0010
0000
1010
0000
1000
0001
0100
0000
0010
,  // measure 46
0000
1000
0001
0100
0010
1000
0100
0010
0001
0100
0000
0101
0000
0010
0000
1001
,  // measure 47
0000
1010
0000
0010
0000
0100
0000
0001
0000
1000
0000
0010
0100
0001
0000
0010
,  // measure 48
0000
0100
1000
0100
1000
0001
0010
0001
0100
0010
0100
0001
1000
0100
1000
0010
,  // measure 49
0100
0001
0010
0001
0010
0100
1000
0010
0100
0001
0100
1000
0000
1100
0000
0110
,  // measure 50
0000
0101
0000
0011
0000
1001
0000
1100
0000
0100
0000
0011
0000
1100
0000
1001
,  // measure 51
0000
0101
0000
0011
0000
0110
0000
1100
0000
0001
0000
1010
0000
0101
0000
0011
,  // measure 52
0000
1100
0000
0110
0000
1001
0000
0101
0000
0100
0001
1000
0100
0010
0100
1000
,  // measure 53
0001
0000
0000
0100
0000
0000
0000
0000
0000
0010
0000
0000
0000
0000
0000
1000
0000
0001
0000
1000
0000
0001
0000
1000
0000
0001
0000
1000
0000
0000
0000
0000
0000
1010
0000
0000
0000
0000
0000
0101
0000
0000
0000
0000
0000
0011
0000
0000
,  // measure 54
0000
1100
0000
1001
0000
0011
0000
0110
0000
1000
0000
0101
0000
1100
0000
0110
,  // measure 55
0000
0011
0000
1010
0000
1001
0000
0110
0000
0010
0000
0101
0000
1010
0000
1100
,  // measure 56
0000
0011
0000
0110
0000
1001
0000
0101
0000
1000
0000
0100
0000
0010
0000
0002
,  // measure 57
0000
0100
0000
0103
0000
0010
0000
1000
0001
1000
0000
0001
0000
1000
0010
0001
,  // measure 58
0010
1000
0000
0001
0000
0010
0000
0200
0000
0000
0000
1300
0000
0002
0000
0000
,  // measure 59
0000
1003
0000
0001
0100
1000
0100
0001
0000
0010
0000
0100
0000
1000
0000
1100
,  // measure 60
0000
0001
0000
0100
0000
0101
0000
1000
0001
0010
0000
0110
0000
0001
0000
1000
,  // measure 61
0000
0011
0000
0100
0000
1000
0000
1010
0000
0001
0000
0100
0000
0110
0000
1000
,  // measure 62
0000
0001
0000
1000
0100
0010
0001
0010
0100
2000
0000
0000
0020
3000
0000
0200
,  // measure 63
0000
0000
0000
0030
0000
0000
0002
0000
0000
0000
0000
0000
0300
0000
0000
0000
0000
0000
0020
0000
0000
0003
0000
0000
0000
0000
0200
0000
0000
0000
0030
0000
2000
0000
0000
0000
0300
0000
0000
0020
0000
0000
3000
0000
0000
0000
0200
0000
,  // measure 64
0030
0310
0000
0000
0000
0000
0000
0000
0000
0000
0000
0000
0000
0000
0000
0000
;

//---------------dance-single - ----------------
#NOTEDATA:;
#CHARTNAME:;
#STEPSTYPE:dance-single;
#DESCRIPTION:;
#CHARTSTYLE:;
#DIFFICULTY:Medium;
#METER:12;
#RADARVALUES:0.553887,0.787686,0.549203,0.270503,1.209066,473.000000,406.000000,67.000000,33.000000,0.000000,0.000000,0.000000,0.000000,0.000000,0.553887,0.787686,0.549203,0.270503,1.209066,473.000000,406.000000,67.000000,33.000000,0.000000,0.000000,0.000000,0.000000,0.000000;
#CREDIT:;
#NOTES:
0000
0000
0000
0000
,
0100
0010
0010
0000
1000
1000
0000
0001
,
0001
0000
0010
0010
0000
0100
0100
0000
,
1000
1000
0000
0010
0010
0000
0100
0001
,
2000
0000
3010
0100
0010
0100
0002
0000
,
0013
0100
1000
0100
0020
0000
0031
1000
,
0001
1000
0200
0000
0310
0001
0100
0010
,
2000
0000
3001
1000
0010
0100
0002
0000
,
1003
0010
1000
0010
0200
0000
0301
1000
,
0010
0100
0020
0000
0130
0010
2002
0000
,
0000
0000
3003
0100
0000
0100
0000
0000
0000
0010
0000
0010
0000
0000
0000
1000
,
0000
1000
0000
0000
0000
0001
0000
0001
0000
0000
0000
0010
0000
0010
0000
0000
,
0000
0100
0000
0100
0000
0000
0000
1000
0000
1000
0000
0000
0000
0010
0000
0100
,
0000
0101
0000
0000
0000
0001
0000
1000
0000
0000
0000
0010
0000
0100
0000
0000
,
0000
0000
0000
0010
0000
0100
0000
0001
0000
1000
0000
0000
0000
0100
0000
0010
,
0000
0000
0000
0001
0000
0010
0000
0000
0000
0000
0000
0100
0000
1000
0000
0001
,
0000
0100
0000
0000
0000
0000
0000
0010
0000
1000
0000
0001
0000
1000
0000
0000
,
0000
0000
0000
0100
0000
1000
0000
0001
0000
0100
0000
0000
0000
0001
0000
1000
,
0000
0001
0000
0100
0000
0010
0000
0100
0000
0001
0000
0010
0000
0001
0000
1000
,
0000
0200
0000
0000
0000
0310
0000
0002
0000
0000
0000
0103
0000
0010
0000
1000
,
0000
1000
0000
1000
0000
0001
0000
0010
0000
0200
0000
0000
0000
1300
0000
0020
,
0000
0000
0000
0130
0000
0001
0000
0001
0000
0001
0000
0010
0000
0100
0000
1000
,
0000
1000
0000
0000
0000
0010
0000
0100
0000
0001
0000
0100
0000
0100
0000
0000
,
0000
0010
0000
1000
0000
0001
0000
0010
0000
0001
0000
0000
0000
0100
0000
0001
,
0000
1000
0000
0100
0000
0010
0000
0001
0000
0010
0000
0110
0000
0100
0000
1000
,
0000
0001
0000
0001
1000
0000
0010
0000
0100
0000
0010
0000
0100
0000
0010
0000
,
0100
0001
1000
0001
0010
0001
1000
0010
,
1000
0010
1000
0010
1000
0100
0010
0001
,
0100
0001
0010
0001
0100
0001
0100
0001
,
0100
0010
1000
0001
0100
0010
0100
0001
,
1000
0001
1000
0001
1000
0020
0000
0230
,
0000
0302
0000
2003
0000
0000
3002
0000
,
0203
0000
0320
2030
,
0000
0000
0000
0000
0000
0000
3001
0000
0000
0000
0000
1000
0000
0000
0000
0010
,
0000
0000
0000
1000
0000
0000
0000
0001
0000
0000
0000
0010
0000
0000
0000
0001
,
0000
0000
0000
0100
0000
0000
0000
0010
0000
0000
0000
1000
0000
0000
0000
0001
,
0000
0000
0000
0010
0000
0000
0000
0100
0000
0000
0000
1000
0000
0000
0000
0010
,
0000
0000
0000
0100
0000
0000
0000
0001
0000
0000
0000
1000
0000
0010
0000
0100
,
0000
0001
0000
1000
0000
0100
0000
1000
0000
0010
0000
0100
0000
0010
0000
0100
,
0000
0001
0000
0010
0000
0001
0000
1000
0000
0000
0000
0001
0000
0010
0000
0001
,
0000
1000
0000
0100
0000
1000
0000
0010
0000
0100
0000
0001
0000
1000
0000
0010
,
0000
0100
0000
0001
0000
0010
0000
0100
0000
0000
0000
1000
0000
0001
0000
0100
,
0000
0010
0000
1000
0000
0001
0000
1000
0000
0000
0000
0100
0000
0010
0000
0001
,
0000
0010
0000
0100
0000
1000
0000
0010
0000
0100
0000
0010
0000
1000
0000
0001
,
0000
0010
0000
0100
0000
1000
0000
0100
0000
1000
0000
0001
0000
0100
0000
0001
,
0000
1000
0000
0010
0000
1000
0000
0010
0000
1001
0000
1001
0000
0000
0000
0110
,
0000
0110
0000
0101
0000
0000
0000
1010
0000
1100
0000
1100
0000
0000
0000
0011
,
0000
0011
0000
0000
0000
0000
0000
0000
0000
1001
0000
1001
0000
0000
0000
1010
,
0000
1100
0000
1100
0000
0000
0000
0001
0000
0010
0000
0100
0000
1000
0000
0010
,
0000
0100
0000
0001
0000
0010
0000
0011
0000
0000
0000
1001
0000
1001
0000
0110
,
0000
0110
0000
1010
0000
1010
0000
0101
0000
0000
0000
0011
0000
0011
0000
1100
,
0000
1100
0000
0110
0000
0110
0000
1001
0000
0000
0000
0110
0000
1001
0000
0011
,
0000
1100
0000
0110
0000
0011
0000
0101
0000
0200
0000
0000
0000
0310
0000
1000
,
0000
0001
0000
0010
0000
0010
0000
0000
0000
0000
0000
0110
0000
1100
0000
0110
,
0000
0011
0000
1001
0000
1100
0000
0110
0000
0000
0000
0011
0000
0011
0000
1100
,
0000
1100
0000
0101
0000
0101
0000
1010
0000
0000
0000
0101
0000
0110
0000
1100
,
0000
1010
0000
0011
0000
1001
0000
0101
0000
0010
0000
1000
0000
0010
0000
1000
,
0000
0100
0000
0100
0000
0010
0000
0001
0000
0001
0000
0010
0000
0100
0000
0100
,
0000
0100
0000
1000
0000
0001
0000
0020
0000
0000
0000
0130
0000
2000
0000
0000
,
0000
3001
0000
0001
0000
0001
0000
0100
0000
0010
0000
0100
0000
0001
0000
1001
,
0000
1000
0000
0010
0000
0110
0000
0100
0000
0001
0000
0101
0000
0100
0000
0010
,
0000
1010
0000
1000
0000
0100
0000
0110
0000
0010
0000
0001
0000
1001
0000
1000
,
0000
0010
0000
0100
0000
0001
0000
0010
0000
0200
0000
0000
2300
0000
0000
3020
,
0000
0000
0000
0000
0000
0000
0230
0000
0000
0000
0000
0000
0000
0000
0000
0000
0000
0000
0302
0000
0000
0000
0000
0000
0000
0000
0203
0000
0000
0000
0000
0000
0320
0000
0000
0000
0000
0000
0000
2030
0000
0000
0000
0000
0000
0000
0001
0000
,
0000
3001
0000
0000
0000
0000
0000
0000
0000
0000
0000
0000
0000
0000
0000
0000
;

//---------------dance-single - ----------------
#NOTEDATA:;
#CHARTNAME:;
#STEPSTYPE:dance-single;
#DESCRIPTION:;
#CHARTSTYLE:;
#DIFFICULTY:Easy;
#METER:5;
#RADARVALUES:0.295094,0.420099,0.008197,0.139350,0.799213,252.000000,251.000000,1.000000,17.000000,0.000000,0.000000,0.000000,0.000000,0.000000,0.295094,0.420099,0.008197,0.139350,0.799213,252.000000,251.000000,1.000000,17.000000,0.000000,0.000000,0.000000,0.000000,0.000000;
#CREDIT:;
#NOTES:
0000
0000
0000
0000
,
0000
0100
0000
0000
0001
0000
0000
1000
,
0000
0000
0100
0000
0000
0010
0000
0000
,
0001
0000
0000
0100
0000
0000
0000
0000
,
0002
0000
0003
0100
0000
0010
2000
0000
,
3000
0010
0000
0001
0200
0000
0300
1000
,
0000
0001
0020
0000
0030
1000
0000
0100
,
0002
0000
0003
0100
0000
0010
2000
0000
,
3000
0100
0000
0001
0020
0000
0030
1000
,
0000
0001
0200
0000
0300
0010
2002
0000
,
0000
0000
3003
0010
0000
0000
0000
0000
0000
0100
0000
0000
0000
0000
0000
0001
,
0000
0000
0000
0000
0000
1000
0000
0000
0000
0000
0000
0100
0000
0000
0000
0000
,
0000
0010
0000
0000
0000
0000
0000
0001
0000
0000
0000
0000
0000
0000
0000
0000
,
0000
1000
0000
0000
0000
1000
0000
0001
0000
0000
0000
0100
0000
0010
0000
0000
,
0000
0000
0000
0000
0000
0000
0000
1000
0000
0001
0000
0000
0000
0010
0000
0100
,
0000
0000
0000
1000
0000
0100
0000
0000
0000
0000
0000
0000
0000
0000
0000
1000
,
0000
0010
0000
0000
0000
0000
0000
0000
0000
0000
0000
1000
0000
0001
0000
0000
,
0000
0000
0000
0000
0000
0000
0000
1000
0000
0010
0000
0000
0000
0000
0000
0001
,
0000
0000
0000
0000
0000
0100
0000
0000
0000
0000
0000
0100
0000
0000
0000
1000
,
0000
0020
0000
0000
0000
0130
0000
2000
0000
0000
0000
3010
0000
0100
0000
0000
,
0000
0000
0000
0000
0000
0000
0000
0100
0000
0020
0000
0000
0000
0031
0000
0200
,
0000
0000
0000
0310
0000
1000
0000
0000
0000
0000
0000
0000
0000
0000
0000
0001
,
0000
0001
0000
0000
0000
0000
0000
0000
0000
0000
0000
0010
0000
0010
0000
0000
,
0000
0000
0000
0000
0000
0000
0000
0100
0000
1000
0000
0000
0000
0000
0000
1000
,
0000
0000
0000
0000
0000
0100
0000
0000
0000
0000
0000
0010
0000
0000
0000
0000
,
0000
1000
0000
0000
0000
0000
0100
0000
0000
0000
0000
0000
0010
0000
0000
0000
,
0000
1000
0000
0000
0100
0000
0000
0100
,
0000
0000
0001
0000
0000
0010
0000
0000
,
0010
0000
0000
1000
0000
0000
0010
0000
,
0000
0100
0000
0000
0010
0000
0000
1000
,
0000
0000
0001
0000
0000
1000
0000
0001
,
0000
0100
0000
0010
0000
0000
0100
0000
,
0010
0000
1000
0002
,
0000
0000
0000
0000
0000
0000
1003
0000
0000
0000
0000
0001
0000
0000
0000
0000
,
0000
0000
0000
0001
0000
0000
0000
0000
0000
0000
0000
0100
0000
0000
0000
0000
,
0000
0000
0000
0010
0000
0000
0000
0000
0000
0000
0000
0001
0000
0000
0000
0000
,
0000
0000
0000
0100
0000
0000
0000
0000
0000
0000
0000
0001
0000
0000
0000
0000
,
0000
0000
0000
0010
0000
0000
0000
0000
0000
0000
0000
0001
0000
0000
0000
0010
,
0000
0000
0000
0001
0000
0000
0000
0001
0000
0000
0000
0010
0000
0000
0000
0010
,
0000
0000
0000
0100
0000
0000
0000
0001
0000
0000
0000
1000
0000
0000
0000
1000
,
0000
0000
0000
0010
0000
0000
0000
0100
0000
0000
0000
1000
0000
0000
0000
0100
,
0000
0000
0000
1000
0000
0000
0000
0010
0000
0000
0000
0001
0000
0000
0000
0010
,
0000
0000
0000
0001
0000
0000
0000
0001
0000
0000
0000
0010
0000
0000
0000
1000
,
0000
0000
0000
0010
0000
0000
0000
0100
0000
0000
0000
0100
0000
0000
0000
1000
,
0000
0000
0000
0010
0000
0000
0000
0010
0000
0000
0000
1000
0000
0000
0000
1000
,
0000
0000
0000
0100
0000
0000
0000
0100
0000
0001
0000
1000
0000
0000
0000
0100
,
0000
0010
0000
1000
0000
0000
0000
0100
0000
0010
0000
0001
0000
0000
0000
0100
,
0000
0010
0000
0000
0000
0000
0000
0000
0000
1000
0000
0001
0000
0000
0000
0100
,
0000
0010
0000
1000
0000
0000
0000
0001
0000
1000
0000
0000
0000
0001
0000
0000
,
0000
0010
0000
0000
0000
0100
0000
1000
0000
0000
0000
1000
0000
0001
0000
0100
,
0000
0010
0000
0100
0000
0001
0000
1000
0000
0000
0000
0100
0000
1000
0000
0001
,
0000
0010
0000
0100
0000
0010
0000
0001
0000
0000
0000
0010
0000
0001
0000
1000
,
0000
0001
0000
0010
0000
0100
0000
1000
0000
0010
0000
0000
0000
0100
0000
0000
,
0000
1000
0000
0100
0000
1000
0000
0000
0000
0000
0000
0100
0000
0001
0000
0010
,
0000
0100
0000
1000
0000
0001
0000
0010
0000
0000
0000
1000
0000
0100
0000
0010
,
0000
0001
0000
0100
0000
0010
0000
1000
0000
0000
0000
0010
0000
0100
0000
0010
,
0000
1000
0000
0001
0000
0100
0000
0010
0000
1000
0000
0001
0000
0100
0000
0001
,
0000
0000
0000
1000
0000
0100
0000
0000
0000
0001
0000
0010
0000
0000
0000
0000
,
0000
0100
0000
0001
0000
1000
0000
0010
0000
0000
0000
0100
0000
0001
0000
0000
,
0000
0000
0000
0000
0000
0000
0000
0000
0000
0100
0000
0000
0000
1000
0000
0001
,
0000
0000
0000
0100
0000
0010
0000
0000
0000
1000
0000
0010
0000
0000
0000
0100
,
0000
0001
0000
0000
0000
0010
0000
0100
0000
0000
0000
1000
0000
0001
0000
0000
,
0000
1000
0000
0001
0000
1000
0000
0001
0000
0200
0000
0000
0000
0000
0000
0320
,
0000
0000
0000
0000
0000
0000
0130
0000
0000
0000
0000
0000
0000
0000
0000
0000
0000
0000
0100
0000
0000
0000
0000
0000
0000
0000
0001
0000
0000
0000
0000
0000
1000
0000
0000
0000
0000
0000
0000
0010
0000
0000
0000
0000
0000
0000
0100
0000
,
0000
0010
0000
0000
0000
0000
0000
0000
0000
0000
0000
0000
0000
0000
0000
0000
;

//---------------dance-single - ----------------
#NOTEDATA:;
#CHARTNAME:;
#STEPSTYPE:dance-single;
#DESCRIPTION:;
#CHARTSTYLE:;
#DIFFICULTY:Beginner;
#METER:3;
#RADARVALUES:0.137008,0.183793,0.008197,0.122956,0.368868,117.000000,116.000000,1.000000,15.000000,0.000000,0.000000,0.000000,0.000000,0.000000,0.137008,0.183793,0.008197,0.122956,0.368868,117.000000,116.000000,1.000000,15.000000,0.000000,0.000000,0.000000,0.000000,0.000000;
#CREDIT:;
#NOTES:
0000
0000
0000
0000
,
0000
0010
0000
0000
0000
0000
0000
0001
,
0000
0000
0000
0000
0000
0100
0000
0000
,
0000
0000
0000
0010
0000
0000
0000
0000
,
2000
3000
0000
0002
,
0003
0000
0020
0030
,
0000
0200
0300
0000
,
2000
3000
0000
0002
,
0003
0000
0200
0300
,
0000
0020
0030
2002
,
0000
0000
3003
0100
0000
0000
0000
0000
0000
0000
0000
0000
0000
0000
0000
1000
,
0000
0000
0000
0000
0000
0000
0000
0000
0000
0000
0000
0010
0000
0000
0000
0000
,
0000
0000
0000
0000
0000
0000
0000
1000
0000
0000
0000
0000
0000
0000
0000
0000
,
0000
0001
0000
0000
0000
0000
0000
0000
0000
0000
0000
0000
0000
0100
0000
0000
,
0000
0000
0000
0000
0000
0000
0000
0001
0000
0000
0000
0000
0000
0100
0000
0000
,
0000
0000
0000
0000
0000
0010
0000
0000
0000
0000
0000
0000
0000
0000
0000
0001
,
0000
0000
0000
0000
0000
0000
0000
0000
0000
0000
0000
0001
0000
0000
0000
0000
,
0000
0000
0000
0000
0000
0000
0000
0001
0000
0000
0000
0000
0000
0000
0000
1000
,
0000
0000
0000
0000
0000
0000
0000
0000
0000
0000
0000
0010
0000
0000
0000
0000
,
0000
0200
0000
0000
0000
0300
0000
0002
0000
0000
0000
0003
0000
0010
0000
0000
,
0000
0000
0000
0000
0000
0000
0000
0010
0000
0000
0000
0000
0000
1000
0000
0000
,
0000
0000
0000
0100
0000
0000
0000
0000
0000
0000
0000
0000
0000
0000
0000
1000
,
0000
0000
0000
0000
0000
0000
0000
0000
0000
0000
0000
0100
0000
0000
0000
0000
,
0000
0000
0000
0000
0000
0000
0000
0010
0000
0000
0000
0000
0000
0000
0000
0001
,
0000
0000
0000
0000
0000
0000
0000
0000
0000
0000
0000
0100
0000
0000
0000
0000
,
0000
0001
0000
0000
0000
0000
0000
0000
0000
0000
0000
0000
0100
0000
0000
0000
,
0000
0000
0010
0000
,
0000
1000
0000
0000
,
0100
0000
0000
0100
,
0000
0000
0100
0000
,
0000
0000
1000
0000
0000
0001
0000
0000
,
0000
0010
0000
0000
0000
0000
0010
0000
,
0000
0000
0000
2000
,
0000
0000
0000
0000
0000
0000
3001
0000
0000
0000
0000
1000
0000
0000
0000
0000
,
0000
0000
0000
0000
0000
0000
0000
0000
0000
0000
0000
0010
0000
0000
0000
0000
,
0000
0000
0000
0000
0000
0000
0000
0000
0000
0000
0000
1000
0000
0000
0000
0000
,
0000
0000
0000
0000
0000
0000
0000
0000
0000
0000
0000
1000
0000
0000
0000
0000
,
0000
0000
0000
0000
0000
0000
0000
0000
0000
0000
0000
1000
0000
0000
0000
0000
,
0000
0000
0000
0000
0000
0000
0000
1000
0000
0000
0000
0000
0000
0000
0000
0000
,
0000
0000
0000
0010
0000
0000
0000
0000
0000
0000
0000
0000
0000
0000
0000
0001
,
0000
0000
0000
0000
0000
0000
0000
0010
0000
0000
0000
0000
0000
0000
0000
0010
,
0000
0000
0000
0000
0000
0000
0000
0100
0000
0000
0000
0000
0000
0000
0000
0100
,
0000
0000
0000
0000
0000
1000
0000
0000
0000
0000
0000
0000
0000
0000
0000
0001
,
0000
0000
0000
0000
0000
0000
0000
0010
0000
0000
0000
0000
0000
0000
0000
0001
,
0000
0000
0000
0000
0000
0000
0000
0100
0000
0000
0000
0000
0000
0000
0000
0001
,
0000
0000
0000
0000
0000
0000
0000
0010
0000
0000
0000
0000
0000
0000
0000
0010
,
0000
0000
0000
0000
0000
0000
0000
0010
0000
0000
0000
0000
0000
0000
0000
0010
,
0000
0000
0000
0000
0000
0000
0000
0000
0000
0001
0000
0000
0000
0000
0000
0000
,
0000
0100
0000
0000
0000
0000
0000
1000
0000
0000
0000
0000
0000
0000
0000
0000
,
0000
0100
0000
0000
0000
0000
0000
0001
0000
0000
0000
0000
0000
1000
0000
0000
,
0000
0000
0000
0010
0000
0000
0000
0000
0000
0000
0000
0010
0000
0000
0000
0000
,
0000
0000
0000
0010
0000
0000
0000
0000
0000
0000
0000
0100
0000
0000
0000
0000
,
0000
1000
0000
0000
0000
0000
0000
0001
0000
0000
0000
0000
0000
0010
0000
0000
,
0000
0000
0000
0010
0000
0000
0000
0000
0000
0000
0000
0010
0000
0000
0000
0000
,
0000
0010
0000
0000
0000
0000
0000
0100
0000
0000
0000
0001
0000
0000
0000
0000
,
0000
1000
0000
0000
0000
0000
0000
0001
0000
0000
0000
0100
0000
0000
0000
0000
,
0000
0001
0000
0000
0000
0000
0000
0100
0000
0000
0000
0000
0000
0010
0000
0000
,
0000
0000
0000
0001
0000
0000
0000
0000
0000
1000
0000
0000
0000
0000
0000
0000
,
0000
0010
0000
0000
0000
0000
0000
0100
0000
0000
0000
0010
0000
0000
0000
0000
,
0000
0000
0000
0000
0000
0000
0000
0000
0000
0010
0000
0000
0000
0000
0000
1000
,
0000
0000
0000
0000
0000
0100
0000
0000
0000
0000
0000
0100
0000
0000
0000
0000
,
0000
1000
0000
0000
0000
0100
0000
0000
0000
0000
0000
0001
0000
0000
0000
0000
,
0000
0001
0000
0000
0000
0000
0000
1000
0000
0020
0000
0000
0000
0000
0000
0230
,
0000
0000
0000
0000
0000
0000
0000
0000
0000
0310
0000
0000
0000
0000
0000
0000
0000
0000
0000
0000
0000
0000
0000
0010
,
0000
0100
0000
0000
0000
0000
0000
0000
0000
0000
0000
0000
0000
0000
0000
0000
;
