#TITLE:Capitalism Cannon;
#SUBTITLE:;
#ARTIST:O2i3;
#TITLETRANSLIT:;
#SUBTITLETRANSLIT:;
#ARTISTTRANSLIT:;
#GENRE:;
#CREDIT:;
#BANNER:;
#BACKGROUND:;
#LYRICSPATH:;
#CDTITLE:;
#MUSIC:Capitalism Cannon.mp3;
#OFFSET:0.000000;
#SAMPLESTART:17.279976;
#SAMPLELENGTH:12.000000;
#SELECTABLE:YES;
#BPMS:0.000000=189.759995
,136.000000=190.479996
,174.000000=189.759995
;
#STOPS:19.000000=0.960000,
174.000000=0.440000,
214.500000=0.640000
;
#BGCHANGES:;
#KEYSOUNDS:;
#ATTACKS:;

//---------------dance-single - ----------------
#NOTES:
     dance-single:
     :
     Hard:
     17:
     0.937641,1.000000,0.428053,0.402874,0.721816,683.000000,51.000000,48.000000,0.000000,0.000000,0.000000,0.937641,1.000000,0.428053,0.402874,0.721816,683.000000,51.000000,48.000000,0.000000,0.000000,0.000000:
0000
0000
0000
0000
,
0000
0000
0000
1001
,
0001
0000
1000
0010
0000
0000
0010
0000
1000
0000
0002
0000
0000
0000
0000
0000
,
0000
0000
0103
0010
2000
0000
0000
0000
0000
0000
0000
0000
0002
0000
0000
0000
,
0000
0000
0000
3000
1003
0000
0102
0000
,
1003
0000
0000
0000
0100
0000
0010
0001
0000
0000
0010
0000
0100
0000
1000
0000
,
0000
0000
0001
0000
1000
0000
0001
0000
0000
0000
0000
0000
0000
0000
1000
0001
,
0110
0000
0000
0000
0001
1000
0101
0000
0000
0000
0000
0000
0010
0100
2002
0000
,
0000
0000
0000
3003
,
1000
0010
0100
0000
0100
0000
0010
1000
,
1000
0000
0001
0100
0001
0000
1000
0000
0010
0000
0000
0000
0000
0000
0000
0000
,
0100
0000
0001
0000
1000
0000
0000
0000
1000
0000
0001
0000
0100
0000
0001
1000
,
0001
1000
0010
0100
0101
0000
0000
0000
,
1010
0000
0000
0000
1000
0000
0000
0000
0001
0000
0000
0000
0100
0001
0010
0001
,
0100
0000
0001
0000
0010
0000
0100
0000
1000
0001
0010
0001
1000
0000
0000
0000
,
0011
0000
0001
0000
1000
0000
0010
0100
0001
0000
0000
1001
0000
0000
0200
0000
,
0020
0000
0000
0330
0110
0100
0001
1000
,
0100
0000
1000
0000
0001
0000
0100
0010
0100
0001
0010
0001
1000
0100
1000
0001
,
0100
0001
0100
0000
0010
0000
1000
0000
0001
0000
0100
0010
0100
0000
0100
0000
,
0001
0000
1000
0000
0001
0000
1000
0010
1000
0000
0000
0000
0000
0000
0000
0000
,
1001
0000
0001
0100
1000
0000
1000
0100
0001
0000
0010
0100
1000
0000
1000
0000
,
0001
0000
1000
0100
0001
0000
0001
0100
1000
0000
0000
0000
1001
0000
0000
0000
,
0001
0000
0001
0000
1000
0100
1000
0100
0010
0000
0001
0100
0001
0100
0010
1000
,
0020
0000
0000
0000
,
0130
0000
0000
0000
0001
0000
0000
0000
1000
0000
0000
0000
0001
0010
0100
0010
,
0001
0000
1000
0000
1000
0000
0100
0010
0002
0000
0000
0000
0000
0000
0003
0000
,
1001
0000
0100
0000
0020
0000
0030
0000
0110
0000
0100
0000
0001
1000
0001
0000
,
0100
0010
0000
0010
1000
0000
0001
0000
0100
0010
0100
0010
1000
0000
0001
0000
,
1001
0000
0000
0000
0000
0000
1000
0000
0000
0000
0000
0000
0100
0000
0000
0000
0000
0000
0010
0000
0000
0000
0000
0000
0001
0000
0000
0000
0010
0000
0000
0000
0001
0000
0000
0000
1000
0000
0000
0100
0000
0000
1000
0000
0000
0010
0000
0000
,
0100
0010
0100
0001
0010
0100
1000
0001
0010
0100
0010
0100
0010
0100
0010
0100
,
1000
0000
0011
0001
1000
0010
0110
0100
,
0001
1000
0000
1000
0100
0000
0000
0000
2010
0000
0000
0000
3100
0000
0000
0000
,
0102
1003
0020
0230
,
0310
0000
1000
0000
2002
0000
0000
3003
,
1000
0100
1000
0000
0001
0100
0001
0000
1000
0010
1000
0000
0001
0100
0001
0000
,
1000
0010
0100
0010
1000
0001
0100
0001
0010
0100
0010
0100
1000
0000
0000
0000
,
0101
0000
0001
0000
1000
0000
0000
0000
0010
0000
0000
0100
0001
0000
1000
0000
,
0010
0000
0000
0100
0001
0000
0010
0000
0200
0000
0000
0000
2300
0000
0000
0000
,
3010
0000
0000
0010
0100
0000
0000
0000
0001
0000
0100
0010
0100
0000
0002
0000
,
2000
0000
0000
0000
0000
0000
0000
3003
,
1001
0000
1000
0000
1010
0000
0010
0000
0100
0000
0001
0000
1000
0000
0001
0010
,
0001
0100
0001
0010
1000
0010
0001
0000
,
0011
0000
0010
0000
0110
0000
0100
1000
0010
0000
0010
0100
0001
0000
1000
0000
,
1000
0000
0010
0000
1000
0000
0001
1000
0020
0000
0100
0000
0130
0000
0101
0000
,
0000
0001
1000
0001
0010
0001
0100
0001
,
0010
0010
0100
1000
0000
0101
0001
1010
,
0000
0100
0001
1000
0010
0100
0001
0100
,
0110
0000
0000
0000
0000
0001
0100
1000
,
0100
0001
1000
0100
0001
0100
1000
0010
,
0100
0001
0100
0110
0000
0010
1000
0100
,
0010
0001
0100
0010
0001
1000
1000
1000
,
0100
0000
0001
1000
0010
1000
0001
0000
0000
0000
1000
0000
0001
0000
0010
0000
,
0100
0000
1000
0000
0100
0000
0010
0000
0001
0000
1000
0010
1000
0010
0100
0010
,
0100
0001
0100
0001
0010
0100
1000
0001
1000
0010
0200
0000
0000
0000
0000
0000
,
0000
0310
1000
0001
0001
0100
0010
1000
,
0001
0000
1000
0000
0010
0000
1000
0001
1000
0000
0010
0100
0010
0000
1000
0100
,
1000
0000
0001
0010
0001
0000
0100
0010
1000
0000
0001
0100
0010
0000
0200
0000
,
0300
0000
2002
0000
3003
0000
1000
0010
0100
0000
0100
0001
0010
0000
0010
0100
,
1000
0000
0001
0000
0100
0010
0100
0000
0100
0000
0001
1000
0001
1000
0010
0000
,
0010
0000
0201
0000
0310
0000
1000
0010
0100
0000
0001
0010
0100
0000
0200
0000
,
0300
0000
1000
0100
0001
0000
1000
0010
0001
0000
0100
0001
1000
0000
2002
0000
,
3003
0000
1000
0000
0100
0010
0001
0000
0100
0010
0001
0000
1000
0100
0010
0000
,
1000
0100
0010
0001
0010
0100
1000
0010
0200
0000
0000
0000
0000
0000
0000
0000
,
0310
0000
0000
0110
0000
0000
0001
0000
1001
0000
0000
0000
0001
1000
0001
0000
,
0001
0010
0001
0000
0001
0100
0001
0000
0001
1000
0001
0000
2010
0000
0000
0000
,
3002
0000
0000
0000
1003
0001
1000
0000
1000
0010
1000
0000
1000
0100
0010
0000
,
0010
0000
0001
0100
0010
0000
0010
0000
1000
0001
1000
0001
0100
0000
0100
0000
,
1020
0000
0130
0000
0001
0100
0010
0000
1000
0100
0010
0000
0020
0000
0030
0000
,
0001
0010
1000
0000
0001
0100
1000
0000
0010
1000
0001
0000
2002
0000
3003
0000
,
0010
0000
1000
0001
0100
0000
0001
0010
0100
0000
1000
0010
0001
0000
0010
2000
,
0002
0000
0000
0000
0000
0000
0000
3003
,
0110
0010
1001
0001
,
1000
0010
1000
0010
0100
0001
0100
0001
0010
0100
0010
0100
1000
0001
1000
0001
,
0100
0000
0010
0000
1000
0000
0001
0000
0100
0000
0001
0000
0010
0100
1000
0100
,
0010
0000
0001
0010
0001
0000
1000
0000
0010
0100
0010
0100
0001
0000
1000
0100
,
0020
0031
0101
0010
,
2001
0000
0000
0000
3010
0000
0000
0000
1000
0000
0000
0001
0000
0000
0100
0000
,
0001
1000
0100
1000
0010
0000
0010
1000
0001
0000
0100
0001
1000
0010
1000
0100
,
0010
0001
0010
0100
0010
0001
1000
0001
0100
0010
0100
0001
0100
0010
0100
0001
,
2000
0000
0000
0000
0000
0000
3002
0000
0000
0000
0000
0000
0000
0000
0000
1003
0010
0000
0000
0000
0100
0001
0000
0000
,
0010
0000
0000
0100
0000
0000
1000
0000
0000
0100
0000
0000
0010
0000
0001
0000
0010
0000
0100
1000
0001
0010
0100
1000
,
0000
0000
0000
0000
1100
0000
0000
0000
1000
0010
1000
0001
0100
0000
0100
0000
,
0001
1000
0001
0000
1000
0010
0000
0010
0100
0001
0100
0010
1000
0000
0000
0000
,
0210
0301
0012
1003
,
2100
0000
0000
0000
3010
0000
0000
0000
0110
0000
0000
0101
0000
0000
1010
0000
,
0010
0000
0100
0000
0001
0000
0000
0000
1000
0000
0010
0100
0010
0000
0100
0000
,
2002
0000
0000
0000
,
0000
0000
0000
0000
,
0000
0000
0000
0000
0000
0000
0000
3003
,
1001
0000
0000
0000
;

//---------------dance-single - ----------------
#NOTES:
     dance-single:
     :
     Medium:
     13:
     0.695437,0.672296,0.285369,0.470019,0.184651,490.000000,34.000000,56.000000,0.000000,0.000000,0.000000,0.695437,0.672296,0.285369,0.470019,0.184651,490.000000,34.000000,56.000000,0.000000,0.000000,0.000000:
0000
0000
0000
0000
,
0000
0000
0000
0110
,
0010
1000
0000
1000
0001
0200
0000
0000
,
0000
0301
2000
0000
0000
0000
0002
0000
,
0000
0000
0000
3000
0103
0000
2002
3003
,
0010
0000
1000
0001
0000
0001
1000
0100
,
0000
0010
0001
0100
0000
0000
0000
0001
,
0101
0000
1000
1010
0000
0000
0010
2002
,
0000
0000
0000
3003
,
0100
0001
1000
0000
0010
0000
0100
0001
,
1000
0010
0010
0100
0001
0000
0000
0000
,
1000
0100
0010
0000
0001
1000
0001
0100
,
0100
0010
1000
0001
0100
0000
0000
0000
,
0101
0000
0100
0000
0010
0000
1000
0010
,
1000
0001
0010
0100
0010
0001
1000
0000
,
0001
0000
0001
0000
1000
0000
0010
0000
0100
0000
0000
0010
0000
0000
2000
0000
,
0002
0000
0000
3003
0001
0100
0001
1000
,
0100
1000
0001
0100
0001
0100
0010
1000
,
0010
1000
0001
0100
0001
0010
0100
1000
,
0100
0010
0001
0100
0100
0000
0000
0000
,
0001
0000
0000
1000
0010
0000
0000
0010
0100
0000
0000
0100
0001
0000
0000
0000
,
1000
0000
0000
1000
0100
0000
0000
0100
0010
0000
0000
0000
1001
0000
0000
0000
,
0001
0000
1000
0010
0100
0000
0001
0010
,
0200
0000
0000
0000
,
1300
0000
0001
0000
0010
0000
0001
0100
,
0001
0000
1000
0010
0200
0000
0000
0300
,
0001
0100
0020
0000
1030
0001
0100
0001
,
0100
0000
0010
0000
1000
0001
0100
0000
,
0110
0000
0010
1000
0001
0100
0010
1000
,
0100
0010
0001
0100
0002
0000
0000
0000
,
1003
0000
0001
0000
1000
0000
0010
0100
,
0001
0100
2010
3001
,
0102
1003
1002
2003
,
3020
0000
0130
0000
2002
0000
0000
3003
,
1000
0010
0000
0000
0001
0100
0000
0000
1000
0010
0000
0000
0001
0100
0000
0000
,
1000
0010
0100
0001
0010
0100
1000
0000
,
1001
0000
0001
0000
0100
0000
0010
1000
,
0010
0000
0100
0001
1000
0000
0010
0000
,
0100
0000
0001
0000
1000
0010
0100
0001
,
0200
0000
0000
0000
,
0301
0001
0001
1000
0010
0100
0100
0001
,
1000
0100
0010
0001
0010
0100
1000
0000
,
0010
0010
0010
0100
0001
1000
0001
0100
,
0100
0010
0100
0001
1001
0100
0100
0100
,
0000
0010
0001
0010
1000
0001
0010
0001
,
1000
0100
1000
0001
0000
1000
1000
1001
,
0000
0100
0001
0100
0010
1000
0001
0001
,
0101
0000
0000
0000
0000
0001
2000
0000
,
3020
0000
0230
0000
0301
1000
0001
1000
,
0200
0000
0010
0310
0000
0001
1000
0001
,
0200
0000
0320
0000
1030
0001
1000
0001
,
0010
0100
0100
1000
0000
0001
0010
0100
,
1000
0100
0010
0001
1000
0010
0001
0010
,
1000
0100
0001
0100
1000
0002
0000
0000
,
0000
0103
0100
0010
0010
1000
0001
0100
,
0010
0000
2002
0000
3003
0000
1000
0001
0000
0000
0001
0100
0000
0000
0100
0010
,
0000
0000
0010
1000
0000
0000
1000
0100
0000
0000
0100
0010
0000
0000
0002
0000
,
0000
0000
2000
0000
3003
0000
0001
0100
0000
0000
0100
0010
0000
0000
0010
1000
,
0000
0000
1000
0000
0000
0010
0100
0000
0000
0000
0001
0000
0000
1000
0001
0000
,
0000
0000
0100
0000
0010
0000
1000
0010
0000
0000
0100
0001
0000
0000
0220
0000
,
0330
0000
1000
0100
0000
0000
0010
0001
0000
0000
1000
0001
0000
0000
2002
0000
,
3003
1000
0001
0010
0001
1000
0010
1000
,
0001
0100
0002
0000
2000
0000
0000
3003
,
0010
0000
0000
1000
0000
0000
0010
0000
0110
0000
0000
0000
0010
0100
0000
0000
,
0100
0001
0000
0000
0001
0010
0000
0000
0010
0100
0000
0000
2000
0000
0000
0000
,
0002
0000
3003
0000
1000
0010
0000
0000
0010
0100
0000
0000
0100
0001
0000
0000
,
0001
0000
0000
0100
0010
0000
0000
0000
1000
0000
0000
0001
1000
0000
0000
0000
,
0010
0000
0100
0000
0001
0100
0000
0000
0010
1000
0000
0000
0220
0000
0330
0000
,
0001
0010
0000
0000
0100
1000
0000
0000
0001
1000
0000
0000
2002
0000
3003
0000
,
0001
1000
0100
1000
0001
1000
0010
0100
,
0220
0000
0000
0000
0000
0000
0000
0330
,
0101
0010
1010
1000
,
0001
0010
1000
0010
0001
0100
1000
0100
,
0001
0010
0100
0010
0100
1000
0010
0100
,
0001
1000
0010
0001
0010
1000
0100
0010
,
0002
1003
1001
0001
,
0201
0000
0000
0000
0310
0000
0000
0000
1000
0000
0000
0001
0000
0000
1000
0000
,
0010
1000
0001
0010
0001
0100
0010
1000
,
0100
0010
0100
1000
0001
0010
0100
0010
,
0002
0000
1003
0000
0000
1020
0000
0230
,
0000
0301
1000
0001
1000
0010
0100
0000
,
0010
0000
0110
0000
0100
0001
1000
0000
,
0001
0010
0100
0000
1000
0100
0010
0000
,
0012
0103
0120
1030
,
2001
0000
0000
0000
3010
0000
0000
0000
0100
0000
0000
0001
0000
0000
1000
0000
,
0100
0000
1000
0000
0001
0000
0000
0000
0100
0000
0001
1000
0001
0000
0000
0000
,
2002
0000
0000
0000
,
0000
0000
0000
0000
,
0000
0000
0000
0000
0000
0000
0000
3003
,
0110
0000
0000
0000
;

//---------------dance-single - ----------------
#NOTES:
     dance-single:
     :
     Easy:
     5:
     0.432850,0.560246,0.142684,0.470019,0.000000,288.000000,17.000000,56.000000,0.000000,0.000000,0.000000,0.432850,0.560246,0.142684,0.470019,0.000000,288.000000,17.000000,56.000000,0.000000,0.000000,0.000000:
0000
0000
0000
0000
,
0000
0000
0000
1000
,
0001
0100
0000
0000
0000
0002
0000
0000
,
0000
1003
0001
0000
0000
0000
0200
0000
,
0000
0000
0310
0010
,
1000
0000
0001
1000
0000
0000
0010
1000
,
0000
0000
0000
0100
0000
0000
0000
0000
,
1001
0000
0000
0110
0000
0000
0000
2002
,
0000
0000
0000
3003
,
0001
1000
0010
1000
,
0001
1000
0010
0000
,
0100
0010
0100
0001
,
1000
0100
1000
0000
,
0001
0100
0001
1000
,
0010
1000
0010
0000
,
0100
0000
0001
0000
0100
0000
0000
0001
,
2000
0000
3010
0100
,
0001
0010
0100
1000
,
0100
1000
0001
0100
,
0001
0100
0010
0000
,
0002
0023
0230
1300
,
0020
0230
0302
1003
,
0001
1000
0100
0010
,
0002
0000
0000
0000
,
1003
1000
0010
0000
,
0001
0001
0100
0000
,
0001
0010
0100
1000
,
0100
0010
0002
0103
,
1000
0100
0010
0001
,
0000
0000
0200
0000
,
0310
0001
1000
0001
,
1000
0100
2000
3000
,
0002
0003
2000
3001
,
0200
0000
0300
0000
2002
0000
0000
3003
,
0100
0010
0100
0001
,
2000
0000
0000
3001
,
1001
0000
0100
0010
,
0010
0100
1000
0010
,
0100
0001
0100
0010
,
0200
0000
0000
0000
,
0301
0001
0010
0100
,
1000
0010
0010
1000
,
0010
0010
0100
0100
,
0001
0000
0001
0000
1000
0010
0000
0100
,
0000
0001
0000
0100
0000
0001
0000
0001
,
0000
1000
0000
0001
0000
0001
0000
1000
,
0000
0100
0000
0100
0000
1000
0000
0001
,
0000
0000
0000
0000
0000
1000
0002
0000
,
2003
3020
0230
0302
,
2003
0000
3010
0010
0000
0100
0002
0000
,
2003
3200
0320
0032
,
0023
0000
0130
1000
0000
0001
0000
1000
,
0000
0100
0000
1000
0000
0001
0000
0100
,
0000
0001
0000
1000
0000
0020
0000
0000
,
0000
1030
0000
0001
0000
0100
0000
0010
,
0000
2002
0000
3003
0000
0001
0000
0100
,
0000
0010
0000
1000
0000
0100
0000
0020
,
0000
0031
0000
1000
0000
0010
0000
0100
,
0000
0001
0000
1000
0000
0001
0000
0100
,
0000
0001
1000
0001
0000
0100
0000
0020
,
0000
1030
0000
0010
0000
1000
0000
0002
,
0000
0103
0000
0010
0000
1000
0000
0010
,
0000
0100
0002
0000
2000
0000
0000
3003
,
0000
0000
1001
0010
,
0100
0001
0100
0002
,
1003
0010
1000
0100
,
0010
0001
0010
0100
,
1000
0100
1000
0000
0010
0000
0200
0000
,
0301
1000
0001
2000
,
3001
0100
0001
0010
,
0220
0000
0000
0000
0000
0000
0000
0330
,
1001
0010
1001
0000
,
0001
0010
0100
1000
,
0010
0100
0001
1000
,
0010
1000
0001
0010
,
0200
0300
1001
0000
,
0020
0030
0110
0000
,
0100
0001
0100
0010
,
1000
0010
0100
0001
,
2000
0000
3010
0000
0000
0010
0000
0010
,
0000
1000
0001
1000
,
0000
0000
0110
0000
0000
0001
1000
0000
,
0000
0010
0100
0000
0000
0000
0100
0000
,
0022
0033
1001
0000
,
2200
3300
0100
0000
,
0000
1000
0001
0000
0000
0001
1000
0000
,
2002
0000
0000
0000
,
0000
0000
0000
0000
,
0000
0000
0000
0000
0000
0000
0000
3003
,
0001
0000
0000
0000
;

//---------------dance-single - ----------------
#NOTES:
     dance-single:
     :
     Beginner:
     3:
     0.248199,0.373498,0.041966,0.201437,0.000000,178.000000,5.000000,24.000000,0.000000,0.000000,0.000000,0.248199,0.373498,0.041966,0.201437,0.000000,178.000000,5.000000,24.000000,0.000000,0.000000,0.000000:
// measure 0
0000
0000
0000
0000
,  // measure 1
0000
0000
0000
0001
,  // measure 2
1000
0000
0000
0000
0000
1000
0000
0000
,  // measure 3
0000
0001
0000
0000
0000
0000
0010
0000
,  // measure 4
0000
0000
0100
0000
,  // measure 5
0001
1000
0000
0100
,  // measure 6
0000
0000
0000
0010
0000
0000
0000
0000
,  // measure 7
0001
0000
0000
0100
0000
0000
0000
2002
,  // measure 8
0000
0000
0000
3003
,  // measure 9
1000
0000
0100
0000
,  // measure 10
1000
0000
0100
0000
,  // measure 11
0010
0000
0010
0000
,  // measure 12
0001
0000
0001
0000
,  // measure 13
1000
0000
1000
0000
,  // measure 14
0100
0000
0100
0000
,  // measure 15
0010
0000
0010
0000
,  // measure 16
0002
0000
0103
0000
,  // measure 17
1000
0000
0010
0000
,  // measure 18
0010
0000
1000
0000
,  // measure 19
1000
0000
0100
0000
,  // measure 20
2000
3100
0010
0001
,  // measure 21
0100
0010
2000
3001
,  // measure 22
1000
0000
0010
0000
,  // measure 23
2000
0000
0000
0000
,  // measure 24
3001
0000
0100
0000
,  // measure 25
1000
0000
0010
0000
,  // measure 26
1000
0000
0010
0000
,  // measure 27
0010
0000
2000
3010
,  // measure 28
0001
0000
0100
0000
,  // measure 29
0000
0000
0020
0000
,  // measure 30
0130
0000
0001
0000
,  // measure 31
0001
0000
0002
0003
,  // measure 32
2000
3000
0002
0003
,  // measure 33
0020
0030
2000
0000
,  // measure 34
3010
0000
0010
0000
,  // measure 35
0002
0000
0000
1003
,  // measure 36
1000
0000
0010
0000
,  // measure 37
0100
0000
0001
0000
,  // measure 38
0010
0000
0010
0000
,  // measure 39
0020
0000
0000
0000
,  // measure 40
1030
0000
0100
0000
,  // measure 41
0001
0000
0100
0000
,  // measure 42
0100
0000
0010
0000
,  // measure 43
1000
0000
0000
0000
0001
0100
0000
0000
,  // measure 44
0000
1000
0000
0000
0000
1000
0000
0000
,  // measure 45
0000
0001
0000
0000
0000
1000
0000
0000
,  // measure 46
0000
0010
0000
0000
0000
0001
0000
1000
,  // measure 47
0000
0000
0000
0000
0000
0001
1000
0000
,  // measure 48
0000
0100
0000
1000
,  // measure 49
0000
0000
0100
0100
0000
0010
1000
0000
,  // measure 50
0000
0010
0000
1000
,  // measure 51
0000
0000
0010
0001
0000
1000
0000
0000
,  // measure 52
0000
0010
0000
0000
0000
1000
0000
0000
,  // measure 53
0000
1000
0000
0000
0000
0200
0000
0000
,  // measure 54
0000
0301
0000
0000
0000
0010
0000
0100
,  // measure 55
0000
2000
0000
3000
0000
1000
0000
0000
,  // measure 56
0000
0100
0000
0000
0000
0010
0000
0000
,  // measure 57
0000
1000
0000
0001
0000
0000
0000
0010
,  // measure 58
0000
0000
0000
0001
0000
0000
0000
0010
,  // measure 59
0000
0000
0000
1000
0000
0000
0000
0100
,  // measure 60
0000
0000
0000
0100
0000
0000
0000
1000
,  // measure 61
0000
0000
0000
0100
0000
0001
0000
0000
,  // measure 62
0000
0020
0000
0000
0000
0000
0000
0030
,  // measure 63
0000
0000
1001
0000
,  // measure 64
0010
0000
0010
0000
,  // measure 65
0001
0100
0000
0010
,  // measure 66
0000
1000
0000
0010
,  // measure 67
0000
0001
0000
0010
,  // measure 68
0000
0001
0000
0001
,  // measure 69
1000
0000
1000
0000
,  // measure 70
0020
0000
0000
0000
0000
0000
0000
0030
,  // measure 71
1000
0100
1001
0000
,  // measure 72
1000
0000
0010
0000
,  // measure 73
0100
0000
1000
0000
,  // measure 74
0100
0000
1000
0000
,  // measure 75
0010
0000
1001
0000
,  // measure 76
0100
0000
0010
0000
,  // measure 77
0010
0000
0010
0000
,  // measure 78
0001
0000
0010
0000
,  // measure 79
0002
0000
0003
0000
0000
0100
0000
0100
,  // measure 80
0000
0001
0000
0001
,  // measure 81
0000
0010
0000
0001
,  // measure 82
0000
0010
0000
0010
,  // measure 83
2000
3000
0010
0000
,  // measure 84
0002
0003
1000
0000
,  // measure 85
0000
0100
0000
0010
,  // measure 86
2002
0000
0000
0000
,  // measure 87
0000
0000
0000
0000
,  // measure 88
0000
0000
0000
0000
0000
0000
0000
3003
,  // measure 89
0010
0000
0000
0000
;
