#TITLE:BurningMan;
#SUBTITLE:;
#ARTIST:Zpinkpong;
#TITLETRANSLIT:;
#SUBTITLETRANSLIT:;
#ARTISTTRANSLIT:;
#GENRE:;
#CREDIT:;
#BANNER:;
#BACKGROUND:BurningMan-bg.png;
#LYRICSPATH:;
#CDTITLE:;
#MUSIC:BurningMan.mp3;
#OFFSET:-0.040000;
#SAMPLESTART:26.718517;
#SAMPLELENGTH:12.000000;
#SELECTABLE:YES;
#BPMS:0.000000=170.000000
;
#STOPS:222.500000=0.180000,
238.000000=0.180000,
311.666656=1.060000,
318.000000=0.560000,
332.333344=0.480000
;
#BGCHANGES:;
#KEYSOUNDS:;
#ATTACKS:;

//---------------dance-single - ----------------
#NOTES:
     dance-single:
     :
     Hard:
     17:
     0.782056,0.881898,0.283974,0.339192,1.329158,694.000000,658.000000,36.000000,43.000000,0.000000,0.000000,0.782056,0.881898,0.283974,0.339192,1.329158,694.000000,658.000000,36.000000,43.000000,0.000000,0.000000:
// measure 0
0000
0000
0000
0000
,  // measure 1
2001
0001
0001
3020
,  // measure 2
1000
0000
0100
0000
1000
0000
0100
0030
,  // measure 3
1002
1000
1000
0203
,  // measure 4
0010
0001
0010
0301
,  // measure 5
2001
0001
0001
3200
,  // measure 6
0010
0000
1000
0000
0010
0000
1000
0300
,  // measure 7
0120
0100
0100
0032
,  // measure 8
1000
0010
1000
0013
,  // measure 9
2002
0000
0000
0000
,  // measure 10
0000
0000
0000
0000
0000
0000
0000
3003
,  // measure 11
0001
0000
0001
0010
0000
0010
0100
0000
0100
1000
0000
1000
,  // measure 12
0001
0000
0001
1000
0000
1000
0010
0000
0010
0100
0000
0100
,  // measure 13
0001
0000
0001
0010
0000
0010
0100
0000
0100
1000
0000
1000
,  // measure 14
0100
0000
0100
0010
0000
0010
0001
0000
0001
1000
0000
1000
,  // measure 15
0001
0000
0001
0100
0000
0100
0010
0000
0010
1000
0000
1000
,  // measure 16
0100
0000
0100
0010
0000
0010
0001
0000
0001
0100
0000
0100
,  // measure 17
0001
1000
0001
1000
0100
0010
0100
0010
0001
0010
0001
0010
,  // measure 18
0100
1000
0100
1000
0001
0100
0001
0100
0010
1000
0010
1000
,  // measure 19
0001
0010
0001
1000
0100
1000
0001
0000
1000
0010
1000
0001
,  // measure 20
0100
0001
1000
0010
1000
0001
0100
0000
0000
1001
0000
0000
,  // measure 21
1000
0100
1000
0001
0010
0001
1000
0000
0001
1000
0001
0100
,  // measure 22
0010
0100
0001
0010
0100
1000
0100
0000
0000
1100
0000
0000
,  // measure 23
1000
0100
1000
0001
0010
0001
1000
0000
0001
0100
0001
1000
,  // measure 24
0010
1000
0001
0100
0001
1000
0010
0000
0000
1001
0000
0000
,  // measure 25
0001
0010
0001
1000
0100
1000
0001
0010
0100
0010
0001
1000
,  // measure 26
0100
0010
0100
1000
0010
0100
0002
0000
0000
0000
0000
0000
,  // measure 27
1003
0010
0100
1000
0100
0010
1000
0100
0010
0001
0100
0010
,  // measure 28
0001
0010
0100
0001
0010
0100
1000
0010
0100
1000
0100
0010
,  // measure 29
1000
0100
0010
0001
0010
0100
0001
0100
0010
0001
1000
0010
,  // measure 30
0100
1000
0100
0010
1000
0100
0010
0001
0100
0010
0001
0010
,  // measure 31
0100
0001
1000
0010
1000
0001
0010
0100
1000
0001
0100
0001
,  // measure 32
1000
0001
0100
0010
1000
0010
0100
0001
1000
0010
0100
0010
,  // measure 33
1000
0000
0001
0000
0100
0000
0010
1000
0001
0000
1000
0000
0002
0000
0000
0000
0000
0000
2003
0000
0000
0000
0000
0000
,  // measure 34
3001
0000
0010
0000
0100
0000
1000
0010
0100
0000
0001
0000
0010
0000
0100
0000
0010
0000
0001
0000
1000
0000
0001
0000
,  // measure 35
1000
0100
0001
1000
0010
0001
0100
0010
0001
0010
0100
1000
,  // measure 36
0001
0010
1000
0001
0100
1000
0100
0010
1000
0100
0010
0001
,  // measure 37
1000
0100
0001
1000
0010
0001
0100
0010
0001
0010
0100
1000
,  // measure 38
0001
0010
1000
0001
0100
1000
0100
0010
1000
0100
0010
0001
,  // measure 39
0010
0000
0010
0001
0000
0001
0100
0000
0100
0010
0000
0010
,  // measure 40
1000
0000
1000
0100
0000
0100
0010
0000
0010
0001
0000
0001
,  // measure 41
0010
0000
0010
0100
0000
0100
1000
0000
1000
0010
0000
0010
,  // measure 42
1000
0000
1000
0001
0000
0001
0100
0000
0100
0010
0000
0010
,  // measure 43
0100
0000
0100
0101
0000
0001
1000
0000
1000
1100
0000
0100
,  // measure 44
0010
0000
0010
0011
0000
0001
1000
0000
1000
1010
0000
0010
,  // measure 45
0100
0000
0100
1001
0000
0010
0100
0000
0100
1001
0000
0001
,  // measure 46
1000
0010
0100
0001
0010
0100
1000
0010
0100
0001
1000
0001
,  // measure 47
2002
0000
0000
0000
0000
3003
0202
0000
,  // measure 48
0000
0000
0000
0000
0000
0000
0000
0303
,  // measure 49
2020
0000
0000
0000
0000
3030
0220
0000
,  // measure 50
0000
0000
0000
0000
0000
0000
0000
0330
,  // measure 51
2002
0000
0000
0000
0000
0000
0000
0000
0000
0000
0003
0000
0002
0000
0000
0000
0000
0000
0000
0000
0000
3000
0003
0000
,  // measure 52
1000
0010
1000
0001
0010
0100
1100
0100
,  // measure 53
1000
0001
1000
0010
0110
0010
1000
0100
,  // measure 54
1100
0100
0010
0001
1000
0001
1001
0001
,  // measure 55
1000
0010
0100
0001
1000
2020
3030
0001
,  // measure 56
0100
0001
1000
0100
0010
0011
0010
0001
,  // measure 57
1000
0001
0100
0110
0100
0001
0010
0011
,  // measure 58
0010
0100
1000
0001
1000
1001
1000
0001
,  // measure 59
0100
0010
1000
0001
0202
0303
2002
3003
,  // measure 60
1000
0001
1000
0001
0000
0000
0001
0100
0001
0100
0000
0000
,  // measure 61
0100
0010
0100
0010
0000
0000
0010
1000
0010
1000
0000
0000
,  // measure 62
1000
0100
1000
0100
0000
0000
0100
0010
0100
0010
0000
0000
,  // measure 63
0010
0001
0010
0001
0000
0000
0001
1000
0001
1000
0000
0000
,  // measure 64
1000
0010
1000
0010
0000
0000
0100
0010
0100
0010
0000
1010
,  // measure 65
0000
0000
0000
0000
1000
0000
0000
0000
0000
0000
0000
0000
1001
0000
0000
0000
0000
0000
0000
0000
0001
0000
0000
0000
0000
0000
0000
0000
1000
0000
0000
0000
0000
0000
0000
0000
0001
0000
0000
0010
0000
0000
0100
0000
0000
1000
0000
0000
,  // measure 66
0001
0000
0000
0000
0000
0000
1000
0000
0000
0000
0000
0000
0000
0000
0000
0000
0000
0000
0010
0000
0000
0000
0000
0000
1000
0000
0000
0100
0000
0000
1000
0000
0000
0000
0000
0000
0001
0000
0000
0000
0000
0000
0000
0000
0010
0000
0000
0000
,  // measure 67
0000
0000
0000
0000
0001
0000
0000
0000
0000
0000
0000
0000
0100
0000
0000
0000
0000
0000
0000
0000
0010
0000
0000
0000
0000
0000
0000
0000
0000
0000
1010
0000
0000
0000
0000
0000
1000
0000
0000
0100
0000
0000
0010
0000
0000
0001
0000
0000
,  // measure 68
1000
0000
0000
0000
0000
0000
0001
0000
0000
0000
0000
0000
0000
0000
0000
0000
0000
0000
0100
0000
0000
0000
0000
0000
0001
0000
0000
0010
0000
0000
0001
0000
0000
0000
0000
0000
1000
0000
0000
0000
0000
0000
0000
0000
0100
0000
0000
0000
,  // measure 69
0000
0000
0000
0000
0000
0000
0000
0000
0000
0000
0000
0000
0000
0000
0000
0000
1000
0000
0000
0000
0000
0000
0000
0000
0000
0000
0000
0000
0000
0000
0000
0000
0000
0000
0000
0000
0000
0000
0000
0000
0000
0000
0000
0000
0000
0000
0000
0000
0001
0000
0000
0000
0000
0000
0000
0000
0000
0000
0000
0000
0000
0000
0000
0000
0000
0000
0000
0000
0000
0000
0000
0000
0000
0000
0000
0000
0000
0000
0000
0000
0100
0000
0000
0000
0000
0000
0000
0000
0000
0000
0000
0000
0000
0000
0000
0000
0000
0000
0000
0000
0000
0000
0000
0000
0000
0000
0000
0000
0000
0000
0000
0000
0101
0000
0000
0000
0000
0000
0000
0000
0000
0000
0000
0000
0000
0000
0000
0000
0000
0000
0000
0000
0000
0000
0000
0000
0000
0000
0000
0000
0000
0000
0000
0000
0000
0000
0000
0000
0000
0000
0001
0000
0000
0000
0000
0000
0000
0000
0000
0000
0000
0000
1000
0000
0000
0000
0000
0000
0000
0000
0000
0000
0000
0000
0010
0000
0000
0000
0000
0000
0000
0000
0000
0000
0000
0000
0000
0000
0000
0000
0000
0000
,  // measure 70
0000
0100
0000
0000
0000
0100
0000
0000
0000
0001
0000
0010
0000
0100
0000
0000
0000
1000
0000
0000
0000
1000
0000
0000
0000
0010
0000
1000
0000
0001
0000
0000
,  // measure 71
0000
0100
0000
0000
0000
0100
0000
0000
0000
0001
0000
1000
0000
0010
0000
0000
0000
0000
0000
0000
0000
0000
0000
0000
0000
1000
0000
0001
0000
0100
0000
0000
,  // measure 72
0000
0010
0000
0000
0000
0010
0000
0000
0000
1000
0000
0100
0000
0010
0000
0000
0000
0001
0000
0000
0000
0001
0000
0000
0000
0100
0000
0010
0000
1000
0000
0000
,  // measure 73
0000
0010
0000
0000
0000
0010
0000
0000
0000
1000
0000
0001
0000
0100
0000
0000
0000
0001
0000
0000
0000
1000
0000
0000
1001
0000
0000
0000
0000
0000
0000
0000
,  // measure 74
1000
0100
1000
0002
0000
0000
0023
0000
0000
0230
0000
0000
,  // measure 75
0310
0001
1000
0002
0000
0000
2003
0000
0000
3020
0000
0000
,  // measure 76
0130
0001
1000
0002
0000
0000
0023
0000
0000
0230
0000
0000
,  // measure 77
1300
0010
0100
0002
0000
0000
2003
0000
0000
3010
0100
0001
,  // measure 78
1000
0100
1000
0001
0100
0001
1000
0000
1000
0001
0100
0001
,  // measure 79
1000
0010
1000
0001
0100
0010
0100
0001
1000
0001
0010
0100
,  // measure 80
0010
0001
0000
0001
1000
0010
0100
0010
1000
0001
0100
0001
,  // measure 81
0100
0010
0000
0010
0000
1000
0000
1000
0100
0001
0100
1000
,  // measure 82
0001
0100
1000
0100
0001
0010
0100
0010
0100
1000
0100
0010
,  // measure 83
0001
1000
0000
2002
0000
0000
0000
0000
0000
0000
0000
0000
,  // measure 84
0000
0000
0000
0000
,  // measure 85
0000
0000
0000
0000
,  // measure 86
3003
0000
0000
0000
;

//---------------dance-single - ----------------
#NOTES:
     dance-single:
     :
     Medium:
     13:
     0.542030,0.712302,0.173540,0.331303,0.729656,481.000000,459.000000,22.000000,42.000000,0.000000,0.000000,0.542030,0.712302,0.173540,0.331303,0.729656,481.000000,459.000000,22.000000,42.000000,0.000000,0.000000:
0000
0000
0000
0000
,
0000
0000
0000
0000
,
0000
0000
0000
0000
,
0000
0000
0000
0000
,
0000
0000
0000
0000
,
0000
0000
0000
0000
,
0000
0000
0000
0000
,
0000
0000
0000
0000
,
0000
0000
0000
0000
,
2002
0000
0000
0000
,
0000
0000
0000
0000
0000
0000
0000
3003
,
1000
0000
0001
0100
0000
0000
0010
0000
0000
0100
0000
0000
,
0001
0000
0100
0010
0000
0000
1000
0000
0000
0100
0000
0000
,
0010
0000
0001
0010
0000
0000
0100
0000
0000
1000
0000
0000
,
0001
0000
0100
0010
0000
0000
1000
0000
0000
0001
0000
0000
,
1000
0000
0010
1000
0000
0000
0001
0000
0000
0010
0000
0000
,
0100
0000
1000
0100
0000
0000
0010
0000
0000
0001
0000
0000
,
1000
0000
0001
0010
0000
0010
0100
0000
0100
1000
0000
1000
,
0010
0000
0010
0100
0000
0100
0001
0000
0001
1000
0000
1000
,
0001
0010
0001
0100
0000
0100
0010
0000
0010
1000
0000
1000
,
0001
0000
0001
0010
0000
0010
0100
0000
0000
1100
0000
0000
,
1000
0100
1000
0001
0000
0001
1000
0000
1000
0010
0000
0010
,
0100
0000
0100
0001
0000
0001
1000
0000
0000
1001
0000
0000
,
0001
0010
0001
0100
0000
0100
0010
0000
0010
1000
0000
1000
,
0001
0000
0001
0010
0000
0010
0001
0000
0000
0101
0000
0000
,
0100
0010
0100
0010
0000
0010
1000
0000
1000
0001
0000
0001
,
0010
0000
0010
0100
0010
0100
2000
0000
0000
0000
0000
0000
,
3001
0010
0001
0010
0000
0010
0100
0000
0100
1000
0000
1000
,
0010
0100
0010
0100
0000
0100
0001
0000
0001
1000
0000
1000
,
0100
0010
0100
0010
0000
0010
0001
0000
0001
0010
0000
0010
,
0100
1000
0100
1000
0000
1000
0100
0000
0100
0010
0000
0010
,
0002
0000
0000
0203
0000
0000
0310
1000
0010
2000
0000
0000
,
3002
0000
0000
0023
0000
0000
0130
1000
0100
2000
0000
0000
,
3020
0000
0000
1030
0001
1000
0002
0000
0000
2003
0000
0000
,
3010
0100
0010
0200
0000
0000
0301
1000
0001
1000
0001
1000
,
0010
0100
0001
0100
0000
0001
0100
0000
0010
1000
0000
0001
,
0010
0100
0010
0001
0000
1000
0100
0000
0010
0001
0000
1000
,
0010
1000
0010
0100
0000
0001
0010
0000
0100
1000
0000
0010
,
0100
0010
1000
0001
0000
1000
0100
0000
0010
0100
0000
1000
,
0001
0101
0100
0110
,
0010
1010
1000
1001
,
0001
0011
0010
0110
,
0100
1100
1000
1010
,
0010
0110
0100
0101
,
0001
1001
1000
1010
,
0010
1010
1000
1001
,
0100
0010
0100
0010
0000
0000
1000
0001
1000
0001
1000
0001
,
0200
0000
0000
0302
,
0000
0000
0000
0000
,
0023
0000
0000
0230
,
0000
0000
0000
0000
0000
0000
0000
0300
,
2002
0000
0000
0000
0000
0000
0000
3003
,
1000
0010
0100
0000
0001
0100
0010
0000
,
1000
0100
0010
0000
0001
0010
0100
0000
,
1000
0001
0010
0000
0100
1000
0001
0000
,
0010
0100
1000
0001
1000
1002
0003
0001
,
0100
0010
0000
1000
0010
0100
0000
0001
,
0010
0100
0000
1000
0100
0010
0000
0001
,
1000
0100
0000
0010
0001
1000
0000
0100
,
0010
0001
1000
0001
0201
0300
0010
0000
,
0100
0000
0100
0001
0000
0000
0001
0000
0001
0100
0000
0000
,
0100
0000
0100
0010
0000
0000
0010
0000
0010
1000
0000
0000
,
1000
0000
1000
0100
0000
0000
0100
0000
0100
0010
0000
0000
,
0010
0000
0010
0001
0000
0000
0001
0000
0001
1000
0000
0000
,
1000
0000
1000
0001
0000
0000
0001
0000
0100
0020
0000
2030
,
0000
0000
3200
0000
0000
0000
2300
0000
0000
0000
3002
0000
0000
0000
0203
0000
0000
0000
0301
0000
0000
0100
0000
0000
,
0001
0000
0000
1000
0000
0000
0000
0000
0000
0010
0000
0000
0100
0000
0000
0010
0000
0000
1000
0000
0000
0000
1000
0000
,
0000
0000
0001
0000
0000
0000
0001
0000
0000
0000
0100
0000
0000
0000
0100
0000
0000
0000
0001
0000
0000
0010
0000
0000
,
0100
0000
0000
0010
0000
0000
0000
0000
0000
0001
0000
0000
1000
0000
0000
0001
0000
0000
0100
0000
0000
0000
0100
0000
,
0000
0000
0000
0000
0000
0000
0000
0000
0000
0000
0000
0000
0000
0000
0000
0000
0010
0000
0000
0000
0000
0000
0000
0000
0000
0000
0000
0000
0000
0000
0000
0000
0000
0000
0000
0000
0000
0000
0000
0000
0000
0000
0000
0000
0000
0000
0000
0000
0010
0000
0000
0000
0000
0000
0000
0000
0000
0000
0000
0000
0000
0000
0000
0000
0000
0000
0000
0000
0000
0000
0000
0000
0000
0000
0000
0000
0000
0000
0000
0000
0100
0000
0000
0000
0000
0000
0000
0000
0000
0000
0000
0000
0000
0000
0000
0000
0000
0000
0000
0000
0000
0000
0000
0000
0000
0000
0000
0000
0000
0000
0000
0000
0100
0000
0000
0000
0000
0000
0000
0000
0000
0000
0000
0000
0000
0000
0000
0000
0000
0000
0000
0000
0000
0000
0000
0000
0000
0000
0000
0000
0000
0000
0000
0000
0000
0000
0000
0000
0000
0000
0001
0000
0000
0000
0000
0000
0000
0000
0000
0000
0000
0000
0000
0000
0000
0000
0000
0000
0000
0000
0000
0000
0000
0000
0010
0000
0000
0000
0000
0000
0000
0000
0000
0000
0000
0000
0000
0000
0000
0000
0000
0000
,
0000
0100
0000
0000
0000
1000
0000
0000
0000
0001
0000
0000
0000
0010
0000
0000
0000
0100
0000
0000
0000
1000
0000
0000
0000
0001
0000
0000
0000
0010
0000
0000
,
0000
0100
0000
0000
0000
1000
0000
0000
0000
0001
0000
0000
0000
0001
0000
0000
0000
0000
0000
0000
0000
0000
0000
0000
0000
1000
0000
0000
0000
0010
0000
0000
,
0000
0100
0000
0000
0000
0001
0000
0000
0000
1000
0000
0000
0000
0010
0000
0000
0000
0100
0000
0000
0000
0001
0000
0000
0000
1000
0000
0000
0000
0010
0000
0000
,
0000
0100
0000
0000
0000
0001
0000
0000
0000
1000
0000
0000
0000
0010
0000
0000
0000
0100
0000
0000
0000
0001
0000
0000
0001
0000
0000
0000
0000
0000
0000
0000
,
0100
0010
0100
0002
0000
0000
2003
0000
0000
3020
0000
0000
,
1030
0100
1000
0200
0000
0000
0320
0000
0000
0032
0000
0000
,
1003
0001
1000
0200
0000
0000
0320
0000
0000
0230
0000
0000
,
0310
0001
0010
0200
0000
0000
2300
0000
0000
3001
0100
0002
,
1003
0000
0010
1000
0000
0001
0100
0000
0010
1000
0000
0100
,
0010
0000
0001
1000
0000
0010
0200
0301
0000
1000
0010
0000
,
0100
0001
0000
1000
0001
0000
0010
0100
0000
1000
0100
0000
,
0010
0001
0000
0000
0000
0000
0000
1000
0001
1000
0001
0000
,
0001
0100
0000
0100
0010
0000
0010
1000
0001
1000
0001
0000
,
0001
1000
0000
2002
0000
0000
0000
0000
0000
0000
0000
0000
,
0000
0000
0000
0000
,
0000
0000
0000
0000
,
3003
0000
0000
0000
;

//---------------dance-single - ----------------
#NOTES:
     dance-single:
     :
     Easy:
     5:
     0.272706,0.339192,0.015776,0.425962,0.003944,242.000000,240.000000,2.000000,54.000000,0.000000,0.000000,0.272706,0.339192,0.015776,0.425962,0.003944,242.000000,240.000000,2.000000,54.000000,0.000000,0.000000:
0000
0000
0000
0000
,
0000
0000
0000
0000
,
0000
0000
0000
0000
,
0000
0000
0000
0000
,
0000
0000
0000
0000
,
0000
0000
0000
0000
,
0000
0000
0000
0000
,
0000
0000
0000
0000
,
0000
0000
0000
0000
,
0000
0000
0000
0000
,
0000
0000
0000
0000
,
0001
0000
1000
0000
,
0001
0010
0001
0000
,
1000
0000
0010
0000
,
1000
0010
1000
0000
,
0001
0000
1000
0000
,
0100
1000
0100
0000
,
0010
0000
0001
0000
,
1000
0000
0001
0000
,
0100
0100
0010
1000
,
0001
0010
0010
0000
,
0001
0001
1000
0010
,
0100
0010
0010
0000
,
1000
1000
0010
1000
,
0001
0010
0010
0000
,
0001
0001
1000
0001
,
0010
0100
0100
0000
,
1000
0010
1000
0001
,
0010
0001
0100
0010
,
0100
0001
0010
0001
,
1000
0100
1000
0010
,
0100
0020
0130
0002
,
1003
0200
0310
0002
,
0013
0200
1300
2000
,
3001
0100
0002
0000
,
1003
0100
1000
1000
,
0010
0100
0001
0001
,
1000
0010
0100
0100
,
0001
1000
0100
0100
,
0020
0032
0203
0320
,
2030
3002
0023
0230
,
2300
3020
0230
0302
,
2003
3200
0320
0032
,
2003
3020
0230
0302
,
2003
3020
0230
0302
,
0023
0230
2300
3020
,
0230
0302
1003
1001
,
0020
0000
0000
0230
,
0000
0000
0000
0000
,
0302
0000
0000
2003
,
0000
0000
0000
0000
,
3002
0000
0000
0000
,
1003
0010
1000
0001
,
0010
0001
0100
0010
,
0100
0001
1000
0001
,
1000
0000
0100
0000
1000
0002
0003
1000
,
0000
0010
0000
1000
0000
0001
0000
0100
,
0000
0001
0000
1000
0000
0010
0000
1000
,
0000
0001
0000
0010
0000
0001
0000
1000
,
0000
0100
0000
1000
0020
0030
1000
0000
,
0000
0001
0001
0000
0000
0100
0100
0000
,
0000
0010
0010
0000
0000
1000
1000
0000
,
0000
0100
0100
0000
0000
0010
0010
0000
,
0000
0001
0001
0000
0000
1000
1000
0000
,
0000
0001
0001
0000
0000
0100
0020
0000
,
0000
0000
0000
0000
0000
0000
0130
0100
,
0000
0001
0000
1000
0000
0000
0010
0000
,
0000
1000
0001
0000
0000
0000
1000
1000
,
0000
0001
0000
0100
0000
0001
0100
0000
,
0000
0010
0010
0000
0000
0000
2000
0000
,
0000
0000
0000
0000
,
0000
3000
0000
0002
,
0000
0000
0000
0000
,
0000
0000
0000
1003
,
0001
0100
0100
0020
,
1030
0001
0001
0200
,
0310
1000
1000
0002
,
0013
0100
0100
2000
,
3001
1000
0100
1000
,
0010
0000
1000
0000
0002
1003
0000
0010
,
0000
0100
0000
0001
0000
1000
0000
0100
,
0000
0010
0000
0000
0000
0001
0000
1000
,
0000
0001
0000
1000
0000
0100
0000
0010
,
0000
0001
0000
2002
0000
0000
0000
0000
0000
0000
0000
0000
,
0000
0000
0000
0000
,
0000
0000
0000
0000
,
3003
0000
0000
0000
;

//---------------dance-single - ----------------
#NOTES:
     dance-single:
     :
     Beginner:
     3:
     0.153256,0.203515,0.000000,0.299751,0.000000,136.000000,136.000000,0.000000,38.000000,0.000000,0.000000,0.153256,0.203515,0.000000,0.299751,0.000000,136.000000,136.000000,0.000000,38.000000,0.000000,0.000000:
0000
0000
0000
0000
,
0000
0000
0000
0000
,
0000
0000
0000
0000
,
0000
0000
0000
0000
,
0000
0000
0000
0000
,
0000
0000
0000
0000
,
0000
0000
0000
0000
,
0000
0000
0000
0000
,
0000
0000
0000
0000
,
0000
0000
0000
0000
,
0000
0000
0000
0000
,
1000
0000
0001
0000
,
1000
0000
1000
0000
,
0001
0000
0100
0000
,
0001
0000
0001
0000
,
1000
0000
0001
0000
,
0010
0000
0010
0000
,
0100
0000
1000
0000
,
0001
0000
1000
0000
,
0010
0000
0100
0000
,
1000
0000
0100
0000
,
1000
0000
0001
0000
,
0010
0000
0100
0000
,
0001
0000
0100
0000
,
1000
0000
0100
0000
,
1000
0000
0001
0000
,
0100
0000
0010
0000
,
0001
0000
0001
0000
,
0100
0000
0010
0000
,
0010
1000
0000
1000
,
0000
0010
0000
0100
,
0100
0200
0300
2000
,
3000
0020
0030
2000
,
3000
0020
0030
0002
,
0003
0000
2000
0000
,
3001
0000
0001
0000
,
0100
0000
1000
0000
,
0001
0000
0010
0000
,
1000
0000
0010
0000
,
0200
0300
0020
0030
,
0002
0003
0200
0300
,
0002
0003
2000
3000
,
0002
0003
0200
0300
,
0002
0003
2000
3000
,
0002
0003
0020
0030
,
0200
0300
2000
3000
,
0020
0030
0000
0010
,
0200
0000
0000
0320
,
0000
0000
0000
0000
,
2030
0000
0000
3002
,
0000
0000
0000
0000
,
2003
0000
0000
0000
,
3001
0000
0001
0000
,
0100
0000
0010
0000
,
0010
0000
0001
0000
,
0001
0000
0000
0000
0000
2000
3000
0001
,
0000
0000
0000
0001
0000
0000
0000
0010
,
0000
0000
0000
0001
0000
0000
0000
0001
,
0000
0000
0000
0100
0000
0000
0000
0001
,
0000
0000
0000
0000
0200
0300
0001
0000
,
0000
1000
0000
0010
,
0000
0100
0000
0001
,
0000
0010
0000
0100
,
0000
1000
0000
0001
,
0000
1000
0000
0200
,
0000
0000
0000
0310
,
0000
1000
0000
0000
0000
0000
0100
0000
,
0000
0000
1000
0000
0000
0000
0000
0001
,
0000
0000
0000
0010
0000
0000
0010
0000
,
0000
0100
0000
0002
,
0000
0000
0000
0000
,
0000
0003
0000
2000
,
0000
0000
0000
0000
,
0000
0000
0000
3001
,
0000
0010
0000
0200
,
0300
1000
0000
0020
,
0030
0100
0000
2000
,
3000
0010
0000
0002
,
1003
0000
0010
0000
,
0100
0000
0000
0000
2000
3001
0000
0000
,
0000
0010
0000
0000
0000
0001
0000
0000
,
0000
0100
0000
0000
0000
1000
0000
0000
,
0000
0001
0000
0000
0000
0010
0000
0000
,
0000
2000
0000
0000
,
0000
0000
0000
0000
,
0000
0000
0000
0000
,
3000
0000
0000
0000
;
