#TITLE:Broken;
#SUBTITLE:;
#ARTIST:dj TAKA Feat AiMEE;
#TITLETRANSLIT:;
#SUBTITLETRANSLIT:;
#ARTISTTRANSLIT:;
#CREDIT:;
#BANNER:Broken-bn.png;
#BACKGROUND:Broken-bg.png;
#LYRICSPATH:;
#CDTITLE:;
#MUSIC:1-25 Broken.mp3;
#OFFSET:0.000;
#SAMPLESTART:59.240;
#SAMPLELENGTH:12.000;
#SELECTABLE:YES;
#BPMS:0.000=148.000;
#STOPS:;
#BGCHANGES:;

//---------------dance-single - ----------------
#NOTES:
     dance-single:
     :
     Hard:
     14:
     0.729,0.764,0.250,0.235,0.492:
0000
0000
0000
0000
0000
0000
0000
0000
0000
0000
1000
0000
0001
0100
0010
0000
,
1000
0001
0100
0000
0010
0100
0001
0000
1000
0010
0100
0000
0001
0010
0100
0000
,
1000
0001
1000
0000
0010
0100
0010
0000
1000
0100
1000
0000
0001
0010
0001
0000
,
0010
0100
0010
0000
0100
1000
0100
0000
0010
0001
0010
0000
0100
1000
0001
0000
,
0100
0010
0100
0000
0001
0000
0001
0000
1000
0000
1001
0000
0010
0100
0010
0000
,
1000
0001
0100
0000
0001
0010
0100
0000
1000
0100
0010
0000
0001
1000
0100
0000
,
0010
0001
0010
0000
0100
1000
0001
0000
0100
0010
1000
0000
0001
0100
1000
0000
,
0001
0010
1000
0000
0001
0010
1000
0000
0001
0100
1000
0000
0010
0100
0010
0000
,
1000
0001
1000
0000
0010
0100
0001
1000
0010
0100
0001
0000
1000
0010
0100
0000
,
0001
0010
0100
0000
1000
0100
0010
0000
0001
0010
1000
0000
0001
0100
1000
0000
,
0010
0100
0001
0000
1000
0010
0100
0000
0001
1000
0001
0000
0100
0010
0100
0000
,
0001
1000
0001
0000
1000
0010
1000
0000
0001
0100
0001
0000
1000
0010
1000
0000
,
0001
0100
0001
0000
1000
0000
1000
0000
0001
0000
0101
0000
0100
0010
1000
0000
,
0010
0100
0001
0000
0010
0100
1000
0000
0001
1000
0001
0000
1000
0010
1000
0000
,
0100
0010
0100
0000
0010
0001
0010
0000
0100
1000
0100
0000
1000
0010
0001
0000
,
1000
0100
0001
0000
0010
0100
1000
0000
0001
1000
0010
0000
0100
0001
1000
0000
,
0010
0100
0010
0000
1010
0000
0101
0000
0110
0000
2001
0000
0000
0000
0000
0000
,
0000
3020
0000
0000
0000
0230
0000
0000
,
0000
0302
0000
0000
0000
0023
0000
0000
,
0000
0230
0000
0000
0000
2300
0000
0000
,
0000
3001
0010
0100
1000
0100
0010
0001
,
2000
0000
0000
3001
0100
1000
0100
0001
,
0020
0000
0000
0130
1000
0001
0100
1000
,
0200
0000
0000
0301
1000
0100
0010
0001
,
1000
0010
1000
0001
0100
0010
0100
0001
,
1000
0020
0000
0000
0000
0000
0030
1010
,
0000
0101
0000
1001
0000
0220
0000
0000
,
0000
0000
0300
1000
1030
0000
0000
1001
,
0000
0101
0000
1010
0000
1001
1000
0010
,
0001
0010
1000
0100
0001
0100
1000
0001
,
0010
0100
1000
0001
1000
0010
0001
0010
,
1000
0100
0001
1000
0010
0001
1000
0100
,
0001
1000
0010
0001
0100
0010
1000
0001
,
0010
0100
1000
0001
0010
0001
1000
0010
,
1000
0001
0010
0100
0010
0001
0010
0100
,
1000
0000
0010
0000
0001
0000
0010
0000
0100
0000
0001
1000
0010
0000
1000
0001
,
0100
0000
0001
0010
0100
1000
0010
0100
0010
1000
0001
0000
0100
0000
0010
0000
,
1000
0001
0100
1000
0100
0001
0010
0100
,
1000
0100
0010
0001
1000
0010
0100
1000
,
0100
0001
0010
0100
1000
0001
1000
0010
,
0100
0001
0010
0100
1000
1010
0010
0100
,
0001
1000
0010
0100
0001
1001
1000
0010
,
0100
0001
0010
0100
0010
0011
1001
0000
,
1010
1001
0000
0011
0110
0000
0100
0010
,
0001
0000
0010
0000
0100
1000
0100
0010
0100
1000
0100
0000
0010
0000
0001
0000
,
1000
0010
0100
0001
0010
0100
1000
0010
,
0100
0001
1000
0010
0100
0001
0010
0100
,
1000
0001
0010
0100
1000
0010
0100
0001
,
0100
1000
0100
0001
0100
2000
0000
3100
,
0020
0000
0000
0000
0000
0000
0000
0000
0000
0000
1030
0000
0000
1000
0100
0000
,
0000
0100
0010
0000
0000
0010
0001
0000
0000
0001
1000
0000
0000
1000
0010
0000
,
0000
0010
0100
0000
0000
0100
0001
0000
0000
0000
0001
1000
0010
0000
0100
0001
,
1000
0000
0010
1000
0001
0100
0010
1000
0001
0100
0010
0000
1000
0001
0100
0000
,
0010
0100
0001
0000
1000
0010
0100
0000
0001
0010
0100
0000
1000
0001
1000
0000
,
0010
0100
0010
0000
1000
0100
1000
0000
0001
0010
0001
0000
0010
0100
0010
0000
,
0100
1000
0100
0000
0010
0000
0001
0000
0100
0000
0110
0000
0000
0000
1001
0000
,
0001
0100
0001
0000
1000
0000
1000
0000
0010
0000
1010
0000
1000
0001
0100
0000
,
0001
0010
0100
0000
1000
0100
0010
0000
0001
1000
0100
0000
0010
0000
0001
1000
,
0100
1000
0001
0100
0001
1000
0010
0100
0001
0010
0100
0000
1000
0010
0100
0000
,
0001
1000
0100
0000
0010
0001
0010
0000
0100
0000
0110
0000
0010
0000
0011
0000
,
0001
0000
1001
0000
1000
0100
0010
0001
0010
0100
1000
0000
0001
0100
0010
0000
,
1000
0001
0100
0000
0010
0100
0001
0000
1000
0010
0100
0000
0001
0010
0100
0000
,
1000
0001
1000
0000
0010
0100
0010
0000
1000
0100
1000
0000
0001
0010
0001
0000
,
0010
0100
0010
0000
0100
1000
0100
0000
0010
0001
0010
0000
0100
1000
0001
0000
,
0100
0010
0100
0000
0001
1000
0001
0000
1000
0010
0100
0000
0001
0100
0010
0000
,
1000
0001
0100
0000
0001
0010
0100
0000
1000
0100
0010
0000
0001
1000
0100
0000
,
0010
0001
0010
0000
0100
1000
0001
0000
0100
0010
1000
0000
0001
0100
1000
0000
,
0100
0001
1000
0000
0010
0000
1000
0000
0002
0000
0100
0000
0000
0000
0010
0000
,
0003
1001
1010
0101
0110
2001
0000
0000
,
0000
3020
0000
0000
0000
0032
0000
0000
,
0000
0203
0000
0000
0000
2300
0000
0000
,
0000
3020
0000
0000
0000
0230
0000
0000
,
0000
0302
0000
0000
0000
0023
0000
0000
,
0000
0230
0000
0000
0000
2300
0000
0000
,
0000
3200
0000
0000
0000
0320
0000
0000
,
0000
0200
0000
0000
0330
2002
0000
0000
,
0000
0000
0000
0000
,
3003
0000
0000
0000
;

//---------------dance-single - Copied from----------------
#NOTES:
     dance-single:
     Copied from:
     Medium:
     12:
     0.506,0.509,0.169,0.375,0.033:
0000
0000
0000
0000
0000
1000
0001
0010
,
0000
0100
1000
0001
0000
0100
0001
1000
,
0000
0001
0010
0100
0000
1000
0001
0100
,
0000
0010
1000
0010
0000
0100
0001
0100
,
0000
0010
0010
0100
0100
0101
0000
1000
,
0001
0100
0000
0001
1000
0010
0000
1000
,
0010
0100
0000
0001
0010
0001
0000
1000
,
0100
1000
0000
0001
0100
1000
0000
1000
,
0100
0000
0001
0000
1000
0000
0001
0000
0010
0100
0010
0000
0000
0000
0001
0000
,
1000
0010
0000
0100
0001
1000
0000
0001
,
1000
0100
0000
0010
0001
1000
0000
0100
,
1000
0001
0000
1000
0010
0100
0000
0010
,
0100
0001
0000
0010
0100
1100
0000
1000
,
0010
0100
0000
0010
0100
0101
0000
1000
,
0001
1000
0000
0001
0010
0011
0000
1000
,
0010
0110
0000
0001
1000
1010
0000
1000
,
0001
0100
0100
0010
0010
1002
0000
0000
,
0000
0203
0000
0000
0000
0320
0000
0000
,
0000
2030
0000
0000
0000
3200
0000
0000
,
0000
0320
0000
0000
0000
0032
0000
0000
,
0000
1003
0010
0100
0010
2010
0000
0000
,
0000
0000
0000
3001
0020
0000
0000
0000
,
0000
0000
0000
0130
2000
0000
0000
0000
,
0000
0000
0000
3001
1000
0200
0000
0320
,
0000
0032
0000
2003
0000
3002
0000
0000
,
1003
0020
0000
0100
0000
1000
0000
0230
,
0000
0010
0000
0001
0000
0320
0000
1000
,
0000
0001
0000
1030
0001
0000
0000
1001
,
0000
0101
0000
1010
0000
1002
0000
0100
,
0000
0013
0100
1000
0010
0200
0000
0010
,
0000
0301
1000
0001
0000
0010
0001
0010
,
0000
0100
1000
0001
0000
0100
0010
1000
,
0000
0001
0100
0010
0000
0100
0001
1000
,
0010
0100
0001
1000
0000
0001
1000
0010
,
1000
0001
0010
0100
0000
1000
0010
0100
,
0001
1000
0001
1000
0000
1001
0001
0010
,
0100
0000
1000
0000
0100
0000
1000
0001
1000
0001
1000
0000
0001
0000
1000
0000
,
0010
1000
0001
0100
0001
0002
0000
0100
,
0000
1003
0010
0100
0001
0010
0100
1000
,
0100
0020
0000
0001
0000
0130
1000
0010
,
0100
0001
0010
0100
1000
1010
0000
0100
,
0001
1000
0010
0100
0001
1001
0000
0001
,
1000
0001
0010
0100
0010
0001
0002
0000
,
0103
0200
0000
0310
0020
0000
0000
0000
,
2030
0000
0001
0000
0000
0000
3001
0000
0010
1000
0100
0000
0010
0000
0001
0000
,
1000
0020
0000
0130
0001
1000
0001
0010
,
0200
0000
0000
0310
0001
0010
0100
1000
,
0001
1000
0001
0100
0001
2000
0000
0000
,
0000
3010
0100
0001
0100
0002
0000
1003
,
2000
0010
0000
0001
0000
3020
0000
0001
,
0000
0100
0000
2030
0000
0010
0000
0100
,
0000
0000
3002
0000
0000
0000
0100
0000
0000
0000
0013
1000
0000
0000
0001
0100
,
0000
0000
0010
0000
0100
0000
0010
0000
0100
0001
1000
0000
0000
0000
0100
0000
,
0010
0001
0000
0100
0001
0100
0000
0001
,
1000
0010
0000
1000
0001
0100
0000
0001
,
1000
0001
0010
0001
1000
1010
0000
0110
,
0000
0100
0100
0001
0001
0101
0000
0100
,
0001
0100
0000
0010
1000
0010
0000
1000
,
0001
0000
1000
0000
0001
0000
0010
0100
0010
0100
0010
0000
0000
0000
0100
0000
,
1000
0001
0000
1000
0010
0110
0000
1001
,
0000
1001
0000
0010
0010
0010
0000
0010
,
1000
0100
0000
0010
0001
0100
0000
0010
,
1000
0001
0000
0010
0100
1000
0000
0100
,
0010
0001
0000
1000
0001
1000
0000
0001
,
0100
0001
0000
0010
0100
1100
0000
1000
,
0001
0100
0000
0010
1000
0001
0000
0100
,
0010
0100
0000
0001
1000
0001
0000
1000
,
0010
0100
0010
1000
0200
1000
0000
0010
,
0300
0100
0100
0100
0100
0002
0000
0000
,
0000
0203
0000
0000
0000
2300
0000
0000
,
0000
3020
0000
0000
0000
0032
0000
0000
,
0000
0203
0000
0000
0000
0320
0000
0000
,
0000
2030
0000
0000
0000
3200
0000
0000
,
0000
0320
0000
0000
0000
0032
0000
0000
,
0000
0023
0000
0000
0000
0230
0000
0000
,
0000
0020
0000
0000
0330
2002
0000
0000
,
0000
0000
0000
0000
,
3003
0000
0000
0000
;

//---------------dance-single - Copied from Copied f----------------
#NOTES:
     dance-single:
     Copied from Copied f:
     Easy:
     7:
     0.351,0.339,0.154,0.323,0.000:
0000
0000
0000
0000
0000
1000
0000
0010
,
0000
0100
0000
0001
0000
0100
0010
0100
,
0000
0001
0000
1000
0000
0010
0000
1000
,
0000
0001
1000
0001
0000
0100
0000
0010
,
0000
0010
0000
1000
0001
1001
0000
1000
,
0000
0100
0000
0010
0000
0001
0000
1000
,
0010
1000
0000
0001
0000
1000
0000
0001
,
0000
0100
0000
0001
1000
0001
0000
0100
,
0000
0010
0000
0100
0010
0100
0000
0001
,
1000
0001
0000
0100
0000
0010
0000
1000
,
0000
0001
0000
1000
0001
1000
0000
0100
,
0000
0010
0000
0001
0000
0100
0000
0010
,
0100
0010
0000
0100
0000
0101
0000
0001
,
0000
1000
0000
0010
0000
0110
0000
1000
,
0000
0001
0000
0100
0000
1010
0000
0010
,
0000
1001
0000
0001
0000
0101
0000
0100
,
0000
0010
0000
1000
0000
0002
0000
0003
,
0000
0200
0000
0300
0000
0020
0000
0030
,
0000
2000
0000
3000
0000
0200
0000
0300
,
0000
0020
0000
0030
0000
0002
0000
1003
,
0000
0010
0000
0100
0100
0200
0000
0000
,
0000
0000
0000
0301
0002
0000
0000
0000
,
0000
0000
0000
1003
2000
0000
0000
0000
,
0000
0000
0000
3002
0000
0003
0000
2000
,
0000
3000
0000
0002
0000
0003
0000
0000
,
0010
0020
0000
0000
0000
0000
0000
0032
,
0000
0000
0000
0000
0000
2003
0000
0000
,
0000
0000
0000
0001
3001
0000
0000
0000
,
0000
0110
0000
0000
0000
2001
0000
0000
,
0000
3010
0000
0010
0000
0200
0000
0000
,
0000
0301
0000
0001
0000
2000
0000
0000
,
0000
3100
0000
0100
0000
0020
0000
0000
,
0000
0031
0000
0001
0000
1000
0000
0001
,
0000
0100
0001
1000
0000
0001
0000
0100
,
0000
0010
0100
0010
0000
1000
0000
0001
,
0000
0100
0001
1000
0000
1001
0000
0110
,
0000
1001
0000
1000
1000
1000
0000
0001
,
0000
1000
0000
0001
0001
0002
0000
0000
,
0000
1003
0000
0010
0000
0100
0000
0010
,
0010
0020
0000
0000
0000
0130
0000
0010
,
0000
1000
0000
0001
1000
1001
0000
0001
,
0000
1000
0000
0001
1000
1001
0000
0010
,
0000
0100
0000
0010
0000
1000
0002
0000
,
0103
0020
0000
1030
0002
0000
0000
0000
,
2003
0000
0000
3001
0000
1000
0000
0010
,
0000
0200
0000
0310
0000
0001
0000
0000
,
0200
0000
0000
0310
0000
0001
0000
1000
,
0000
0001
0000
1000
0001
0200
0000
0000
,
0000
0310
0000
1000
0000
0002
0000
0003
,
2000
0000
0000
0000
0000
3002
0000
0000
,
0000
0000
0000
0203
0000
0000
0000
0000
,
0000
0302
0000
0000
0000
0103
0000
0100
,
0000
0010
0000
0010
0100
0010
0000
0100
,
0000
0001
0000
0100
0000
0010
0000
1000
,
1000
1000
0000
0001
0000
0100
0000
0010
,
0000
1000
0000
0010
0000
1001
0000
0110
,
0000
1000
0000
0001
0000
0101
0000
0001
,
0000
1000
0000
0010
0000
0100
0000
0001
,
0001
0001
0000
1000
0000
0010
0000
0100
,
0000
0001
0000
1000
0000
1001
0000
0110
,
0000
1001
0000
0010
0010
0010
0000
0100
,
0000
0100
0000
0001
0000
0001
0000
1000
,
0000
1000
0000
0010
0000
0010
0000
0100
,
0000
0100
0000
0001
0000
0001
0000
1000
,
0010
0100
0000
0010
0000
1001
0000
1000
,
0000
0001
0000
1000
0000
0010
0000
0100
,
0000
0001
0000
1000
0000
0010
0000
0100
,
0000
0001
0000
1000
0000
0010
0000
1000
,
0000
0010
0010
0010
0010
0020
0000
0000
,
0000
0030
0000
0000
0000
2000
0000
0000
,
0000
3000
0000
0000
0000
0002
0000
0000
,
0000
0003
0000
0000
0000
0200
0000
0000
,
0000
0300
0000
0000
0000
0002
0000
0000
,
0000
0003
0000
0000
0000
2000
0000
0000
,
0000
3000
0000
0000
0000
0002
0000
0000
,
0000
2000
0000
0000
3003
2002
0000
0000
,
0000
0000
0000
0000
,
3003
0000
0000
0000
;

//---------------dance-single - Copied from Copied f----------------
#NOTES:
     dance-single:
     Copied from Copied f:
     Beginner:
     3:
     0.205,0.368,0.140,0.287,0.000: // measure 1
0000
0000
0000
0000
0000
1000
0000
0000
,  // measure 2
0000
0000
0000
0001
0000
0000
0000
0000
,  // measure 3
0000
0100
0000
0000
0000
0000
0000
0010
,  // measure 4
0000
1000
0000
0001
0000
0100
0000
0000
,  // measure 5
0000
0010
0000
0000
0000
1001
0000
0000
,  // measure 6
0000
0100
0000
0000
0000
0001
0000
0000
,  // measure 7
0000
1000
0000
0000
0000
0100
0000
0000
,  // measure 8
0000
0010
0000
0000
0000
0001
0000
1000
,  // measure 9
0000
0000
0000
0010
0000
0000
0000
0100
,  // measure 10
0000
0000
0000
0001
0000
0000
0000
1000
,  // measure 11
0000
0000
0000
0001
0000
0000
0000
0100
,  // measure 12
0000
0000
0000
0010
0000
0000
0000
0100
,  // measure 13
0000
0000
0000
0000
0000
1001
0000
0000
,  // measure 14
0000
0010
0000
0000
0000
0110
0000
0000
,  // measure 15
0000
0001
0000
0000
0000
1001
0000
0000
,  // measure 16
0000
1001
0000
0000
0000
0101
0000
0000
,  // measure 17
0000
0000
0000
0000
0000
0001
0000
0000
,  // measure 18
0000
0100
0000
0000
0000
0010
0000
0000
,  // measure 19
0000
1000
0000
0000
0000
0100
0000
0000
,  // measure 20
0000
0010
0000
0000
0000
2002
0000
3003
,  // measure 21
0000
0000
0000
0000
0000
0200
0000
0000
,  // measure 22
0000
0000
0000
0300
0002
0000
0000
0000
,  // measure 23
0000
0000
0000
0003
0200
0000
0000
0000
,  // measure 24
0000
0000
0000
0302
0000
0003
0000
2000
,  // measure 25
0000
3000
0000
0002
0000
0003
0000
0000
,  // measure 26
0010
0020
0000
0000
0000
0000
0000
0032
,  // measure 27
0000
0000
0000
0000
0000
0203
0000
0000
,  // measure 28
0000
0000
0310
0000
,  // measure 29
0000
0010
0000
0000
0000
2000
0000
0000
,  // measure 30
0000
3000
0000
0001
0000
0200
0000
0000
,  // measure 31
0000
0300
0000
0001
0000
2000
0000
0000
,  // measure 32
0000
3000
0000
0100
0000
0020
0000
0000
,  // measure 33
0000
0030
0000
0001
0000
0000
0000
0001
,  // measure 34
0000
0000
0000
1000
0000
0000
0000
1000
,  // measure 35
0000
0000
0000
0010
0000
0000
0000
0010
,  // measure 36
0000
0000
0000
0100
0000
0000
0000
0000
,  // measure 37
0000
1001
0000
0000
0000
0000
0000
0010
,  // measure 38
0000
0000
0000
0000
0000
2002
0000
0000
,  // measure 39
0000
3003
0000
0000
0000
0000
0000
0010
,  // measure 40
0000
0020
0000
0000
0000
0030
0000
0010
,  // measure 41
0000
0000
0000
0000
0000
1001
0000
0000
,  // measure 42
0000
0000
0000
0000
0000
1001
0000
0000
,  // measure 43
0000
0100
0000
0000
0000
0000
2002
0000
,  // measure 44
3003
0220
0000
0330
2002
0000
0000
0000
,  // measure 45
3003
0000
0000
0000
0000
0010
0000
0010
,  // measure 46
0000
0200
0000
0300
0000
0010
0000
0000
,  // measure 47
2000
0000
0000
3000
0000
0001
0000
0000
,  // measure 48
0000
1000
0000
0000
0000
0200
0000
0000
,  // measure 49
0000
0300
0000
0010
0000
0000
0000
0000
,  // measure 50
2000
0000
0000
0000
0000
3002
0000
0000
,  // measure 51
0000
0000
0000
0203
0000
0000
0000
0000
,  // measure 52
0000
0302
0000
0000
0000
1003
0000
1000
,  // measure 53
0000
0001
0000
0100
0100
0100
0000
0000
,  // measure 54
0000
0001
0000
0000
0000
1000
0000
0000
,  // measure 55
0000
0001
0000
0000
0000
0100
0000
0000
,  // measure 56
0000
0010
0000
0000
0000
0000
0000
0110
,  // measure 57
0000
0000
0000
0000
0000
1001
0000
0000
,  // measure 58
0000
0001
0000
1000
0000
0000
0000
0001
,  // measure 59
0000
0000
0000
0100
0000
0000
0000
0010
,  // measure 60
0000
0000
0000
0100
0000
0000
0000
0001
,  // measure 61
0000
0000
0000
0110
0000
0000
0000
0001
,  // measure 62
0000
0000
0000
1000
0000
0000
0000
0010
,  // measure 63
0000
0000
0000
0100
0000
0000
0000
0001
,  // measure 64
0000
0000
0000
1000
0000
0000
0000
0010
,  // measure 65
0000
0000
0000
0000
0000
1001
0000
0000
,  // measure 66
0000
0000
0000
1000
0000
0000
0000
0010
,  // measure 67
0000
0000
0000
0010
0000
0000
0000
0100
,  // measure 68
0000
0000
0000
0100
0000
0000
0000
0001
,  // measure 69
0000
1000
0001
1000
0001
0020
0000
0000
,  // measure 70
0000
0030
0000
0000
0000
0200
0000
0000
,  // measure 71
0000
0300
0000
0000
0000
0020
0000
0000
,  // measure 72
0000
0030
0000
0000
0000
0200
0000
0000
,  // measure 73
0000
0300
0000
0000
0000
0002
0000
0000
,  // measure 74
0000
0003
0000
0000
0000
2000
0000
0000
,  // measure 75
0000
3000
0000
0000
0000
0001
0000
0000
,  // measure 76
0000
1000
0000
0000
0000
2002
0000
0000
,  // measure 77
0000
0000
0000
0000
,  // measure 78
3003
0000
0000
0000
;
