#TITLE:Boss Rush;
#SUBTITLE:;
#ARTIST:USAO;
#TITLETRANSLIT:;
#SUBTITLETRANSLIT:;
#ARTISTTRANSLIT:;
#GENRE:;
#CREDIT:;
#BANNER:;
#BACKGROUND:;
#LYRICSPATH:;
#CDTITLE:;
#MUSIC:Boss Rush.mp3;
#OFFSET:0.000000;
#SAMPLESTART:82.719971;
#SAMPLELENGTH:12.000000;
#SELECTABLE:YES;
#BPMS:0.000000=190.020004
;
#STOPS:
;
#BGCHANGES:;
#KEYSOUNDS:;
#ATTACKS:;

//---------------dance-single - ----------------
#NOTES:
     dance-single:
     :
     Hard:
     16:
     1.000000,1.000000,0.776244,0.269309,0.364359,754.000000,98.000000,34.000000,0.000000,0.000000,0.000000,1.000000,1.000000,0.776244,0.269309,0.364359,754.000000,98.000000,34.000000,0.000000,0.000000,0.000000:
0000
0000
0000
0000
,
0000
0000
1000
0000
0001
0000
1000
0001
,
0100
0001
0000
1000
0000
0010
0100
0010
,
1000
0001
0100
0001
1000
0000
0010
0100
,
0010
1000
0001
1000
0010
0000
0100
0001
,
1000
0001
0010
1000
0010
0000
0001
1000
,
0001
1000
0010
0100
0001
2000
0000
3001
,
0010
0100
1000
0001
1000
0000
0010
0100
,
0010
1000
0100
0010
0001
1000
0100
0010
,
0100
1000
0001
1000
0010
0000
0100
0001
,
0100
1000
0100
0001
0001
0010
0100
1000
,
0001
1000
0010
0010
0100
0000
0001
1000
,
1000
0010
0100
0001
0101
0000
1000
0010
,
0010
0100
0001
1000
1001
0000
0010
0100
,
1000
0200
0000
0301
1000
0100
0001
0100
,
1100
0000
1000
0100
0001
0000
0001
0100
,
1000
0001
0010
1000
0010
0001
1000
0001
,
0110
0000
1001
0001
1000
1010
0010
0100
,
0001
0010
0011
0001
0100
0110
0010
1000
,
0010
0100
0101
0001
1000
1100
0100
0010
,
0001
0000
0010
0000
0100
1000
0100
1000
0001
0010
0001
0010
0100
1000
0100
1000
,
0001
0100
0001
1000
0100
1000
0010
0100
,
1001
0010
1000
0100
0001
0100
1000
0010
,
0101
0000
0010
0000
1000
0000
0001
0000
1000
0000
0010
0000
0100
0010
0100
0010
,
0100
0001
1000
0001
2000
0000
0000
0000
0001
0000
0001
0000
0000
0000
0010
0000
,
3010
1000
1001
0000
0110
0000
1000
0010
,
0010
0010
0100
0001
0001
0001
0010
0100
,
1000
0000
0010
0000
0100
0000
0001
0000
0000
0000
0000
0000
1001
0000
0000
0000
0000
0000
0010
0000
0000
0100
0000
0000
,
0100
0100
0001
1000
1000
1000
0001
0100
,
0001
0000
0010
0000
0100
0000
1000
0000
0000
0000
0000
0000
1100
0000
0000
0000
0000
0000
1000
0000
0000
0001
0000
0000
,
0001
0001
0100
0010
0010
0010
1000
0001
,
0100
1000
0100
0000
0110
0010
1000
0001
,
0101
0000
0010
0000
1010
0000
1000
0000
0011
0000
0001
0000
0100
0010
0100
0010
,
0100
0000
1001
0000
0110
0000
0001
0100
,
0100
0100
0010
1000
1000
1000
0100
0010
,
0001
0000
1000
0000
0010
0000
0100
0000
0000
0000
0000
0000
1001
0000
0000
0000
0000
0000
0100
0000
0000
0010
0000
0000
,
0010
0010
1000
0001
0001
0001
1000
0010
,
1000
0000
0001
0000
0100
0000
0001
0000
0000
0000
0000
0000
0011
0000
0000
0000
0000
0000
0001
0000
0000
1000
0000
0000
,
1000
1000
0010
0100
0100
0100
0001
1000
,
0010
0000
0000
0000
0000
0000
0001
0000
0000
0000
0000
0000
0010
0000
0000
0000
1000
0000
0000
0000
0001
0000
0000
0000
0100
0000
0000
0000
0010
0000
0000
0000
0001
0000
0000
0000
0010
0000
0000
1000
0000
0000
0010
0000
0000
1000
0000
0000
,
0001
0100
0001
0010
0100
1000
0100
0010
0001
0000
1000
0000
0010
0000
0100
0000
,
0100
0000
1001
0000
1000
1010
0000
0100
,
0101
0001
0010
0110
0000
1000
1100
0100
,
0010
0100
1000
0001
1000
1001
0000
0001
,
0101
0100
0001
0010
0100
1100
0000
1000
,
1001
0001
0100
1000
0100
0101
0001
1000
,
1001
0010
0100
0001
1000
1200
0000
0310
,
0001
0010
0011
0001
1000
1010
0010
0100
,
0101
0000
0001
0000
2001
0000
0000
0000
3001
0000
0000
0000
1000
0001
1000
0001
,
0100
0000
0010
0000
1000
0000
0001
0100
,
1000
0000
0100
0000
0001
0000
1000
0100
,
0001
0000
0100
0000
1000
0000
0001
0010
,
1000
0000
0010
0000
0001
0000
1000
0010
,
0001
0000
1000
0000
0100
0000
0001
0010
,
1000
0010
0001
0100
1000
0100
0001
0010
,
1000
0001
0100
1000
0010
0001
1000
0100
,
0001
1000
0010
0001
1000
0100
0001
0100
,
1000
0000
0100
0000
0110
0000
0000
0010
1000
0000
1001
0000
0000
0000
0001
0000
,
1010
0000
0000
0000
1100
0000
0000
0100
0010
0000
0011
0000
0000
0000
1000
0000
,
0101
0000
0000
0000
0011
0000
0000
0001
1000
0000
0101
0000
0000
0000
0010
0000
,
0110
0000
0000
0000
1000
0010
1000
0001
0010
0001
1000
0100
1000
0100
0010
0001
,
0010
0001
1000
0000
2001
0000
0000
0000
0100
0000
0000
0000
0001
0000
0000
0000
,
3010
0102
0010
1000
,
0103
0000
0000
0000
0000
0000
0000
0000
0000
0000
0000
0000
1000
0000
0000
0000
0010
0000
0000
0000
1000
0000
0000
0000
0001
0000
0000
0000
0100
0000
0000
0000
0001
0000
0000
0000
1000
0000
0000
0001
0000
0000
1000
0000
0000
0001
0000
0000
,
0100
0010
0100
0010
0100
0000
0010
0000
0010
0000
0000
0000
1001
0000
0000
0000
,
0110
0000
2002
3003
1002
1003
0010
0100
,
0110
0010
0100
0001
0101
0100
1000
0100
,
0110
0010
1000
0001
0011
0010
0001
1000
,
1100
0100
0010
0001
1001
1000
0010
0100
,
0110
0010
1000
0001
0101
0200
0001
0320
,
0100
2030
0010
3002
1000
0203
0010
0301
,
0101
0000
2010
0000
3002
0000
0103
0010
,
2010
0000
0000
0000
3002
0000
0000
0000
1003
0000
0001
0000
1000
0010
0100
0010
,
0100
0001
0202
0303
2001
3001
0100
0010
,
0110
0100
0010
1000
1010
0010
0001
0010
,
0110
0100
0001
1000
1100
0100
1000
0001
,
0011
0010
0100
1000
1001
0001
0100
0010
,
0110
0100
0001
1000
1010
0020
1000
0230
,
0010
0302
0100
2003
0001
3020
0100
1030
,
1010
0000
0000
0000
0000
0000
0000
0000
0000
0000
0000
0000
0001
0000
0000
0000
0010
0000
0000
0000
0100
0000
0000
0000
1000
0000
0000
0000
0001
0000
0000
0000
0100
0000
0000
0000
0001
0000
0000
1000
0000
0000
0010
0000
0000
1000
0000
0000
,
0010
0100
0001
0100
0010
1000
0100
0010
0001
0010
0100
1000
0001
0100
0010
0100
,
0010
1000
1100
0000
0011
0000
0001
1000
,
0010
0100
0010
0000
0001
0000
0010
0000
0100
0000
0010
0000
1000
0001
1000
0000
,
0100
0000
0010
0000
0001
1000
0010
0000
1010
0000
0000
0000
0101
0000
0001
0000
,
1000
0000
0010
0000
0100
0010
0100
0000
0110
0000
0000
0000
1010
0000
0010
0000
,
1000
0001
1000
0000
0010
0000
0100
0000
0001
0000
0010
0000
0100
1000
0100
0000
,
0001
0000
0100
0000
0010
0000
0001
1000
0001
0000
1100
0000
0000
0000
1001
0000
,
0010
0000
0100
0000
0010
0100
0010
0000
0101
0000
0000
0000
1010
0000
0010
0000
,
0100
0000
0001
0000
1000
0010
1000
0000
1001
0000
0000
0000
0101
0000
0001
0000
,
1000
0000
0100
0000
0010
0001
1000
0000
1001
0000
0000
0000
1010
0000
0010
0000
,
0100
0000
0010
0000
1000
0001
1000
0000
1100
0000
0000
0000
0110
0000
0010
0000
,
0001
0000
1000
0000
0010
0100
0010
0000
1010
0000
0000
0000
0101
0000
0001
0000
,
0100
0000
0001
0000
1000
0001
1000
0001
0100
0010
0100
0010
1000
0100
1000
0001
,
0010
0001
0010
0100
1000
0000
2000
0000
0010
0000
3020
0000
0100
0000
0230
0000
,
0001
0301
2000
0100
3002
0010
0203
0001
,
0320
1000
0130
0001
1001
0100
0101
0010
,
1010
0000
0100
0000
0001
1000
0000
0010
0100
0000
0010
1000
0000
0001
0100
0000
,
0010
1000
0001
1000
0001
0000
0000
0000
0000
0000
0000
0000
0000
0000
0000
0000
;

//---------------dance-single - ----------------
#NOTES:
     dance-single:
     :
     Medium:
     12:
     0.728719,0.654758,0.530697,0.190101,0.011881,553.000000,67.000000,24.000000,0.000000,0.000000,0.000000,0.728719,0.654758,0.530697,0.190101,0.011881,553.000000,67.000000,24.000000,0.000000,0.000000,0.000000:
0000
0000
0000
0000
,
0000
0000
0001
0000
1000
0000
0010
0100
,
0010
0100
0000
0001
0000
1000
0010
1000
,
0001
0100
0001
0100
0010
0000
1000
0001
,
0100
0000
0001
1000
0010
0000
1000
0100
,
0010
0000
0001
1000
0100
0000
0010
0001
,
1000
0000
0010
0100
0001
1000
0000
0001
,
0010
0100
1000
0001
1000
0000
0010
0100
,
0001
0000
1000
0010
0100
0000
0001
0010
,
0100
0000
0010
0100
1000
0000
0010
0100
,
0001
0000
1000
0010
0100
0000
0001
1000
,
0010
0000
1000
0001
1000
0000
0010
1000
,
0001
0000
0100
0001
0100
0000
0010
1000
,
0100
0000
0010
0001
1000
0000
0010
0100
,
0010
1000
0000
0001
1000
0100
0000
0010
,
0001
0000
1000
0100
0010
0000
0100
0010
,
0001
0000
0010
0100
1000
0000
0001
1000
,
0010
0000
1010
0000
0000
1010
0000
0000
,
0101
0000
0101
0000
0000
0110
0000
0000
,
1001
0000
0011
0000
0000
1010
0000
0000
,
0101
0000
0001
0100
0001
0100
0010
1000
,
0010
1000
0002
0000
0100
0000
0100
0003
,
1001
0000
0200
0000
0010
0000
0010
0300
,
1010
0000
1000
0001
1000
0010
0100
0010
,
0100
0001
2002
0000
0000
0000
0000
0000
,
0000
3003
1001
0000
0110
0000
1000
0010
,
1000
0010
0000
0100
0001
0100
0010
1000
,
0001
0000
1001
0000
1001
0000
0001
0100
,
0001
0100
0000
0010
1000
0001
1000
0100
,
0010
0000
0011
0000
1100
0000
1000
0001
,
1000
0100
0000
0010
0001
0010
0100
1000
,
0001
1000
0100
0000
0110
0000
1000
0001
,
1001
0000
0010
1000
0010
0100
0001
0100
,
0010
0000
1001
0000
0110
0000
0001
0100
,
0001
0100
0000
0010
1000
0010
0100
0001
,
1000
0000
1001
0000
1001
0000
1000
0010
,
1000
0010
0000
0100
0001
1000
0001
0010
,
0100
0000
1100
0000
0011
0000
0001
1000
,
0001
0010
0000
0100
1000
0100
0010
0001
,
1000
0001
0010
0000
0110
0000
0100
1000
,
0010
0000
0100
0001
0100
0010
1000
0010
,
0100
0000
1001
0000
0000
0110
0000
0100
,
0101
0000
0000
1010
0000
1000
1001
0000
,
0000
0000
0011
0000
0000
0110
0000
0100
,
1100
0000
1001
0000
0000
1010
0000
0000
,
0110
0000
0101
0000
0000
1001
0000
0000
,
0101
0000
0000
0000
0000
1010
0000
0000
,
0110
0000
0010
1000
0001
0100
0001
0010
,
0100
1000
0002
0000
0203
0000
0310
0000
,
0110
0000
0010
0000
1000
0000
0001
0100
,
0001
0000
0100
0000
0010
0000
1000
0100
,
1000
0000
0100
0000
0010
0000
0001
1000
,
0001
0000
0010
0000
0100
0000
1000
0010
,
1000
0000
0001
0000
0100
0000
0001
1000
,
0100
0000
0010
0000
0001
0000
1000
0010
,
0100
0000
0001
0000
1000
0000
0010
0100
,
0001
0000
1000
0000
0010
0100
1000
0100
,
0001
0100
0110
0000
0001
1001
0000
1000
,
1010
0000
0101
0000
0010
0110
0000
0100
,
0101
0000
0011
0000
0001
1001
0000
1000
,
1010
0000
0010
0100
0001
0100
0010
0100
,
0001
0100
0020
0000
0100
0000
1000
0000
,
0130
0102
0010
1000
,
0103
0000
0010
1000
0001
1000
0100
0010
,
0001
1000
0100
0010
0001
0000
1001
0000
,
0110
0000
2002
3003
0001
1000
0010
0000
,
1000
0010
0100
0001
0101
0000
1000
0000
,
0100
0010
0001
0000
0010
0100
1000
0000
,
0001
0100
0010
1000
1001
0000
0010
0000
,
0100
0010
1000
0000
0010
0010
0100
0100
,
0001
0001
1000
1000
0100
0100
0010
0010
,
0011
0000
0002
0000
2000
0000
3003
0010
,
0200
0000
0302
0000
1003
0000
0010
1000
,
0001
0000
2002
3003
1000
0001
0100
0000
,
0001
0100
0010
1000
1010
0000
0001
0000
,
0010
0100
1000
0000
0100
0010
0001
0000
,
1000
0010
0100
0001
1001
0000
0100
0000
,
0010
0100
0001
0000
0100
0100
0010
0010
,
1000
1000
0001
0001
0010
0010
0100
0100
,
1100
0000
1000
0100
1000
0100
0010
0100
,
0010
0001
0010
0001
1000
0001
1000
0010
,
0110
0000
0100
0000
0101
0000
0001
1000
,
0010
1000
0000
0010
0000
1000
0001
1000
,
0100
0010
0001
1000
0010
0000
0100
0001
,
1000
0010
0100
0001
0100
0000
0010
1000
,
0010
1000
0001
0100
0001
0000
1000
0010
,
1000
0100
0010
0100
1000
0001
0000
1000
,
0001
0010
0100
0010
0001
0000
1000
0010
,
0100
0001
1000
0100
1000
0000
0001
0100
,
0001
1000
0010
0100
0001
0000
1000
0010
,
0100
0001
0100
0010
1000
0000
0100
0010
,
0001
1000
0010
1000
0100
0000
0010
0001
,
0100
0001
1000
0010
1000
0001
0100
0001
,
0010
0100
2100
0000
3020
0000
0230
0000
,
0302
0023
0230
2300
,
3002
0000
0103
0010
1000
0010
0100
0001
,
1000
0000
0100
0000
0010
0000
0000
0010
0000
0000
0001
0000
0000
0001
0000
0000
,
1000
0000
0001
1000
0001
0000
0000
0000
0000
0000
0000
0000
0000
0000
0000
0000
;

//---------------dance-single - ----------------
#NOTES:
     dance-single:
     :
     Easy:
     5:
     0.476383,0.462182,0.229705,0.174259,0.000000,370.000000,29.000000,22.000000,0.000000,0.000000,0.000000,0.476383,0.462182,0.229705,0.174259,0.000000,370.000000,29.000000,22.000000,0.000000,0.000000,0.000000:
0000
0000
0000
0000
,
0000
0001
1000
0010
,
1000
0000
0000
0001
0000
0000
0010
0000
,
0100
1000
0010
1000
,
0001
0100
0001
1000
,
0010
1000
0010
0100
,
0010
0000
1000
0000
0001
1000
0000
0000
,
0001
1000
0100
0010
,
0001
1000
0010
1000
,
0001
0100
0001
0010
,
0001
1000
0100
1000
,
0001
0010
0001
0100
,
0010
1000
0010
1000
,
0001
0100
0001
0010
,
0100
0000
0000
0000
1000
0100
0000
0010
,
0001
0100
0010
1000
,
0100
1000
0100
0010
,
0001
0000
1001
0000
0000
0100
0000
0000
,
0001
0000
0101
0000
0000
0010
0000
0000
,
1000
0000
1010
0000
0000
0010
0000
0000
,
0100
0001
0001
1000
,
1000
0000
0002
0000
0000
0000
0000
0003
,
1001
0000
2000
0000
0000
0000
0000
3000
,
1001
1000
0010
0100
,
0010
2002
0000
0000
,
0000
3003
1001
0000
0010
0000
0000
0010
,
1000
0010
0000
0100
0001
0100
0000
0000
,
0001
0000
1000
0000
1001
0000
0000
0100
,
0001
0100
0000
0010
1000
0001
0000
0000
,
0010
0000
0100
0000
1100
0000
0000
1000
,
0001
1000
0000
0001
0100
0001
0000
0000
,
0100
0000
0010
0000
0110
0000
0000
0001
,
1000
0000
0000
1000
0010
0000
0100
0000
,
0010
0000
1001
0000
0100
0000
0000
0100
,
0001
0100
0000
0010
1000
0010
0000
0000
,
1000
0000
0001
0000
1001
0000
0000
0010
,
1000
0010
0000
0100
0001
1000
0000
0000
,
0100
0000
0010
0000
0011
0000
0000
0001
,
1000
0001
0000
1000
0010
1000
0000
0000
,
0010
0000
0100
0000
0110
0000
0000
1000
,
0001
0000
0000
0001
0100
0000
0100
0000
,
0010
0000
1001
0000
0000
0010
0000
0000
,
0101
0000
0000
1000
0000
0000
1001
0000
,
0000
0000
0011
0000
0000
0010
0000
0000
,
1100
0000
0001
0000
0000
1000
0000
0000
,
0110
0000
0001
0000
0000
1000
0000
0000
,
0101
0000
0000
0000
0000
0010
0000
0000
,
0100
0010
0001
0001
,
0100
0002
0000
0003
,
0110
0010
1000
0001
,
1000
0001
0100
0010
,
0100
0010
1000
0001
,
1000
0100
0010
0100
,
0010
0001
0010
0001
,
1000
0001
1000
0100
,
0010
0001
1000
0010
,
0100
0001
1000
0010
,
0100
0000
0110
0000
0001
1000
0000
1000
,
0001
0000
1001
0000
1000
0010
0000
0010
,
0100
0000
0101
0000
0001
0010
0000
0010
,
0100
1000
0100
1000
,
0010
0020
0100
0100
,
1030
2000
0010
0010
,
3001
1000
0001
0100
,
0001
0200
0000
0000
,
0310
0000
2002
3003
0001
0000
0010
0000
,
1000
0100
0001
1000
,
0100
0001
0010
1000
,
0001
0010
1000
0010
,
0100
1000
0010
0100
,
0001
1000
0100
0010
,
0001
0000
1000
0000
0020
0000
0000
0130
,
0100
0002
1003
0010
,
1000
0000
2002
3003
1000
0000
0100
0000
,
0001
0010
1000
0001
,
0010
1000
0100
0001
,
1000
0100
0001
0100
,
0010
0001
0100
0010
,
1000
0001
0010
0100
,
1000
0001
1000
0001
,
0100
0010
0100
0010
,
0110
0100
0101
0001
,
0100
0000
0000
0010
0000
1000
0001
0000
,
0100
0000
0001
0000
0010
0000
0000
0100
,
1000
0000
0100
0000
0010
0000
0000
0001
,
0010
0000
0100
0000
1000
0000
0000
0010
,
0100
0000
0001
0000
1000
0000
0000
1000
,
0010
0000
0100
0000
0001
0000
0000
1000
,
0001
0000
0100
0000
0010
0000
0000
0100
,
0010
0000
1000
0000
0100
0000
0000
0010
,
0001
0000
0010
0000
0100
0000
0000
0010
,
0001
0000
1000
0000
0010
0000
0000
1000
,
0010
0100
0001
1000
,
0001
2000
3020
0230
,
0302
0023
0032
2000
,
0000
3003
0010
0000
0100
0000
0001
0000
,
1000
0000
0020
0000
0000
0100
0000
0000
,
0031
1000
0001
0000
0000
0000
0000
0000
;

//---------------dance-single - ----------------
#NOTES:
     dance-single:
     :
     Beginner:
     3:
     0.267046,0.308121,0.150496,0.134655,0.000000,200.000000,19.000000,17.000000,0.000000,0.000000,0.000000,0.267046,0.308121,0.150496,0.134655,0.000000,200.000000,19.000000,17.000000,0.000000,0.000000,0.000000:
// measure 0
0000
0000
0000
0000
,  // measure 1
0000
1000
0000
0100
,  // measure 2
0000
0000
0000
0100
,  // measure 3
0000
0001
0000
0001
,  // measure 4
0000
0010
0000
0001
,  // measure 5
0000
0001
0000
0010
,  // measure 6
0000
0001
1000
0000
,  // measure 7
1000
0000
0010
0000
,  // measure 8
1000
0000
0100
0000
,  // measure 9
1000
0000
1000
0000
,  // measure 10
1000
0000
0010
0000
,  // measure 11
1000
0000
1000
0000
,  // measure 12
0100
0000
0100
0000
,  // measure 13
1000
0000
1000
0000
,  // measure 14
0010
0000
0001
0000
,  // measure 15
1000
0000
0100
0000
,  // measure 16
0010
0000
0010
0000
,  // measure 17
1000
1001
0000
0000
,  // measure 18
0000
1010
0000
0000
,  // measure 19
0000
0101
0000
0000
,  // measure 20
0000
1000
0000
0001
,  // measure 21
0000
0000
2000
0000
0000
0000
0000
3000
,  // measure 22
0000
0000
0002
0000
0000
0000
0000
0003
,  // measure 23
0000
0000
2000
0000
0000
0000
0000
3000
,  // measure 24
0000
2002
0000
0000
,  // measure 25
0000
3003
1001
0000
0100
0000
0000
0000
,  // measure 26
0001
0000
1000
0000
,  // measure 27
1000
0001
1001
0000
,  // measure 28
1000
0000
0001
0000
,  // measure 29
0100
0010
0001
0000
,  // measure 30
1000
0000
0010
0000
,  // measure 31
0010
0100
0110
0000
,  // measure 32
0001
0000
0100
0000
,  // measure 33
0100
1001
0010
0000
,  // measure 34
1000
0000
0001
0000
,  // measure 35
0001
1000
1001
0000
,  // measure 36
0001
0000
1000
0000
,  // measure 37
0010
0000
1100
0000
,  // measure 38
0001
0000
0100
0000
,  // measure 39
0100
0000
0110
0000
,  // measure 40
1000
0000
0000
0010
,  // measure 41
0000
0000
1001
0000
0000
0100
0000
0000
,  // measure 42
1000
0000
0000
0001
0000
0000
1000
0000
,  // measure 43
0000
0000
0100
0000
0000
0100
0000
0000
,  // measure 44
0001
0000
1000
0000
0000
0001
0000
0000
,  // measure 45
0010
0000
1000
0000
0000
0001
0000
0000
,  // measure 46
1000
0000
0000
0000
0000
0100
0000
0000
,  // measure 47
0000
0100
0000
1000
,  // measure 48
0000
2000
0000
3000
,  // measure 49
0000
0100
0000
1000
,  // measure 50
0000
1000
0000
0100
,  // measure 51
0000
0100
0000
1000
,  // measure 52
0000
0010
0000
0010
,  // measure 53
0000
1000
0000
1000
,  // measure 54
0000
1000
0000
0010
,  // measure 55
0000
1000
0000
0100
,  // measure 56
0000
1000
0000
0100
,  // measure 57
0000
0000
0110
0000
0000
0001
0000
0000
,  // measure 58
1000
0000
1001
0000
0000
0100
0000
0000
,  // measure 59
0010
0000
1010
0000
0000
0100
0000
0000
,  // measure 60
0010
0001
0000
0001
,  // measure 61
0000
0200
0000
0000
,  // measure 62
0300
0002
0000
0000
,  // measure 63
1003
0000
1000
0000
,  // measure 64
1000
0020
0000
0000
,  // measure 65
0030
0000
2002
3003
1000
0000
0000
0000
,  // measure 66
0001
0000
1000
0000
,  // measure 67
0010
0000
0100
0000
,  // measure 68
1000
0000
0001
0000
,  // measure 69
0010
0000
0100
0000
,  // measure 70
1000
0000
0010
0000
,  // measure 71
1000
0000
0000
0000
0200
0000
0000
0310
,  // measure 72
0000
2000
3000
0100
,  // measure 73
0000
0000
2002
3003
0001
0000
0000
0000
,  // measure 74
1000
0000
0001
0000
,  // measure 75
0100
0000
0010
0000
,  // measure 76
0001
0000
1000
0000
,  // measure 77
0100
0000
0010
0000
,  // measure 78
0001
0000
0100
0000
,  // measure 79
0001
0000
0001
0000
,  // measure 80
0010
0000
0010
0000
,  // measure 81
0110
0000
1010
0000
,  // measure 82
0010
0000
0000
0100
0000
0001
0000
0000
,  // measure 83
0010
0000
0100
0000
,  // measure 84
0001
0000
0100
0000
,  // measure 85
0100
0000
0001
0000
,  // measure 86
0010
0000
0001
0000
,  // measure 87
0100
0000
1000
0000
,  // measure 88
1000
0000
0100
0000
,  // measure 89
0100
0000
0010
0000
,  // measure 90
1000
0000
0010
0000
,  // measure 91
1000
0000
0100
0000
,  // measure 92
0100
0000
1000
0000
,  // measure 93
1000
0001
0100
0010
,  // measure 94
1000
0100
0010
0200
,  // measure 95
0000
0310
0000
1000
,  // measure 96
0000
0200
0000
0000
,  // measure 97
1300
0001
0000
0000
;
