#TITLE:Blue Fire;
#SUBTITLE:;
#ARTIST:REDALiCE feat. 野宮あゆみ;
#TITLETRANSLIT:Blue Fire;
#SUBTITLETRANSLIT:;
#ARTISTTRANSLIT:REDALiCE feat. Ayumi Nomiya;
#GENRE:;
#CREDIT:;
#BANNER:Blue Fire-bn.png;
#BACKGROUND:Blue Fire-bg.png;
#LYRICSPATH:;
#CDTITLE:;
#MUSIC:Blue Fire.mp3;
#OFFSET:0.800000;
#SAMPLESTART:99.253029;
#SAMPLELENGTH:12.000000;
#SELECTABLE:YES;
#BPMS:0.000000=175.000000
;
#STOPS:
;
#BGCHANGES:;
#KEYSOUNDS:;
#ATTACKS:;

//---------------dance-single - ----------------
#NOTES:
     dance-single:
     :
     Hard:
     14:
     0.932222,0.993515,0.277336,0.734125,0.575064,676.000000,34.000000,90.000000,0.000000,0.000000,0.000000,0.932222,0.993515,0.277336,0.734125,0.575064,676.000000,34.000000,90.000000,0.000000,0.000000,0.000000:
0000
0000
0000
0000
,
1000
0010
0100
0001
0010
0100
1000
0010
,
0000
0100
0001
0100
0010
1000
0100
0010
,
0000
0001
0010
0100
1000
0001
0010
0100
,
0000
0010
0001
1000
0010
1000
0001
0100
,
0001
0000
0010
0000
0100
0000
1000
0000
0100
0000
0010
0000
0001
0000
0010
0100
,
1000
0000
0001
0000
0100
0000
0010
0000
0100
0000
0001
1000
0100
0000
0010
0001
,
1000
0000
0010
0000
0100
0000
0001
0000
0100
0000
0000
0010
0100
0000
0001
1000
,
0001
0000
0000
1000
0000
0000
0010
0000
0000
0100
0000
0000
0010
0000
0000
0000
0000
0000
0100
0000
0000
0000
0000
0000
0001
0000
0000
0000
0000
0000
1000
0000
0001
0000
1000
0000
0001
0000
0000
0000
0000
0000
0000
0000
0000
0000
0000
0000
,
1001
0010
1000
0001
,
0100
0000
0001
0010
0000
0010
0001
1000
,
1100
0100
0010
0001
,
1000
0000
0010
1000
0000
1000
0010
0100
,
0101
0001
0010
0100
,
1000
0000
0010
0100
0000
0010
0100
0001
,
1001
0000
1000
0010
0000
0100
0000
0001
,
1000
0000
0100
0010
0001
0000
0100
0000
0010
0000
1000
0000
0001
0000
0000
0000
,
1000
0010
0100
0001
0000
1000
0001
1000
,
0000
0010
0100
0001
0010
0000
0100
0000
,
1000
0100
0010
0100
0000
1000
0001
1000
,
0010
0000
0000
0000
0100
0000
0001
0000
1000
0000
0010
0100
0001
0000
0010
0100
,
1000
0000
0001
0100
0010
0000
1000
0001
0100
0000
0010
1000
0100
0000
0010
0001
,
1000
0000
0010
0100
1000
0000
0100
0001
0010
0000
0100
1000
0010
0000
0100
0001
,
1000
0001
0010
0100
0010
0001
1000
0100
0001
0100
1000
0010
0100
1000
0100
0001
,
0010
0100
1000
0010
1000
0010
0100
0001
0010
0100
1000
0010
0100
0000
0000
0000
,
2001
0000
0200
3000
0020
0300
0031
0010
,
2200
3300
2020
3030
0202
0303
0001
0100
,
1000
0000
1000
0100
0000
0001
0010
0100
,
0000
1000
0010
1000
0001
0100
0010
0010
,
1002
0000
0020
0003
0200
0030
1300
0100
,
0022
0033
0202
0303
2020
3030
1000
0010
,
0001
0000
0001
0010
0000
1000
0100
0010
,
0001
1000
0001
0000
0100
0000
0001
0000
1000
0001
1000
0001
0100
0000
0100
0000
,
1002
0000
0020
0003
0200
0030
1300
0100
,
0022
0033
0202
0303
2020
3030
1000
0010
,
0001
0000
0001
0010
0000
1000
0100
0010
,
0000
0001
0100
0001
1000
0010
0100
0100
,
2001
0000
0200
3000
0020
0300
0031
0010
,
2200
3300
0010
1000
0202
0303
0001
0100
,
0001
1000
0010
1000
0001
0010
0100
0010
,
0001
1000
0001
0000
0100
0000
0001
0000
1000
0001
1000
0010
0100
0000
0100
0000
,
0001
1000
0010
0000
0100
0000
0001
0000
1000
0000
0010
0000
0100
0000
0200
0000
,
0000
0000
0310
1000
0001
0000
0100
0000
0001
0000
1000
0000
0010
0000
0020
0000
,
0000
0000
1030
0001
0100
0000
0001
0000
0010
0000
0100
0000
1000
0000
2000
0000
,
0000
0000
3010
0100
0001
0000
1000
0000
0100
0000
0010
0000
0001
0000
0001
0000
,
1001
0000
1000
0010
0100
0000
0100
0000
0001
0000
0010
0100
1000
0000
1000
0000
,
0001
0000
1000
0001
0010
0000
0010
0000
0100
0000
1000
0001
0100
0000
0100
0000
,
0010
1000
0010
0100
0001
1000
0001
0010
0100
1000
0010
0100
0010
1000
0001
0010
,
0001
0000
1000
0010
0100
0000
0100
0000
0001
0000
1000
0001
0100
0000
0000
0000
,
0001
0010
0200
0000
0000
0000
1300
0010
0200
0000
0000
0000
0301
0010
0200
0000
0000
0000
1300
0000
0000
0001
0000
0000
,
0100
0001
0020
0000
0000
0000
0130
1000
0020
0000
0000
0000
0130
0001
0020
0000
0000
0000
0130
0000
0000
1000
0000
0000
,
1002
0000
0103
0020
0000
1030
0001
0010
,
0100
1000
0100
1000
0010
0100
0010
0100
0001
1000
0001
1000
0100
0000
0000
0000
,
0010
0000
0001
0000
2000
0000
0000
0000
0000
0000
0000
0000
3010
0000
0100
0000
0002
0000
0000
0000
0000
0000
0000
0000
0013
0000
0100
0000
2000
0000
0000
0000
0000
0000
0000
0000
3010
0000
0000
0000
0000
0000
0100
0000
0000
0010
0000
0000
,
2000
0000
0000
0000
3100
0000
0010
0001
0200
0000
0000
0000
0301
0000
1000
0001
,
0020
0000
0130
2000
0000
3002
0000
0203
,
0000
0000
0310
1000
0001
0000
0200
0000
0020
0000
0330
0000
1001
0000
0000
0000
,
1000
0100
0020
0000
0000
0000
0031
0100
0020
0000
0000
0000
1030
0100
0020
0000
0000
0000
0031
0000
0000
1000
0000
0000
,
0010
1000
0200
0000
0000
0000
0310
0001
0200
0000
0000
0000
0310
1000
0200
0000
0000
0000
0310
0000
0000
0001
0000
0000
,
2001
0000
3010
0200
0000
0301
1000
0100
,
0010
0001
0010
0001
0100
0010
0100
0010
1000
0001
1000
0001
0010
0000
0000
0000
,
0100
0000
1000
0000
0002
0000
0000
0000
0000
0000
0000
0000
0103
0000
0010
0000
2000
0000
0000
0000
0000
0000
0000
0000
3100
0000
0010
0000
0002
0000
0000
0000
0000
0000
0000
0000
0103
0000
0000
0000
0000
0000
0010
0000
0000
0100
0000
0000
,
0002
0000
0000
0000
0013
0000
0100
1000
0020
0000
0000
0000
1030
0000
0001
1000
,
0200
0000
0310
0002
0000
2003
0000
3020
,
0000
0000
0130
0001
1000
0000
0100
0000
2000
0000
0000
0000
3001
0000
0000
0000
,
1001
0000
0000
0000
1010
0000
0000
0000
0101
0000
0000
0000
0010
0000
1000
0001
,
1000
0000
0000
0000
0010
0000
0000
0000
0100
0000
0001
1000
0010
0000
0100
0001
,
1000
0010
0100
0001
0010
0100
1000
0010
,
0100
0000
0001
0000
0010
0000
0100
0000
1000
0000
0001
1000
0001
0000
1000
0000
,
0010
0000
0100
0001
1000
0000
0010
1000
0100
0000
0010
0001
1000
0000
0100
0010
,
0001
0000
0010
0100
1000
0000
0010
0100
1000
0000
0100
0010
1000
0000
0100
0010
,
0001
1000
0100
0010
1000
0010
0001
0100
1000
0100
0001
0010
0001
1000
0100
1000
,
0010
0100
0001
0010
0001
1000
0100
1000
0010
0100
0001
1000
0010
0000
0000
0000
,
2001
0000
0020
3000
0002
0030
1003
0100
,
0201
0000
0020
0030
2000
3000
0301
0010
,
2100
0000
0010
3010
0000
0100
0001
2001
,
0000
3010
0100
0001
0100
0010
1000
0100
,
1002
0000
0020
0003
0200
0030
1300
0100
,
0022
0033
0100
0001
2020
3030
1000
0010
,
1000
0001
0100
0001
1000
0100
0010
0100
,
1000
0001
1000
0000
0010
0000
1000
0000
0001
0000
0100
0000
0100
0000
0000
0000
,
0110
0010
1000
0100
0000
0010
0001
0100
,
0000
0010
1000
0100
0000
0010
0001
0100
,
0000
0010
1000
0100
0000
0010
0001
0100
,
0000
0010
1000
0100
0000
0010
0001
2000
,
0000
0000
0000
0000
,
0000
0000
0000
0000
,
3000
0000
0000
0000
;

//---------------dance-single - ----------------
#NOTES:
     dance-single:
     :
     Medium:
     11:
     0.643233,0.603206,0.097883,0.489416,0.000000,480.000000,12.000000,60.000000,0.000000,0.000000,0.000000,0.643233,0.603206,0.097883,0.489416,0.000000,480.000000,12.000000,60.000000,0.000000,0.000000,0.000000:
0000
0000
0000
0000
,
0100
0000
0001
0000
0100
0000
0010
1000
,
0000
0000
0001
0000
0010
0000
0001
0010
,
0000
0000
0100
0000
1000
0000
0100
0010
,
0000
0000
0001
0000
1000
0000
0010
0100
,
0010
0000
1000
0000
0100
0000
0010
0001
,
0010
0000
0100
0000
1000
0000
0010
0100
,
0010
0000
1000
0000
0001
0000
1000
0001
,
1000
0000
0010
0000
0100
0001
0100
0000
,
1001
0010
0100
0001
,
1000
0000
0010
0000
0100
0000
0010
1000
,
1010
0100
0001
0010
,
0100
0000
0010
0000
0001
0000
0010
0100
,
0110
0010
0100
1000
,
0001
0000
0100
0000
0010
0000
0100
0001
,
1001
1000
1010
0001
,
1001
0000
0010
0100
0010
0000
1000
0000
,
0001
0000
0100
0000
0010
0000
1000
0001
,
0100
0000
0010
0000
1000
0000
0100
0010
,
0001
0000
0010
0000
0100
0000
1000
0010
,
0100
0000
0001
0000
0010
0000
0100
1000
,
0100
0000
0010
0001
0010
0000
0100
1000
,
0001
1000
0001
0100
0001
0010
0100
0010
,
0001
1000
0010
1000
0010
0100
0001
0100
,
0001
0010
0100
1000
0002
0000
0103
0000
,
2010
0000
3002
0000
0203
0000
0310
1000
,
0002
0000
0023
0000
0230
0000
1300
0001
,
0100
0000
0010
1000
0000
0001
0100
0010
,
0000
1000
0100
0010
0000
0001
1000
1000
,
0002
0000
2003
0000
3020
0000
1030
0100
,
0020
0000
0032
0000
1003
0000
0010
0100
,
0001
0000
1000
0010
0000
0100
0001
1000
,
0000
0001
0100
0010
0000
0010
0100
0100
,
0002
0000
2003
0000
3020
0000
0130
0001
,
2000
0000
3200
0000
0320
0000
0031
1000
,
0010
0000
0100
0001
0000
1000
0010
0100
,
0000
0001
0010
0100
0000
1000
0001
0001
,
2000
0000
3002
0000
0203
0000
0301
0100
,
0010
0000
1000
0100
0010
0000
0001
0100
,
0001
0000
1000
0010
0000
0100
0000
0010
,
0000
1000
0001
0100
0010
1000
0010
0010
,
1000
0001
1000
0100
0010
0001
1000
2000
,
0000
3001
0010
0100
0010
0001
0100
0200
,
0000
0310
1000
0010
0100
0001
0010
0020
,
0000
0130
1000
0001
1000
0010
0100
0100
,
0000
0001
0010
0010
0000
0100
1000
1000
,
0000
0001
0100
0100
0000
0010
0001
0001
,
0010
1000
0010
1000
0100
0010
0100
0010
,
0001
0010
0001
0001
1000
0001
1001
0000
,
1000
0010
1000
0010
0200
0000
0301
0010
,
0002
2003
3020
0230
,
0302
0000
0013
0100
0000
1000
0100
0010
,
0001
0010
0100
1000
0010
0100
0010
0000
,
1000
0001
1000
0001
0200
0000
0310
0100
,
0002
0000
1003
0010
0200
0000
0301
1000
,
0020
0000
0130
0002
0000
2003
0000
3200
,
0000
0310
0001
1000
0100
0000
0110
0000
,
0001
0100
0001
0100
0020
0000
1030
0100
,
2000
3002
0203
0320
,
2030
0000
3100
0010
0000
0001
0010
0100
,
1000
0100
0010
0001
0100
0010
0100
0000
,
0001
1000
0001
1000
0020
0000
0130
0010
,
2000
0000
3001
0100
0020
0000
1030
0001
,
0200
0000
0310
2000
0000
3002
0000
0023
,
0000
0130
1000
0001
0010
0000
1100
0000
,
1000
0000
0010
0000
0100
0000
0001
1000
,
0010
0000
0100
0000
0001
0000
0010
0100
,
1000
0000
0100
0000
0010
0000
0001
1000
,
0010
0000
0100
0000
0001
0000
0010
0100
,
1000
0100
1000
0010
0100
0010
0100
0001
,
1000
0001
1000
0010
0100
0010
0100
0001
,
0010
0100
1000
0100
0010
0001
1000
0010
,
0100
0010
1000
0100
0010
0001
1000
0000
,
2010
0000
3002
0000
0203
0000
0310
1000
,
0002
0000
0023
0000
0230
0000
1300
0001
,
0100
0000
0010
1000
0000
0001
0100
0010
,
0000
1000
0100
0010
0000
0001
1000
1000
,
0002
0000
2003
0000
3020
0000
1030
0010
,
0100
0000
0001
0010
0100
0000
1000
0010
,
0100
0000
0001
1000
0000
0010
0000
0100
,
0000
0001
1000
0010
0100
0001
0010
0000
,
1001
1000
0001
0100
0000
0001
1000
0100
,
0000
1000
0001
0100
0000
0001
1000
0100
,
0000
1000
0001
0100
0000
0001
1000
0100
,
0000
1000
0001
0100
0000
0010
1000
0002
,
0000
0000
0000
0000
,
0000
0000
0000
0000
,
0003
0000
0000
0000
;

//---------------dance-single - ----------------
#NOTES:
     dance-single:
     :
     Easy:
     4:
     0.445136,0.532240,0.081569,0.619927,0.000000,296.000000,10.000000,76.000000,0.000000,0.000000,0.000000,0.445136,0.532240,0.081569,0.619927,0.000000,296.000000,10.000000,76.000000,0.000000,0.000000,0.000000:
0000
0000
0000
0000
,
0000
0000
0000
0000
,
0000
0000
0000
0000
,
0000
0000
0000
0000
,
0000
0000
0000
0000
,
0100
0001
0100
0001
,
1000
0100
0010
0001
,
0100
0010
0100
0010
,
1000
0100
1000
0100
,
1001
0001
0100
0001
,
1000
0010
0100
0010
,
0110
0100
0001
0010
,
0100
1000
0100
1000
,
1010
0010
0100
0001
,
0100
0001
1000
0001
,
0011
0010
0110
0100
,
1100
1000
0001
0100
,
0001
1000
0010
0100
,
0010
1000
0100
0010
,
0001
0100
0010
0100
,
0001
1000
0001
0100
,
0010
0000
0100
0000
,
1000
0000
1000
0000
,
0001
0001
0100
0100
,
0010
0010
2000
3000
,
0002
2003
3020
0230
,
0302
0203
0320
2030
,
3001
0000
1000
0001
0000
0000
1000
0020
,
0000
0000
0000
0000
,
2030
3002
0203
0320
,
0230
0302
2003
3200
,
0310
0000
0001
0100
0000
0000
0100
0002
,
0000
0000
0000
0000
,
2003
3002
0203
0320
,
2030
3002
0203
2300
,
3001
0000
0100
0001
0000
0000
0100
0020
,
0000
0000
0000
0000
,
0230
0302
2003
3020
,
1030
0000
0000
0001
1000
0000
0000
0000
,
1000
0000
0001
1000
0000
0001
0000
0100
,
0000
0000
0000
0010
0100
0000
0000
0000
,
0001
1000
0001
2000
,
0000
3100
0100
0020
,
0000
0031
0001
0200
,
0000
0000
0310
0000
0010
0000
1000
1000
,
0000
0000
0001
0100
0000
0000
0001
1000
,
0000
0000
0010
0100
0000
0000
0001
1000
,
0000
0100
0010
0100
,
0001
1000
0001
1001
,
1000
0001
0020
0130
,
2000
3002
0203
0320
,
2030
0000
3100
0010
0000
0000
0010
0200
,
0000
0000
0000
0300
,
0001
1000
0020
0130
,
2000
0000
3000
0001
0020
0000
0030
1000
,
0200
0000
0310
2000
0000
3002
0000
0023
,
0000
0130
1000
0000
0010
0000
0110
0000
,
1000
1000
0200
0301
,
0002
2003
3020
0230
,
0302
0000
0013
0100
0000
0000
1000
0002
,
0000
0000
0000
0103
,
1000
0001
0200
0310
,
0002
0000
0003
0010
0200
0000
0300
1000
,
0020
0000
0130
0002
0000
2003
0000
3200
,
0000
0310
0001
0000
0100
0000
1001
0000
,
0001
0100
0010
1000
,
0100
0010
0001
0100
,
0010
1000
0001
0100
,
0010
1000
0100
0010
,
0001
0010
0100
1000
,
0001
0100
0001
0100
,
0010
0100
0010
1000
,
0100
0010
0001
0010
,
0200
2300
3020
0230
,
2300
3200
0320
0031
,
0010
0000
0100
0001
0000
0000
0010
0200
,
0000
0000
0000
0300
,
2000
3002
0203
0302
,
1003
0000
0000
1000
0010
0000
0000
0000
,
0010
0000
1000
0001
0000
0100
0000
0010
,
0000
1000
0001
0000
0100
0000
0010
0000
,
1001
0000
1000
0010
0000
0000
0001
0010
,
0000
0000
1000
0010
0000
0000
0001
0010
,
0000
0000
1000
0010
0000
0000
0001
0010
,
0000
0000
1000
0010
0000
0000
0001
2000
,
0000
0000
0000
0000
,
0000
0000
0000
0000
,
3000
0000
0000
0000
;

//---------------dance-single - ----------------
#NOTES:
     dance-single:
     :
     Beginner:
     2:
     0.245873,0.354827,0.048942,0.399690,0.000000,156.000000,6.000000,49.000000,0.000000,0.000000,0.000000,0.245873,0.354827,0.048942,0.399690,0.000000,156.000000,6.000000,49.000000,0.000000,0.000000,0.000000:
// measure 0
0000
0000
0000
0000
,  // measure 1
0000
0000
0000
0000
,  // measure 2
0000
0000
0000
0000
,  // measure 3
0000
0000
0000
0000
,  // measure 4
0000
0000
0000
0000
,  // measure 5
0100
0000
0100
0000
,  // measure 6
1000
0000
0010
0000
,  // measure 7
0100
0000
0100
0000
,  // measure 8
1000
0000
1000
0000
,  // measure 9
1001
0010
0000
0000
,  // measure 10
1000
0000
0000
0010
,  // measure 11
0010
0000
0000
0000
,  // measure 12
0100
0000
0000
1000
,  // measure 13
1000
0000
0000
0000
,  // measure 14
0100
0000
0000
0001
,  // measure 15
0001
0000
1001
0000
,  // measure 16
1001
0000
0001
0000
,  // measure 17
0001
0000
0010
0000
,  // measure 18
0010
0000
0100
0000
,  // measure 19
0001
0000
0010
0000
,  // measure 20
0001
0000
0001
0000
,  // measure 21
0010
0000
0100
0000
,  // measure 22
1000
0000
1000
0000
,  // measure 23
0001
0000
0100
0000
,  // measure 24
0010
0000
2000
3000
,  // measure 25
0002
0003
0020
0030
,  // measure 26
0002
0003
0020
0030
,  // measure 27
0001
0000
1000
0000
0000
0000
0000
0020
,  // measure 28
0000
0000
0000
0000
,  // measure 29
2030
3000
0200
0300
,  // measure 30
0200
0300
2000
3000
,  // measure 31
0010
0000
0000
0100
0000
0000
0000
0002
,  // measure 32
0000
0000
0000
0000
,  // measure 33
2003
3000
0200
0300
,  // measure 34
2000
3000
0200
0300
,  // measure 35
0001
0000
0000
0001
0000
0000
0000
0020
,  // measure 36
0000
0000
0000
0000
,  // measure 37
0230
0300
2000
3000
,  // measure 38
1000
0000
1000
0000
,  // measure 39
1000
0000
0000
1000
0000
0000
0000
0100
,  // measure 40
0000
0000
0100
0000
,  // measure 41
0001
0000
0001
2000
,  // measure 42
0000
3100
0000
0020
,  // measure 43
0000
0031
0000
0200
,  // measure 44
0000
0000
0310
0000
0000
0000
1000
1000
,  // measure 45
0000
0001
0000
0001
,  // measure 46
0000
0010
0000
0001
,  // measure 47
0000
0100
0000
0100
,  // measure 48
0000
1000
0000
0000
,  // measure 49
1001
0000
0020
0030
,  // measure 50
2000
3000
0200
0300
,  // measure 51
2000
0000
3000
0010
0000
0000
0000
0200
,  // measure 52
0000
0000
0000
0300
,  // measure 53
0001
0000
0020
0030
,  // measure 54
2000
3000
0020
0030
,  // measure 55
0200
0000
0300
2000
0000
3000
0000
0020
,  // measure 56
0000
0030
1000
0000
0000
0000
0100
0000
,  // measure 57
0110
0000
0200
0300
,  // measure 58
0002
0003
0020
0030
,  // measure 59
0002
0000
0013
0000
0000
0000
0000
0002
,  // measure 60
0000
0000
0000
0103
,  // measure 61
0000
0001
0000
0010
,  // measure 62
0000
0000
0200
0300
,  // measure 63
0020
0000
0030
0002
0000
0003
0000
0200
,  // measure 64
0000
0300
0001
0000
0000
0000
1001
0000
,  // measure 65
0000
0000
0010
0000
,  // measure 66
0100
0000
0001
0000
,  // measure 67
0010
0000
0001
0000
,  // measure 68
0010
0000
0100
0000
,  // measure 69
0001
0000
0100
0000
,  // measure 70
0001
0000
0001
0000
,  // measure 71
0010
0000
0010
0000
,  // measure 72
0100
0000
0001
0000
,  // measure 73
0200
0300
0020
0030
,  // measure 74
2000
3000
0020
0031
,  // measure 75
0000
0000
0100
0000
0000
0000
0000
0200
,  // measure 76
0000
0000
0000
0300
,  // measure 77
2000
3000
0200
0300
,  // measure 78
1000
0000
0010
0000
,  // measure 79
0010
0000
0000
0001
0000
0000
0000
0010
,  // measure 80
0000
0001
0100
0000
,  // measure 81
0001
0000
0000
0001
,  // measure 82
0000
1000
0000
0001
,  // measure 83
0000
1000
0000
0001
,  // measure 84
0000
0000
1000
0000
0000
0000
0001
0200
,  // measure 85
0000
0000
0000
0000
,  // measure 86
0000
0000
0000
0000
,  // measure 87
0300
0000
0000
0000
;
