#TITLE:Blue Destiny Blue;
#SUBTITLE:;
#ARTIST:NAOKI feat. Florence McNair;
#TITLETRANSLIT:;
#SUBTITLETRANSLIT:;
#ARTISTTRANSLIT:;
#GENRE:;
#CREDIT:;
#BANNER:;
#BACKGROUND:;
#LYRICSPATH:;
#CDTITLE:;
#MUSIC:Blue Destiny Blue.mp3;
#OFFSET:-0.620000;
#SAMPLESTART:50.339909;
#SAMPLELENGTH:12.000000;
#SELECTABLE:YES;
#BPMS:0.000000=160.000000
;
#STOPS:
;
#BGCHANGES:;
#KEYSOUNDS:;
#ATTACKS:;

//---------------dance-single - ----------------
#NOTES:
     dance-single:
     :
     Hard:
     13:
     0.685303,0.749550,0.373689,0.330237,0.212916,471.000000,43.000000,38.000000,0.000000,0.000000,0.000000,0.685303,0.749550,0.373689,0.330237,0.212916,471.000000,43.000000,38.000000,0.000000,0.000000,0.000000:
0000
0000
0000
0000
,
0000
0000
0000
0000
,
1000
0000
0000
0001
0000
0000
0100
0000
,
0000
0010
0000
0000
1000
0000
0001
0000
,
0100
0010
0100
0010
1000
0001
0010
0100
,
1000
0000
0010
0000
0100
0000
0001
0000
1000
0010
0100
0001
1000
0010
0100
0001
,
1000
0001
0101
0000
0100
0010
1010
0000
,
0100
0001
1000
0000
0101
0000
1010
0000
,
0001
1000
0100
1000
0001
0010
0001
1000
,
0001
0010
0100
1000
0001
0000
1000
0010
0100
0001
1000
0000
0001
0010
0100
1000
,
0010
0000
0100
0001
0100
0000
0010
1000
,
0001
0000
0000
1000
0000
0000
0010
0000
0100
0000
0000
0001
0000
0000
2000
0000
,
0002
0000
0000
0000
0000
0000
3003
0000
1000
0000
0000
1000
0000
0000
0001
0000
,
0100
0000
0000
0100
0000
0000
0001
0000
0010
0000
0000
0010
0000
0000
0002
0000
,
0200
0000
0000
0000
0000
0000
0303
0000
0010
0000
0000
1000
0000
0000
0100
0000
,
0010
0000
0000
0001
0000
0000
0010
0000
0100
0000
0000
1000
0000
0000
0010
0000
,
0200
0000
0001
0000
0301
1000
0001
0100
,
0010
1000
0010
1000
0001
0100
0001
0010
0001
0010
0100
1000
0100
1000
0001
1000
,
0001
0100
0001
0100
0010
1000
0010
0100
,
0001
0010
0001
0010
0100
1000
0010
0100
,
1010
0000
0000
0000
0001
0100
0010
1000
,
0100
0010
0001
0010
0100
1000
0010
0100
,
0101
0000
0000
0001
0100
0001
1000
0100
,
1000
0001
0100
0001
1000
0010
1000
0001
,
0110
0000
0000
1001
0000
0000
1010
0000
,
0100
0000
0001
0010
0100
1000
0100
0010
0001
0000
0000
0100
0010
0000
0000
0000
,
1000
0001
0100
0001
0000
1000
0100
1000
,
1100
0000
0001
1001
0000
0010
1000
0000
,
0001
0000
1000
0000
0001
0000
0100
0000
0010
0000
0100
0010
0100
0000
0001
2000
,
0002
0000
0000
0000
3003
0000
0010
0100
0010
0000
0000
1001
0000
0000
0110
0000
,
0110
0000
1001
0100
0010
1000
1010
0100
,
0001
1000
1001
0001
0100
0010
0110
0100
,
0001
0000
1000
0000
0001
0010
0100
1000
0100
0010
0001
1000
0001
0100
0010
1000
,
0001
0100
0100
0100
,
0101
0001
1000
0100
1000
0001
0010
0001
,
1000
0100
0010
0100
1000
0001
0100
0001
,
0110
1000
0100
0010
0110
0001
0100
0010
,
0110
0100
0001
1000
0000
0010
1000
1010
,
0000
0001
1000
1100
0000
0010
0001
0011
,
0000
0010
0100
0110
0000
0100
1000
1001
,
0000
0010
0100
0000
0010
0000
0110
0100
,
0010
0000
1001
0000
0000
0000
1001
0000
0000
0000
0010
0100
0010
0100
0010
0000
,
1000
0001
0010
0100
1000
0010
0100
0010
,
1000
0100
1000
0001
0010
0001
1000
0001
,
0020
0000
0130
1000
0002
0000
0103
0010
,
2000
0000
3001
0100
0000
0010
1000
0001
,
2000
0000
0000
3001
0001
1000
1000
0001
,
0200
0000
0000
0310
0000
0100
0010
0100
,
2002
0000
0000
0000
3003
0000
0010
0000
0200
0000
0000
0001
0000
0000
0310
0000
,
2000
0000
0000
0100
0000
0000
3010
0000
0000
0000
0100
0000
1001
0000
0000
0000
,
0020
0000
0130
0001
2000
0000
3100
0010
,
0002
0000
0103
0000
0010
1000
0010
0100
,
0101
0000
1001
0000
1000
0001
0100
0020
,
0000
1030
0001
0200
0000
0010
0310
0000
,
1010
0000
1000
0001
0010
0000
0001
1000
,
0100
0000
0010
0001
0100
0010
1000
0001
,
1000
0000
1001
0000
0010
0100
0000
0110
,
0000
1000
1000
0000
0001
0001
0010
0010
,
0200
0000
0000
0000
2300
0000
0000
0000
3000
0000
1001
0000
0000
1100
0000
0000
,
0110
0010
0001
1000
0001
0010
0001
0100
,
0010
1000
0100
1000
0010
0100
0001
0010
,
0100
0010
0001
1000
0010
0100
1000
0100
,
0020
0000
1030
0001
0100
0010
1000
0001
,
0200
0000
0301
1000
0100
1000
0100
0010
,
0012
0000
0000
1003
0020
0000
0130
0000
,
0100
0010
0010
1000
,
1001
0000
0010
0100
0000
0100
0001
0000
,
0001
1000
0000
1000
0100
0000
0100
0000
,
0010
0000
0001
0010
0000
0010
0100
0000
,
0100
0000
1000
0000
0000
0000
1000
0000
0001
0100
0001
0100
0001
1000
0010
1000
,
0020
0000
0000
0230
0000
0000
0302
0000
,
0000
2003
0000
0000
3002
0000
0203
0000
,
0010
0010
0000
0302
0000
0000
2003
0000
,
0000
3020
0000
0000
0130
0000
2002
0000
,
0000
0000
0000
0000
,
3003
0000
0000
0000
;

//---------------dance-single - ----------------
#NOTES:
     dance-single:
     :
     Medium:
     10:
     0.522668,0.488837,0.234642,0.269404,0.017381,363.000000,27.000000,31.000000,0.000000,0.000000,0.000000,0.522668,0.488837,0.234642,0.269404,0.017381,363.000000,27.000000,31.000000,0.000000,0.000000,0.000000:
0000
0000
0000
0000
,
0000
0000
0000
0000
,
1000
0000
0000
0001
0000
0000
0100
0000
,
0000
0001
0000
0000
0010
0000
0001
0000
,
1001
0000
1000
0010
1000
0000
0001
0100
,
0000
0010
0000
0000
1000
0001
0100
0001
,
1000
0010
0110
0000
0100
0010
1000
0000
,
0001
0100
0001
0000
1001
0000
1001
0000
,
0001
0000
1000
0000
0010
0100
0010
0000
,
1000
0010
0100
0001
0010
0100
1000
0001
,
0100
0000
0001
1000
0001
0000
0100
0000
,
0100
0000
0001
1000
0010
0000
0100
0001
,
0200
0000
0000
0000
0301
0000
1000
0001
,
0010
0000
0100
0000
0010
0000
0100
1000
,
0002
0000
0000
0000
1003
0000
0010
0100
,
0010
0000
1000
0000
0001
0000
0100
0001
,
0200
0000
0010
0000
0310
1000
0001
1000
,
0001
0010
0100
1000
0010
0100
0010
1000
,
0001
0000
0001
0100
0010
0000
1000
0000
,
0001
0000
1000
0001
1000
0000
0010
1000
,
1001
0000
0010
0000
0001
0100
0010
1000
,
0100
0010
0001
0010
0100
1000
0010
0100
,
0110
0000
0010
0100
0001
0000
1000
0010
,
0100
0000
0001
1000
0001
0000
1000
0010
,
1001
0000
0000
0110
0000
0000
0101
0000
,
0100
0001
1000
0010
2000
0000
3001
0000
,
0100
0010
0100
0001
0000
1000
0010
0000
,
0110
0000
0000
1001
0000
0001
0010
0000
,
0100
1000
0100
0000
0010
0001
0100
0001
,
2000
0000
0000
0000
3000
0000
0010
0000
0010
0000
0000
1001
0000
0000
0100
0000
,
0100
0000
1001
0000
0000
1000
1010
0000
,
0000
0001
0101
0000
0000
0100
0110
0000
,
0000
1000
0001
0000
0100
0010
0100
0001
,
1000
0100
0100
0100
,
0110
0010
0001
1000
,
0001
0100
0001
0000
1000
0000
0010
0100
,
0010
0000
1000
0001
0100
0000
0001
1000
,
0100
0000
1000
0010
0000
0010
1000
0001
,
0000
0001
0010
1000
0000
1000
0010
0001
,
0000
0001
0100
0010
0000
0010
1000
0001
,
0000
0001
0100
0000
0010
0000
0100
0100
,
0000
1001
0000
1001
0000
0010
0010
0010
,
1000
0000
0001
0000
0100
0000
0001
0100
,
0001
0000
1000
0000
0100
0000
1000
0001
,
2000
0000
3010
1000
0002
0000
0103
0001
,
0020
0000
0130
1000
0000
0010
1000
0001
,
0200
0000
0000
0310
1000
0001
0010
0100
,
2000
0000
0000
3010
0000
0100
0010
0100
,
2002
0000
0000
0000
3003
0000
0010
0000
1000
0000
0000
0001
0000
0000
1000
0000
,
0010
0000
0000
0100
0000
0000
0001
0000
0000
0000
1000
0000
1001
0000
0000
0000
,
0002
0000
1003
0000
0010
0000
1000
0010
,
0200
0000
0301
0000
1000
0000
0010
0100
,
0010
1001
0100
0010
,
0100
0001
1000
0000
0010
1000
0001
0000
,
1001
0000
1000
0000
0001
0000
1000
0001
,
1000
0000
0100
0000
0010
0000
0001
0010
,
0001
0000
1001
0000
0010
1000
0000
1001
,
0000
0001
0001
0000
0010
0000
0100
0000
,
2000
0000
0000
0000
0002
0000
0000
0000
3003
0000
0100
0000
0000
0100
0000
0000
,
0100
0000
0010
0000
1000
0001
1000
0100
,
0010
0000
0100
0000
1000
0100
1000
0001
,
0010
0000
0001
0000
1000
0001
1000
0010
,
0200
0000
0301
1000
0001
0100
0010
1000
,
0020
0000
0130
0000
0001
0000
1000
0001
,
0200
0000
0000
0310
0020
0000
0130
0000
,
1000
0001
1000
0010
,
1001
0000
0000
0100
0000
0000
0001
0000
,
0000
1000
0000
0000
0100
0000
0010
0000
,
0001
0000
0000
1000
0000
0000
0001
0000
,
0000
0100
0000
0000
0001
1000
0001
1000
,
0002
0000
0000
2003
0000
0000
3200
0000
,
0000
0320
0000
0000
0032
0000
2003
0000
,
0000
0000
0000
3020
0000
0000
0230
0000
,
0000
0302
0000
0000
1003
0000
2002
0000
,
0000
0000
0000
0000
,
3003
0000
0000
0000
;

//---------------dance-single - ----------------
#NOTES:
     dance-single:
     :
     Easy:
     4:
     0.381138,0.391070,0.173809,0.382379,0.000000,243.000000,20.000000,44.000000,0.000000,0.000000,0.000000,0.381138,0.391070,0.173809,0.382379,0.000000,243.000000,20.000000,44.000000,0.000000,0.000000,0.000000:
0000
0000
0000
0000
,
0000
0000
0000
0000
,
0000
0000
0000
0000
,
0000
0000
0000
0000
,
1001
0000
1000
0000
0001
0000
0100
0010
,
0000
0100
0000
0000
0001
0000
1000
0000
,
0001
1001
0100
0010
,
0100
0001
2000
3010
,
0100
0001
1000
0010
,
1000
0001
1000
0010
,
0100
0001
1000
0010
,
0010
1000
0001
0100
,
0200
0000
0301
0001
,
0100
0010
1000
0010
,
0020
0000
1030
0001
,
1000
0010
0100
0001
,
0200
0000
0310
0001
,
1000
0010
0100
0001
,
1000
0000
0000
0010
0100
0000
0001
0000
,
1000
0001
1000
0100
,
0011
0000
1000
0100
,
0010
1000
0010
0100
,
0110
0001
1000
0001
,
0010
0100
1000
0100
,
0110
0000
0000
0011
0000
0000
1001
0000
,
1000
0000
0000
0001
0002
0000
1003
0000
,
0010
0000
0010
1000
0000
0001
1000
0000
,
0020
0000
0030
1001
0000
0000
0100
0000
,
0010
0000
0100
0000
0001
0000
0000
1000
,
0002
0000
0003
0100
0010
0000
0000
0100
,
0010
1001
0000
0101
,
0000
1010
0000
0110
,
0000
0200
0302
2003
,
3010
0100
0100
0100
,
2002
3003
1000
0001
,
2000
3000
0001
0100
,
0200
0301
0020
0130
,
2000
3000
0010
0100
,
0001
0100
1000
0010
,
0001
0100
1000
0001
,
1000
0000
0010
0000
0100
0000
0010
0010
,
0000
2000
0000
3001
0000
0000
0200
0000
,
0310
1000
0010
1000
,
1000
0000
0001
1000
,
0002
0003
2000
3000
,
0200
0300
0000
0010
,
0020
0000
0000
0030
1000
0000
0001
0000
,
2000
0000
0000
3000
0000
0000
0100
0000
,
2002
3003
0001
0000
,
0100
0000
0000
0010
0000
0100
0100
0000
,
0002
1003
0100
1000
,
0020
0130
0001
0000
,
0100
1001
0000
0100
,
0010
0001
0100
1000
,
1001
0000
1000
0001
,
0001
0010
0100
1000
,
1000
0000
1001
0000
0100
0000
0000
0110
,
0000
0010
0010
0000
0100
0000
0010
0000
,
0002
0000
2003
0000
,
3020
0000
0130
0001
,
1000
0010
1000
0100
,
0010
0100
1000
0001
,
0010
0001
0100
0010
,
2000
3010
0100
0001
,
0020
0000
0000
0130
0200
0000
1300
0000
,
0001
1000
0001
0100
,
1001
0000
0000
0001
0000
0000
0100
0000
,
0000
0010
0000
0000
1000
0000
0100
0000
,
1000
0000
0000
0001
0000
0000
0010
0000
,
0000
0001
0000
0000
0100
0000
0010
0000
,
2000
0000
0000
3002
0000
0000
0023
0000
,
0000
0230
0000
0000
2300
0000
3002
0000
,
0000
0000
0000
0203
0000
0000
0320
0000
,
0000
2030
0000
0000
3001
0000
2002
0000
,
0000
0000
0000
0000
,
3003
0000
0000
0000
;

//---------------dance-single - ----------------
#NOTES:
     dance-single:
     :
     Beginner:
     2:
     0.239608,0.293302,0.034762,0.217261,0.000000,164.000000,4.000000,25.000000,0.000000,0.000000,0.000000,0.239608,0.293302,0.034762,0.217261,0.000000,164.000000,4.000000,25.000000,0.000000,0.000000,0.000000:
// measure 0
0000
0000
0000
0000
,  // measure 1
0000
0000
0000
0000
,  // measure 2
0000
0000
0000
0000
,  // measure 3
0000
0000
0000
0000
,  // measure 4
0001
0000
0001
0100
,  // measure 5
0000
0100
0000
0000
0001
0000
0000
0000
,  // measure 6
0001
1000
0000
0010
,  // measure 7
0000
0001
1000
0000
,  // measure 8
0100
0000
1000
0000
,  // measure 9
0001
0000
1000
0000
,  // measure 10
0001
0000
1000
0000
,  // measure 11
0010
0000
0001
0000
,  // measure 12
0200
0000
0301
0000
,  // measure 13
0100
0000
1000
0000
,  // measure 14
0020
0000
1030
0000
,  // measure 15
0001
0000
1000
0000
,  // measure 16
0200
0000
0310
0000
,  // measure 17
1000
0000
0001
0000
,  // measure 18
1000
0000
0100
0000
,  // measure 19
0001
0000
1000
0000
,  // measure 20
1001
0000
0001
0000
,  // measure 21
0010
0000
0100
0000
,  // measure 22
0110
0001
0000
0001
,  // measure 23
0000
0100
0000
0100
,  // measure 24
0100
0000
0000
0001
0000
0000
1000
0000
,  // measure 25
1000
0000
0001
1000
,  // measure 26
0000
0010
0000
1000
,  // measure 27
0020
0000
0030
1000
0000
0000
0100
0000
,  // measure 28
0000
0100
0000
0000
,  // measure 29
0002
0003
0010
0000
,  // measure 30
0010
1000
0000
0001
,  // measure 31
0000
0010
0000
0100
,  // measure 32
0000
0100
0001
2000
,  // measure 33
3010
0100
0100
0100
,  // measure 34
1001
0000
1000
0000
,  // measure 35
2000
3000
0001
0000
,  // measure 36
0200
0300
0002
0003
,  // measure 37
2000
3000
0010
0000
,  // measure 38
0001
0000
1000
0000
,  // measure 39
0001
0000
1000
0000
,  // measure 40
1000
0000
0000
0000
0100
0000
0000
0010
,  // measure 41
0000
2000
0000
3001
0000
0000
0100
0000
,  // measure 42
0010
0000
0010
0000
,  // measure 43
1000
0000
0001
0000
,  // measure 44
0002
0003
2000
3000
,  // measure 45
0200
0300
0000
0010
,  // measure 46
0010
0000
1000
0000
,  // measure 47
2000
0000
0000
3000
0000
0000
0100
0000
,  // measure 48
0002
0003
0001
0000
,  // measure 49
0100
0000
0000
0010
0000
0000
1000
0000
,  // measure 50
0002
0103
0000
1000
,  // measure 51
0020
0030
0001
0000
,  // measure 52
0100
0100
0000
0100
,  // measure 53
0000
0001
0000
1000
,  // measure 54
1000
0000
1000
0000
,  // measure 55
0001
0000
0100
0000
,  // measure 56
1000
0001
0100
0000
,  // measure 57
0000
0010
0000
0010
,  // measure 58
0002
0000
2003
0000
,  // measure 59
3010
0000
0100
0000
,  // measure 60
1000
0000
1000
0000
,  // measure 61
0010
0000
1000
0000
,  // measure 62
0010
0000
0100
0000
,  // measure 63
1000
1000
0000
0001
,  // measure 64
0001
0000
0200
1300
,  // measure 65
0000
0001
0000
0100
,  // measure 66
0100
0000
0000
0001
0000
0000
0100
0000
,  // measure 67
0000
0010
0000
0000
1000
0000
0100
0000
,  // measure 68
1000
0000
0000
0001
0000
0000
0010
0000
,  // measure 69
0000
0001
0000
0000
0100
0000
0010
0000
,  // measure 70
1000
0000
0000
0001
0000
0000
0010
0000
,  // measure 71
0000
0100
0000
0000
1000
0000
0002
0000
,  // measure 72
0000
0000
0000
0103
0000
0000
0010
0000
,  // measure 73
0000
2000
0000
0000
3010
0000
2002
0000
,  // measure 74
0000
0000
0000
0000
,  // measure 75
3003
0000
0000
0000
;
