#TITLE:Blind Justice ~Torn souls, Hurt Faiths~;
#SUBTITLE:;
#ARTIST:Zektbach;
#TITLETRANSLIT:Blind Justice ~Torn souls, Hurt Faiths~;
#SUBTITLETRANSLIT:;
#ARTISTTRANSLIT:;
#CREDIT:;
#BANNER:Blind Justice ~Torn souls Hurt Faiths~.png;
#BACKGROUND:Blind Justice ~Torn souls Hurt Faiths~-bg.png;
#LYRICSPATH:;
#CDTITLE:./CDTITLES/beatmaniaIIDX.png;
#MUSIC:Blind Justice ~Torn souls Hurt Faiths~.mp3;
#OFFSET:-0.062;
#SAMPLESTART:10.196;
#SAMPLELENGTH:15.000;
#SELECTABLE:YES;
#BPMS:0.000=165.000,260.000=156.000,262.000=137.000;
#STOPS:;
#BGCHANGES:0.000=Blind Justice ~Torn souls Hurt Faiths~.avi=1.000=1=0=0,
280.000=Blind Justice ~Torn souls Hurt Faiths~-bg.png=1.000=0=0=1,
99999=-nosongbg-=1.000=0=0=0 // don't automatically add -songbackground-
;

//---------------dance-single - ----------------
#NOTES:
     dance-single:
     :
     Hard:
     8:
     0.611,0.699,0.448,0.258,0.052:
0000
0000
0000
0000
,
0000
0000
0000
0000
1001
0000
0000
0110
,
0000
1010
0000
0000
1001
0000
0000
0000
,
0011
0000
0000
0110
0000
0000
0000
1001
,
0000
0000
0000
0101
0000
0000
1100
0000
,
2002
0000
0000
3003
,
1001
0100
0010
0001
0100
1000
0100
0001
,
2000
0100
0001
3010
,
1010
0000
0100
0010
1000
0000
0100
0010
,
0002
0100
1000
0013
,
0011
0000
0100
1000
0001
0000
0010
0001
,
0100
0000
0101
0000
1000
0000
1100
0100
,
2000
0010
0001
3100
,
1100
0000
0010
0100
1000
0000
0010
0100
,
0001
0010
0100
1000
0001
0100
0010
1000
,
0002
0010
1000
0103
,
0101
0000
1000
0100
0001
0000
0010
0100
,
2000
0010
0001
3100
,
1100
0000
0010
0001
0100
0000
0010
1000
,
0100
0000
1100
0000
0001
0000
0011
0010
,
0002
0100
1000
0013
,
1100
0000
0010
0100
0001
0000
0010
0100
,
1000
0010
0001
0010
1000
0100
0010
0001
,
0210
0000
1300
0010
0200
0000
0310
1000
,
0200
0000
0310
0100
2000
0000
3001
0010
,
0120
0000
0031
0100
0020
0000
0130
0001
,
0020
0000
0130
0010
0002
0000
0103
0010
,
1000
0100
0010
0001
1000
0100
0010
1000
,
0001
1000
0010
0100
1000
0001
0010
0100
,
1000
0010
0100
0001
1000
0010
0100
1000
,
0001
1000
0100
0010
1000
0001
0100
0010
,
2010
0001
3100
1100
,
1010
0000
0100
0001
1000
0000
0011
0000
,
1100
0000
0001
0100
0010
0000
1000
0010
,
0200
1000
0301
0000
,
0102
1000
0013
0011
,
1100
0000
0001
1000
0100
0000
0110
0000
,
1001
0000
0001
0100
0010
0100
0001
1000
,
0200
0001
1300
0000
,
0101
0000
0010
1000
0100
0000
0010
0001
,
0100
0000
1000
0100
0010
1000
0001
0010
,
0100
0000
0010
0001
0100
0000
0010
1000
,
0100
0000
0001
0100
0010
0001
1000
0010
,
0100
0000
1000
0100
0010
0000
0001
0100
,
0010
0000
0001
0010
1000
0100
0001
0100
,
0010
0000
0001
0100
0010
0000
1000
0100
,
0010
0000
0000
0000
1000
0000
0010
0000
0001
0000
0000
1000
0100
0000
1000
0000
,
0010
0011
0100
0101
,
1000
0000
1100
0000
0010
0000
1010
1000
,
0100
0101
0001
1100
,
1000
0000
0011
0000
0001
0000
1010
0100
,
1000
0010
1000
0000
0001
0010
0001
0000
,
1000
0100
0010
1000
0001
0100
0010
0001
,
1000
1010
0001
0011
,
0100
0000
0000
1000
0001
0000
0010
0000
0100
1000
0100
1000
0100
0010
0100
0010
,
0001
0000
1000
0010
0100
0000
0001
0000
,
1100
0000
0001
0010
0100
0000
1000
0010
,
0100
1000
0001
0010
0100
0000
0001
0000
,
0011
0000
0000
0000
0100
0000
1000
0000
0010
0000
0000
0000
0100
0000
0001
1000
,
0001
0000
0100
0010
1000
0000
0001
0100
,
0010
0000
1000
0001
0010
0000
1000
0010
,
0100
0001
1000
0010
0001
0000
1000
0010
,
0100
0000
0001
0000
1000
0000
0100
0000
0010
0001
1000
0001
1000
0001
1000
0001
,
1000
0010
1000
0100
0010
1000
0010
0001
,
0100
0010
1000
0001
0100
0010
0001
0010
,
2000
0000
3002
0023
,
0200
0000
0030
0000
,
2000
0000
0000
3300
,
2002
0000
0000
0000
,
0000
0000
0000
3003
;

//---------------dance-single - ----------------
#NOTES:
     dance-single:
     :
     Medium:
     6:
     0.406,0.357,0.305,0.134,0.000:
0000
0000
0000
0000
,
0000
0000
0000
0000
1000
0000
0000
0001
,
0000
0010
0000
0000
0100
0000
0000
0000
,
1000
0000
0000
0010
0000
0000
0000
0100
,
0000
0000
0000
0001
0000
0000
1000
0000
,
1001
0000
0000
0000
,
1100
0100
0001
0100
,
1000
1000
0001
0001
,
1000
0000
0001
0000
1000
0000
0100
1000
,
0100
0000
0010
0000
1000
0000
0001
0100
,
0001
0100
1000
0100
,
0002
0000
0103
1000
,
0010
0000
0100
0000
0001
0000
0010
0001
,
0010
0000
0100
0000
1000
0000
0010
1000
,
0010
0000
0100
0000
0001
1000
0010
0100
,
0010
0010
0100
0100
,
0001
0000
1000
0000
0001
0000
0010
0001
,
0010
0100
1000
0010
,
1000
0000
0100
0000
0010
0000
0001
1000
,
0200
0000
0310
0001
,
0100
0000
0010
0000
0001
0000
0010
1000
,
0100
0000
0001
0000
0100
0000
0010
0001
,
0100
0000
0010
0000
1000
0001
1000
0001
,
1000
0000
0000
0101
0000
0000
0011
0000
,
0000
0101
0000
0000
1001
0000
0100
0000
,
1001
0000
0000
1010
0000
0000
0110
0000
,
0000
1010
0000
0000
1001
0000
0010
0000
,
1001
0000
0000
1100
0000
0000
0110
0000
,
0000
1100
0000
0000
1001
0000
0010
0000
,
0110
0000
0000
0011
0000
0000
0101
0000
,
0000
0011
0000
0000
0110
0000
0100
0000
,
1002
0000
0023
0000
,
0031
1000
0200
0000
,
0320
0000
0032
0000
,
1003
0001
0200
0000
,
0310
1000
0001
0100
,
1000
0100
0001
0010
,
0100
1000
0001
0100
,
0010
1000
1001
0000
,
0001
0010
0100
0000
,
1000
0010
0100
0000
,
0001
0100
1000
0000
1000
0100
0001
0000
,
0010
0000
1000
0010
0001
0000
0001
0010
,
0100
1000
0001
0000
,
0100
0001
1000
0000
,
0010
0000
0100
0001
0010
0000
0100
0000
,
1000
0000
0100
1000
0001
0000
0100
0001
,
1000
0010
1000
0100
,
0010
1100
0010
0001
,
0100
0010
1000
0001
,
0100
0000
1010
0000
0100
0000
0001
1000
,
0001
0010
1000
0010
,
0001
1100
0001
0100
,
1000
0010
0100
0001
,
2000
0000
0000
0000
3002
0000
0100
0100
,
0103
0001
0010
0100
,
0010
0000
0001
0000
0100
0000
0010
1000
,
0001
0100
1000
0100
,
0001
0010
1000
0010
,
0011
0000
1000
0100
0010
0000
0001
0000
,
0100
0000
0010
0100
0001
0000
1000
0010
,
0100
0001
0010
0100
,
1000
0010
1000
0010
0100
0000
0000
0000
,
2001
0000
3200
0000
,
0302
0000
0203
0300
,
0110
0000
0001
0100
,
1010
0000
0000
0000
,
1001
0000
0000
0000
,
0101
0000
0000
0000
;

//---------------dance-double - ----------------
#NOTES:
     dance-double:
     :
     Hard:
     8:
     0.534,0.568,0.296,0.181,0.005:
00000000
00000000
00000000
00000000
,
00000000
00000000
00000000
00000000
10100000
00000000
00000000
01000000
,
00000000
00010000
00000000
00000000
00110000
00000000
00000000
00000000
,
00011000
00000000
00000000
00000100
00000000
00000000
00000000
00000110
,
00000000
00000000
00000000
00001000
00000000
00000000
00000001
00000000
,
00000220
00000000
00000000
00000330
,
00000110
00000010
00001000
00000010
00000001
00000100
00001000
00010000
,
00100000
00110000
00001000
00001010
,
00001000
00100000
00010000
01000000
00001000
00010000
01000000
00100000
,
00020000
01000000
10000000
00130000
,
00002000
01000000
00010000
00103000
,
00001000
01000000
00001000
00000000
00010000
00000100
00010000
00001000
,
00000200
00000001
00000010
00001300
,
00100000
00001000
00010000
00000000
00000100
00010000
00001000
01000000
,
00200000
00000000
10000000
00000000
01000000
00000000
00310000
00001000
,
00010000
01001000
00010000
00010100
,
00001000
01000000
00010000
00100000
00001000
00010000
00100000
01000000
,
00020000
00100000
10000000
01030000
,
00002000
00100000
00010000
01003000
,
00001000
00100000
00001000
00000000
00010000
00000010
00010000
00001000
,
00000020
00000001
00000100
00001030
,
01000000
00001000
00010000
00000000
00000010
00010000
00001000
00000000
,
00100000
00010000
10000000
01000000
00010000
01000000
10000000
01000000
,
00200000
00000000
00000000
00302000
00000000
00000000
00023000
00000000
,
00000000
00030020
00000000
00000000
00000130
00000000
00000001
00000000
,
00000011
00000000
00000000
00001010
00000000
00000000
00001100
00000000
,
00000000
00011000
00000000
00000000
00110000
00000000
01010000
00000000
,
10000000
00000000
01000000
10000000
00000000
00010000
01000000
00000000
,
00001000
00010000
00000000
00000100
00001100
00000000
00001001
00000000
,
00000011
00000000
00000010
00000001
00000000
00001000
00000010
00000000
,
00010000
00001000
00000000
00100000
00010000
10000000
00100000
01000000
,
00010000
10000000
01000000
00010000
,
00001000
00000000
00000010
00001000
00010000
00000000
00001000
00000000
,
00000100
00000000
00000010
00000100
00001000
00000000
00010000
00000000
,
01000000
00110000
11000000
00000000
,
00010000
10000000
00100000
00010000
,
00001000
00000000
00000100
00001000
00010000
00000000
00001000
00000000
,
00000010
00000000
00000100
00000010
00001000
00000000
00010000
00001000
,
01000000
00100000
10000000
01000000
00100000
00001000
00010000
00000010
,
00000100
00001000
00000100
00000001
,
00000020
00001000
00000100
00001030
,
00020000
00000100
00001000
00030100
,
00001000
00000010
00010000
00001000
00100000
00010000
01000000
00100000
,
10000000
00010000
01000000
10000000
,
02000000
00100000
00010000
03100000
,
00001000
00000000
00010000
00001000
00000010
00000000
00000001
00000000
,
00002000
00000000
00000100
00000000
00003010
00001000
00000100
00010000
,
00001000
00100000
00001000
00000000
00010000
00000010
00010000
00000000
,
00001000
00100000
00001000
00010000
01000000
00100000
00010000
10000000
,
01000000
00100000
00010000
01000000
,
00001000
00010100
00001000
00010010
,
00010000
00000100
00010000
00000000
00001000
01000000
00001000
00000000
,
00010000
00000100
00010000
00001000
00000100
00000010
00001000
00000001
,
00000100
00000010
00001000
00000100
,
00010000
00000000
00001000
00000000
01000000
00000000
00100000
00000000
10000000
00000000
00010000
00000000
00100000
01000000
00100000
00000000
,
01000000
00000000
00010000
00000000
01100000
00000000
10000000
01000000
,
00010000
00000000
00001000
00000000
00000110
00000000
00000001
00000100
,
00000010
00000001
00000010
00001000
00000100
00010000
00001000
01000000
,
00100000
00010000
00100000
10000000
01000000
00000000
00100000
00010000
,
00110000
00000000
10000000
01000000
00010000
00000000
00001000
00000000
,
00000100
00000000
00000001
00000100
00001000
00000000
00000100
00000001
,
00000010
00000100
00010000
00001000
00000100
00001000
00010000
00100000
,
00010000
00001000
00100000
01000000
10000000
00100000
01000000
00010000
,
10000000
01000000
00010000
01000000
00100000
00001000
00010000
00001000
,
00000100
00000010
00000001
00000010
00000100
00001000
00010000
01000000
,
10000000
00000000
00110000
00011000
,
00001100
00000000
00000000
00000000
,
00000101
00000000
00000000
00000000
,
00002002
00000000
00000000
00000000
,
00000000
00000000
00000000
00000000
,
00003003
00000000
00000000
00000000
;

//---------------dance-single - ----------------
#NOTES:
     dance-single:
     :
     Beginner:
     1:
     0.139,0.162,0.019,0.000,0.000:
0000
0000
0000
0000
,
0000
0000
0000
0000
,
0000
0000
0000
0000
,
1000
0000
0000
0000
,
0001
0000
0000
0000
,
1001
0000
0000
0000
,
0100
0000
0000
0000
,
0010
0000
0000
0000
,
0010
0000
0001
0000
,
0010
0000
0000
0000
,
0100
0000
1000
0000
,
0100
0000
0000
0000
,
0010
0000
0001
0000
,
1000
0000
0001
0000
,
1000
0000
0000
0000
,
0010
0000
0100
0000
,
0010
0000
0100
0000
,
0001
0000
0100
0000
,
1000
0000
0100
0000
,
0001
0000
0000
0000
,
0010
0000
1000
0000
,
0010
0000
0001
0000
,
1000
0000
0000
0000
,
0010
0000
0000
0000
,
0100
0000
0000
0000
,
0010
0000
0000
0000
,
0100
0000
0000
0000
,
0001
0000
0000
0000
,
1000
0000
0000
0000
,
0001
0000
0000
0000
,
1000
0000
0000
0000
,
0100
0000
0100
0000
,
0010
0000
0010
0000
,
0001
0000
0001
0000
,
1000
0000
1000
0000
,
0010
0000
0010
0000
,
0100
0000
0100
0000
,
0001
0000
0001
0000
,
0010
0000
0010
0000
,
0100
0000
0000
0000
,
1000
0000
0000
0000
,
0001
0000
0001
0000
,
1000
0000
1000
0000
,
0010
0000
0000
0000
,
0100
0000
0000
0000
,
0010
0000
0010
0000
,
0100
0000
0100
0000
,
0001
0000
0010
0000
,
0001
0000
0000
0000
,
1000
0000
0100
0000
,
1000
0000
0000
0000
,
0010
0000
1000
0000
,
0010
0000
0000
0000
,
0100
0000
0001
0000
,
0100
0000
0000
0000
,
1000
0000
0001
0000
,
1000
0000
0001
0000
,
0010
0000
0100
0000
,
0010
0000
0001
0000
,
0100
0000
0001
0000
,
0100
0000
0001
0000
,
1000
0000
0010
0000
,
0100
0000
0001
0000
,
1001
0000
0000
0000
,
0010
0000
0000
0000
,
1000
0000
0000
0000
,
0100
0000
0000
0000
,
0001
0000
0000
0000
,
0010
0000
0000
0000
;

//---------------dance-single - ----------------
#NOTES:
     dance-single:
     :
     Easy:
     4:
     0.269,0.292,0.057,0.162,0.000:
0000
0000
0000
0000
,
0000
0000
1000
0000
,
0000
0000
0100
0000
,
0010
0000
0000
0000
0000
0000
0000
0001
,
0000
0000
0000
1000
0000
0000
0001
0000
,
2002
0000
0000
3003
,
1000
0010
0100
0001
,
1000
0000
0100
0000
,
0010
0100
1000
0100
,
0010
0000
0001
0000
,
0100
0000
1000
0000
,
0100
0000
0010
0001
,
0100
1000
0100
0001
,
0020
0030
0100
0010
,
0200
0300
1000
0000
,
0001
0000
1000
0000
,
0100
0010
0001
0010
,
0100
0000
1000
0000
,
0010
0000
0001
0000
,
0010
0000
0100
1000
,
0010
0001
0010
1000
,
0200
0300
0020
0030
,
0002
0000
1003
1001
,
0100
0000
0001
0000
,
0100
0000
1000
0010
,
0001
0000
0010
0000
,
1000
0000
0010
0001
,
0100
0000
1000
0000
,
0100
0000
0001
0010
,
1000
0000
0010
0000
,
0001
0000
0010
1000
,
0200
0300
0020
0030
,
0002
0003
2000
3000
,
0020
0030
0200
0300
,
0002
0003
2000
3000
,
0001
0010
0100
0000
,
1000
0001
0100
0000
,
0010
1000
0001
0000
,
0010
0100
1000
1001
,
0001
0000
1000
0000
,
0100
0010
0010
0000
,
0001
0100
0100
0000
,
1000
0100
0010
0001
,
1000
0000
0001
0000
,
0100
0010
0010
0000
,
1000
0100
0100
0000
,
0010
0000
0001
0000
,
1001
0000
0100
0001
,
0100
0000
0010
1000
,
0100
0000
0010
0001
,
0020
0000
0130
0000
,
0000
1000
1000
0001
,
0001
0000
0100
0010
,
1000
0000
0001
0010
,
0200
0000
1300
0000
,
0001
0010
0100
1000
,
0100
0010
0001
1000
,
0010
0000
0100
0000
,
0001
0000
0100
0000
,
0010
1000
0100
0010
,
0100
1000
0010
0100
,
0001
0000
0010
0000
,
0001
0000
0100
0000
,
1001
0000
0100
0000
,
0001
0000
0010
0000
,
0100
0000
1000
0001
,
0100
0000
0000
0000
,
0010
0000
0000
0000
,
0110
0000
0000
0000
;

//---------------dance-double - ----------------
#NOTES:
     dance-double:
     :
     Easy:
     4:
     0.274,0.292,0.086,0.219,0.000:
00000000
00000000
00000000
00000000
,
00000000
00000000
00011000
00000000
,
00000000
00000000
01100000
00000000
,
10010000
00000000
00000000
00000000
00000000
00000000
00000000
01100000
,
00000000
00000000
00000000
00010000
,
00022000
00000000
00000000
00033000
,
00000100
00001000
00000001
00001000
,
00000020
00000030
00000200
00000300
,
00000001
00000100
00000001
00000100
,
00001000
00000000
00010000
00000000
,
01000000
00000000
10000000
00000000
,
00200000
00000000
00310000
00001000
,
00000100
00001000
00010000
01000000
,
20000000
30000000
00200000
00300000
,
00020000
00030000
00001000
00000000
,
00000200
00000300
00000020
00000030
,
00000001
00000010
00000001
00000010
,
00001000
00000000
00010000
00000000
,
00100000
00000000
10000000
00000000
,
02000000
00000000
03010000
00001000
,
00000010
00001000
00010000
00100000
,
20000000
30000000
02000000
03000000
,
00020000
00030000
00001000
00010000
,
00000100
00000000
00001000
00000000
,
00000010
00000000
00000100
00001000
,
00010000
00000000
00100000
00000000
,
01000000
00000000
00010000
00100000
,
00001000
00000000
00010000
00000000
,
00000100
00000000
00001000
00000010
,
00010000
00000000
00001000
00000000
,
01000000
00000000
00100000
01000000
,
00020000
00000000
10030000
00000000
,
02000000
00000000
03010000
00000000
,
00002000
00000000
00003100
00000000
,
00000010
00001000
00000001
00000000
,
00000200
00000000
00000310
00000000
,
00002000
00000000
00013000
00000000
,
00200000
00000000
10300000
00000000
,
00010000
10000000
10010000
00000000
,
00100000
00000000
10000000
00000000
,
01000000
00010000
00010000
00000000
,
00001000
00000100
00000100
00000000
,
00000001
00001000
00000100
00000001
,
00000010
00000000
00000100
00000000
,
00001000
00010000
00010000
00000000
,
01000000
10000000
10000000
00000000
,
00100000
00000000
00010000
00000000
,
00011000
00000000
00001000
00010000
,
00000100
00000000
00001000
00000001
,
00000100
00000000
00000010
00001000
,
00000200
00000000
00010300
00000000
,
00000000
00001000
00001000
00010000
,
00010000
00000000
01000000
10000000
,
00100000
00000000
01000000
00010000
,
20000000
00000000
32000000
00000000
,
03010000
00001000
00010000
00001000
,
00000100
00000001
00000100
00000010
,
00001000
00000000
00000100
00000000
,
00010000
00000000
00001000
00000000
,
01000000
00010000
01000000
00010000
,
10000000
01000000
00100000
00001000
,
00010000
00000000
00001000
00000000
,
00000100
00000000
00000001
00000000
,
00001001
00000000
00000010
00000000
,
00001000
00000000
00010000
00000000
,
01000000
00000000
10000000
00010000
,
01000000
00000000
00000000
00000000
,
00001000
00000000
00000000
00000000
,
00011000
00000000
00000000
00000000
;

//---------------dance-double - ----------------
#NOTES:
     dance-double:
     :
     Medium:
     6:
     0.394,0.389,0.248,0.134,0.000:
00000000
00000000
00000000
00000000
,
00000000
00000000
00000000
00000000
10000000
00000000
00000000
01000000
,
00000000
00100000
00000000
00000000
00010000
00000000
00000000
00000000
,
01000000
00000000
00000000
00001000
00000000
00000000
00000000
00010000
,
00000000
00000000
00000000
00000010
00000000
00000000
00000100
00000000
,
00000110
00000000
00000000
00000000
,
00000101
00000001
00000010
00001000
,
00011000
00010000
00001000
00001000
,
00010000
01000000
10000000
00100000
,
01000000
00010000
10000000
00000000
00100000
00000000
00010000
00000000
,
00001000
00000010
00000001
00000000
00001000
00000000
00000010
00000000
,
00000200
00000000
00000301
00000100
,
00001000
00000000
00010000
00000000
00000100
00001000
00000100
00000000
,
00010000
00000000
00001000
00000000
01000000
00010000
01000000
00000000
,
00100000
00000000
10000000
00000000
00010000
01000000
00001000
00010000
,
00000200
00000000
00000310
00000001
,
00000100
00000001
00001000
00000100
,
00010000
00011000
00001000
01000000
,
00100000
00000000
10100000
00000000
00010000
00000000
10000000
01000000
,
00020000
00000000
00000000
00000000
00031000
00000000
00010000
00000010
,
00001000
00000010
00000100
00000001
,
00000020
00000000
00002030
00000000
,
00013000
00000000
00001000
00000000
00010000
00001000
00010000
00001000
,
00010000
00000000
00000000
01000000
00000000
00000000
10000000
00000000
,
00000000
01000000
00000000
00000000
00010000
00000000
00001000
00000000
,
00011000
00000000
00000000
00010010
00000000
00000000
00001010
00000000
,
00000000
00010010
00000000
00000000
00001000
00000000
00011000
00000000
,
00010000
00000000
00000000
00100000
00000000
00000000
10000000
00000000
,
00000000
00100000
00000000
00000000
00010000
00000000
00001000
00000000
,
00011000
00000000
00000000
00010100
00000000
00000000
00000110
00000000
,
00000000
00010100
00000000
00000000
00010000
00000000
00001000
00000000
,
00021000
00000000
00230000
00000000
,
01300000
00010000
20000000
00000000
,
32000000
00000000
03020000
00000000
,
00031000
00000100
00000020
00000000
,
00001030
00000001
00000100
00001000
,
00010000
01000000
10000000
00010000
,
10000000
01000000
00010000
00001000
,
00000100
00000001
00001001
00000000
,
00000010
00000001
00000100
00000000
,
00001000
00000100
00000010
00000000
,
00010000
00000100
00010000
00000000
00001000
00010000
00001000
00000000
,
00100000
00001000
00100000
00000000
00010000
00000000
01000000
00100000
,
10000000
00010000
01000000
00000000
,
00100000
00010000
00001000
00000000
,
00000100
00000000
00000010
00001000
00000100
00000000
00000010
00000000
,
00000001
00000000
00001000
00000100
00010000
00000000
00001000
01000000
,
00010000
10000000
01000000
10000000
,
00100000
01100000
01000000
00001000
,
00010000
00000100
00001000
00000001
,
00000010
00000000
00000110
00000000
00000100
00000000
00010000
00001000
,
00010000
00100000
10000000
01000000
,
00100000
00110000
00010000
01000000
,
00001000
00010000
00000010
00001000
,
00001001
00000000
00000000
00000000
00000110
00000000
00000001
00001000
,
00000001
00000001
00000000
00000000
00000100
00000100
00000000
00000000
,
00001000
00001000
00010000
00000000
00001000
00000000
00100000
00010000
,
01000000
00100000
00010000
00001000
,
00100000
00000000
00001000
00000000
00010000
00000000
00000010
00000100
,
00000001
00000001
00000000
00000000
00000010
00000010
00000000
00000000
,
00001000
00001000
00010000
00000000
00001000
00000000
01000000
00010000
,
00100000
01000000
10000000
00100000
,
01000000
00010000
00100000
00001000
00010000
00000000
00000000
00000000
,
00012000
00000000
00003020
00000000
,
00000032
00000000
00000103
00001000
,
00011000
00000000
00100000
01000000
,
01100000
00000000
00000000
00000000
,
00011000
00000000
00000000
00000000
,
00000110
00000000
00000000
00000000
;

//---------------dance-single - Copied from----------------
#NOTES:
     dance-single:
     Copied from:
     Challenge:
     9:
     0.800,0.832,0.563,0.515,0.200: // measure 1
0000
0000
0000
0000
,  // measure 2
0000
0001
0010
0100
1001
1000
0010
0110
,  // measure 3
0010
1010
0100
0010
1001
0100
0010
0100
,  // measure 4
0011
0100
0010
0110
0010
0100
0010
1001
,  // measure 5
0100
0010
0100
0101
0010
0100
1010
0001
,  // measure 6
0220
0000
0000
0000
0000
0000
0000
0330
,  // measure 7
1001
0100
0010
0001
0100
1000
0100
0010
,  // measure 8
2020
0030
0002
0003
0200
0300
3010
0000
,  // measure 9
1010
1000
0100
0010
0001
0010
0100
1000
,  // measure 10
2002
3000
0020
0030
0200
0300
0013
0000
,  // measure 11
0011
0010
0100
1000
0001
0100
1000
0100
,  // measure 12
0010
1000
1001
0000
0110
0000
1100
1010
,  // measure 13
2200
0300
0020
0030
0002
0003
3100
0000
,  // measure 14
1100
0100
0010
0100
1000
0100
0010
0001
,  // measure 15
0010
0100
1000
0010
0100
0010
1000
0001
,  // measure 16
0202
0300
0020
0030
2000
3000
0103
0000
,  // measure 17
0101
0001
1000
0100
0010
0001
0010
0100
,  // measure 18
2020
0030
0002
0003
0200
0300
3100
0000
,  // measure 19
1100
0100
0010
0001
0100
1000
0100
0001
,  // measure 20
0010
0100
1100
0000
1001
0000
0011
1001
,  // measure 21
0202
0300
2000
3000
0020
0030
0103
0000
,  // measure 22
2020
0000
0000
3000
0002
0000
0030
0000
,  // measure 23
2000
0000
0103
0100
0100
0100
0100
3100
,  // measure 24
1000
0100
0001
1000
0010
0100
0001
0010
,  // measure 25
0100
1000
0001
1000
0100
1000
0010
0100
,  // measure 26
0110
0010
0001
0010
1000
0100
0001
1000
,  // measure 27
0010
0001
0010
0100
1000
0001
0010
0100
,  // measure 28
1100
1000
0010
0001
0010
1000
0100
0001
,  // measure 29
1000
0010
0001
0100
0010
1000
0100
0010
,  // measure 30
0011
0001
0010
0100
1000
0100
0010
0001
,  // measure 31
1000
0000
0010
0000
1000
0000
0100
0000
1000
0100
0010
0001
0010
0100
1000
0001
,  // measure 32
2000
0000
0002
0003
3100
0000
1001
0000
,  // measure 33
0110
0000
1000
0001
0100
0000
0011
0000
,  // measure 34
1100
0000
0001
0100
0010
0000
1010
0110
,  // measure 35
0201
0000
2000
3000
0002
0000
0303
0100
,  // measure 36
0102
1000
0013
0011
,  // measure 37
1100
0000
0001
1000
0100
0000
0110
0000
,  // measure 38
1001
0000
0001
0100
0010
0100
0001
1000
,  // measure 39
0010
0100
0010
0100
0010
0100
0010
0100
0001
1000
0001
1000
0001
1000
0001
1000
,  // measure 40
0001
0100
0010
1000
0100
1000
0010
0001
,  // measure 41
0010
0100
1000
0100
0010
1000
0001
0010
,  // measure 42
0100
1000
0010
0001
0010
1000
0100
1000
,  // measure 43
0002
0023
2030
3200
,  // measure 44
0301
1000
0001
0100
0010
1000
0001
1000
,  // measure 45
0100
0010
0001
0010
0100
1000
0001
0100
,  // measure 46
0010
0100
1000
0100
0010
1000
0001
0010
,  // measure 47
0100
1000
0100
1000
0100
1000
0100
1000
0001
0010
0001
0010
0001
0010
0001
0010
,  // measure 48
0001
0011
1100
0101
,  // measure 49
1002
0000
0203
0000
0310
0000
1010
0110
,  // measure 50
0101
0000
0011
0000
1001
0000
2020
0030
,  // measure 51
0100
0000
0000
0000
3100
0000
0000
0000
0001
0010
0100
1000
0100
0010
0001
0000
,  // measure 52
1000
0000
0010
0000
0001
0000
0010
0000
1000
0010
0100
0001
0010
0100
1000
0000
,  // measure 53
0001
0000
0100
0000
0010
0000
1000
0000
0001
0010
0100
1000
0100
2000
0000
0000
,  // measure 54
0002
0000
0000
3000
0100
0000
0100
0000
0103
0000
0000
0000
1100
0000
0000
0000
,  // measure 55
0100
1000
0100
1000
0100
0010
0001
0010
0001
0010
0100
1000
0100
1000
0100
0010
,  // measure 56
0002
0000
1003
0010
0100
0001
1000
0100
,  // measure 57
0010
0001
0100
1000
0100
0101
1000
0001
,  // measure 58
1000
0010
0001
0100
0001
0010
0100
1000
,  // measure 59
0100
0000
0001
0000
1000
0000
0010
0000
0001
0000
0100
0000
0010
0000
1000
0001
,  // measure 60
1000
0001
0100
0010
1000
0001
0100
0010
,  // measure 61
0001
0010
0100
0001
1000
0010
1000
0001
,  // measure 62
0010
0100
1000
0001
0010
1000
0010
0100
,  // measure 63
0010
0000
0001
0000
0010
0000
0100
0000
0010
0001
1000
0001
1000
0001
1000
0001
,  // measure 64
1000
0010
1000
0100
0010
1000
0010
0001
,  // measure 65
0100
0010
1000
0001
0100
0010
0001
0010
,  // measure 66
2000
0000
3002
0023
,  // measure 67
0200
0000
0030
0000
,  // measure 68
2000
0000
0000
3300
,  // measure 69
2002
0000
0000
0000
,  // measure 70
0000
0000
0000
3003
;
