#TITLE:Better Than Before;
#SUBTITLE:;
#ARTIST:Drew Campbell;
#TITLETRANSLIT:;
#SUBTITLETRANSLIT:;
#ARTISTTRANSLIT:;
#CREDIT:;
#BANNER:Better Than Before.png;
#BACKGROUND:Better Than Before-bg.png;
#LYRICSPATH:;
#CDTITLE:./CDTITLES/DanceDanceRevolution UNIVERSE2.png;
#MUSIC:Better Than Before.mp3;
#OFFSET:-0.046;
#SAMPLESTART:42.380;
#SAMPLELENGTH:14.160;
#SELECTABLE:YES;
#BPMS:0.000=135.994;
#STOPS:;
#BGCHANGES:;

//---------------dance-single - ----------------
#NOTES:
     dance-single:
     :
     Beginner:
     1:
     0.112,0.166,0.020,0.000,0.000:
0000
0000
0000
0000
,
0000
0000
0000
0000
,
0000
0000
0000
0000
,
0000
0000
0000
0000
,
0001
0000
0000
0000
,
0100
0000
0000
0000
,
0010
0000
0000
0000
,
0100
0000
0000
0000
,
1000
0000
0000
0000
,
0001
0000
0000
0000
,
0100
0000
0000
0000
,
0010
0000
0000
0000
,
1000
0000
0000
0000
,
0001
0000
0000
0000
,
1000
0000
0000
0000
,
0010
0000
0000
0000
,
0100
0000
0001
0000
,
0100
0000
0000
0000
,
0001
0000
0010
0000
,
1000
0000
0000
0000
,
0100
0000
0000
0000
,
0001
0000
0000
0000
,
0010
0000
0100
0000
,
1000
0000
0000
0000
,
0010
0000
0100
0000
,
0001
0000
1000
0000
,
1000
0000
0001
0000
,
0100
0000
0010
0010
,
1000
0000
1000
0000
,
0001
0000
1000
0000
,
0010
0000
0100
0000
,
0010
0000
0001
0001
,
0100
0000
0000
0000
,
0001
0000
1000
0000
,
1000
0000
0010
0000
,
0100
0000
0001
0001
,
0010
0000
0010
0000
,
1000
0000
0100
0000
,
0010
0000
0100
0001
,
0100
0000
0000
0000
,
1001
0000
0000
0000
,
0001
0000
0000
0000
,
0100
0000
0000
0000
,
0001
0000
0100
0000
,
1000
0000
0000
0000
,
0100
0000
0000
0000
,
0010
0000
0000
0000
,
0001
0000
0000
0000
,
1000
0000
0000
0000
,
0100
0000
0000
0000
,
1000
0000
0000
0000
,
0010
0000
0000
0000
,
0001
0000
0000
0000
,
0010
0000
0100
0000
,
0100
0000
0010
0000
,
0010
0000
0000
0000
,
0110
0000
0000
0000
;

//---------------dance-single - ----------------
#NOTES:
     dance-single:
     :
     Easy:
     4:
     0.219,0.332,0.079,0.010,0.000:
0000
0000
0000
0000
,
0000
0000
0000
0000
,
0000
0000
0000
0000
,
0000
0000
0000
0000
,
0010
0000
0100
0000
,
0001
0000
1000
0000
,
0010
0000
0010
0000
,
0200
0000
0000
0300
,
0110
0000
0000
0000
,
1000
0000
0000
0000
,
0001
0000
0000
0000
,
0000
0000
0000
0000
,
0010
0000
0100
0000
,
1000
0000
0000
0000
,
0010
0000
0100
0000
,
0001
0010
0001
0000
,
1000
0001
0010
1000
,
0001
0001
0100
0010
,
1000
0010
0100
0100
,
0001
0001
1000
1000
,
0100
0010
0001
0001
,
0010
0100
1000
1000
,
0001
1000
0010
0010
,
0100
0000
0000
0000
,
0001
0010
0001
1001
,
1000
0100
1000
0110
,
0010
0100
0001
0000
,
0010
0100
1000
0000
,
0001
1000
0010
0100
,
0001
0010
0100
0000
,
1000
0001
1000
0000
,
0100
0100
0110
0000
,
0001
0000
1000
0000
,
0010
0100
0010
0000
,
1000
0000
0001
0000
,
0100
0010
0100
0000
,
0001
0000
1000
0000
,
0100
0010
0001
0000
,
0001
0000
1000
0000
,
0010
0000
0000
0000
,
1000
0001
0100
0000
,
0010
0100
0001
0000
,
1000
0000
0100
0000
,
0010
0010
0100
0000
,
0001
1000
0100
0000
,
0010
0100
1000
0000
,
0001
0001
0100
0000
,
0010
0010
0100
0000
,
1000
0001
0010
0100
,
0100
0010
0001
0010
,
1000
1000
0010
0001
,
0100
0100
0010
0000
,
0001
1001
0100
0010
,
0110
0100
1000
0001
,
1001
0010
0100
0010
,
0100
0001
1000
0000
,
1001
0000
0000
0000
;

//---------------dance-single - ----------------
#NOTES:
     dance-single:
     :
     Medium:
     6:
     0.352,0.387,0.138,0.049,0.000:
0000
0000
0000
0000
,
0000
0000
0000
0000
,
0000
0000
0000
0000
,
0000
0000
0000
0000
,
0001
1000
0100
0010
,
0001
0010
1000
0100
,
1000
0010
0100
0001
,
1000
0001
1000
0000
0000
0100
0010
0000
,
2002
0000
0000
3003
,
0200
0000
0000
0000
,
0302
0000
0000
0000
,
2003
0000
0000
0000
,
3010
0100
0001
0000
,
0010
0100
1000
0000
,
0100
0001
1000
0100
,
1000
0010
0100
0000
,
0001
0000
1000
0000
0100
0000
0010
0100
,
0010
0000
0001
0000
0100
0000
0001
0100
,
1000
0000
0100
0000
0010
0000
0100
1000
,
0100
0001
0010
1000
,
0010
0000
0001
0000
0100
0000
0010
1000
,
0100
0000
1000
0000
0010
0000
0100
0001
,
0010
0000
0100
0000
1000
0000
0001
1000
,
0001
0000
0000
0000
,
0100
0010
1000
0000
0001
0100
0010
0000
,
1000
0100
0001
0000
0001
0100
1000
0000
,
0001
0000
0010
0000
0100
1000
0010
0000
,
0100
1000
0100
0000
0001
0000
0011
0000
,
0010
0100
0001
0000
1000
0010
0100
0000
,
0001
0010
1000
0000
1000
0010
0001
0000
,
1000
0000
0100
0000
0010
0001
0100
0000
,
0010
0001
0010
0000
1000
0000
1100
0000
,
0001
0000
1000
0000
0010
0000
0100
1000
,
0100
0000
0001
0000
0010
0000
1000
0010
,
1000
0010
0100
1000
,
0001
0010
0100
1010
,
1000
0000
0001
0000
0100
0000
0010
0001
,
0010
0000
1000
0000
0100
0000
0001
0100
,
0001
0100
0010
0001
,
1100
0000
0000
0000
,
0001
0000
1010
0000
0000
0010
0100
0000
,
1000
0000
0100
0000
0010
0001
0100
0000
,
0010
0000
0110
0000
0000
1000
0100
0000
,
0010
0011
0100
1000
,
0010
0000
0100
0000
0001
1000
0100
0000
,
0010
0000
0010
0000
0001
0001
1000
0000
,
0010
0000
0010
0000
0100
0100
0001
0010
,
0100
0000
0100
0000
1000
0010
0100
0100
,
0010
0000
0101
0000
0001
0100
0010
0000
,
0001
0000
1010
0000
0100
1000
0010
0000
,
1100
0000
0011
0000
0010
0100
1000
0000
,
0001
0000
1100
0000
0010
0001
1000
0000
,
0100
1000
0010
0000
1000
0001
0010
0000
,
0100
1000
0100
0000
1000
1000
0001
0000
,
0010
0010
0100
0000
1000
0010
1000
0100
,
0001
0000
0100
0000
0001
0100
0010
0000
,
1001
0000
0000
0000
;

//---------------dance-single - ----------------
#NOTES:
     dance-single:
     :
     Hard:
     7:
     0.432,0.470,0.227,0.040,0.089:
0000
0000
0000
0000
,
0000
0000
0000
0000
,
0000
0000
0000
0000
,
0000
0000
0000
0000
,
0001
1000
0001
0000
1000
0010
1000
0000
,
0100
0010
0100
0000
0010
0001
0010
0000
,
0100
0000
1000
0000
0010
0100
0001
1000
,
0010
0000
0100
0000
1000
0001
1000
0010
,
2010
0000
0000
0000
,
0200
0000
0000
3000
,
0020
0000
0000
0300
,
0000
0000
0000
0030
,
0001
1000
0001
0100
,
0001
0010
0001
1000
,
0100
0010
1000
0010
0001
1000
0100
0000
,
1000
0010
0100
0001
0000
0000
0000
0000
,
0010
0000
0100
0000
0001
0000
1000
0100
,
0010
0000
0100
0000
1000
0000
0010
0100
,
0001
0000
0100
0000
0010
0000
1000
0100
,
1000
0000
0010
0000
0100
0000
0001
1000
,
0100
0000
0010
0000
1000
0000
0001
0010
,
0100
0000
0010
0000
0001
0000
0100
0010
,
1000
0000
0010
0000
0100
0000
0001
0010
,
0001
0000
0100
0000
1000
0000
0100
1000
,
0010
0000
0101
0000
1000
0100
0010
0000
,
0010
0000
1100
0000
0001
0010
0100
0000
,
0010
0000
1001
0000
0001
0100
1000
0000
,
0100
0000
0110
0000
1000
0100
0000
0001
,
0100
0000
1010
0000
0001
0010
0100
0000
,
0100
0000
0011
0000
1000
0100
0010
0000
,
0100
0000
1001
0000
1000
0010
0001
0000
,
0010
0000
0110
0000
0001
0010
0000
1000
,
0100
0010
0001
0000
1000
0000
0001
0010
,
0100
1000
0010
0000
0110
0000
0100
0001
,
0010
0000
1100
0000
0100
1000
0000
1000
,
0010
0100
0001
0000
0011
0000
0100
1000
,
0010
0100
1000
0000
0001
0000
1000
0100
,
0010
0001
0100
0000
0110
0000
0010
1000
,
0100
0000
0011
0000
0010
0001
0000
0001
,
0200
0000
0000
0300
,
0010
0000
0000
0000
1000
0000
0001
0000
0000
0000
1000
0000
0010
0100
0000
0000
,
0001
0000
0000
0000
0010
0000
0100
0000
0000
0000
0100
0000
1000
0010
1000
0000
,
0001
0000
0000
0000
1000
0000
0100
0000
0000
0000
0010
0000
0001
0010
0000
0000
,
0100
0000
0000
0000
1000
0000
0010
0000
0100
0001
0000
0000
1000
0010
0000
0000
,
0100
0000
0000
0000
0001
0000
1000
0000
0000
0000
0001
0000
0100
0010
0000
0000
,
1000
0000
0100
0000
1000
0000
0010
0000
0100
0001
0100
0000
0001
0000
0010
0000
,
0100
0000
0000
0000
1000
0000
0010
0000
0100
0001
0100
0000
0010
0000
1000
0000
,
0100
0000
0000
0000
0101
0000
0100
0000
0010
1000
0000
0000
0001
0100
0000
0000
,
0010
0000
0000
0000
0110
0000
0000
0100
1000
0000
0010
0000
0100
0000
0001
0000
,
0010
0000
0000
0000
0011
0000
0000
0010
0001
0000
1000
0000
0010
0000
0100
0000
,
0001
0000
0000
0000
0101
0000
0000
0100
0010
0000
1000
0000
0100
0000
1000
0000
,
0010
0000
0100
0000
1000
0000
0000
0000
0001
0010
0000
0000
0001
1000
0001
0000
,
0100
0000
0000
0000
0110
0000
0000
0000
0100
0000
0010
0000
1000
0100
1000
0000
,
0100
0000
0000
0000
0011
0000
0000
0000
0010
0001
0000
0000
0001
0010
0001
0000
,
0100
0000
1010
0000
0100
0010
1000
0001
,
0010
0000
1001
0000
0100
1000
0001
0010
,
0011
0000
0000
0000
;

//---------------dance-double - ----------------
#NOTES:
     dance-double:
     :
     Beginner:
     1:
     0.089,0.138,0.000,0.000,0.000:
00000000
00000000
00000000
00000000
,
00000000
00000000
00000000
00000000
,
00000000
00000000
00000000
00000000
,
00000000
00000000
00000000
00000000
,
00000001
00000000
00000000
00000000
,
00000100
00000000
00000000
00000000
,
00001000
00000000
00000000
00000000
,
00010000
00000000
00000000
00000000
,
00100000
00000000
00000000
00000000
,
10000000
00000000
00000000
00000000
,
01000000
00000000
00000000
00000000
,
00100000
00000000
00000000
00000000
,
00001000
00000000
00000000
00000000
,
00000100
00000000
00000000
00000000
,
00000010
00000000
00000000
00000000
,
00000001
00000000
00000000
00000000
,
00001000
00000000
00000000
00000000
,
00000001
00000000
00000000
00000000
,
00000010
00000000
00000000
00000000
,
00001000
00000000
00000000
00000000
,
00010000
00000000
00000000
00000000
,
10000000
00000000
00000000
00000000
,
01000000
00000000
00000000
00000000
,
00010000
00000000
00000000
00000000
,
00001000
00000000
00000000
00000000
,
00000100
00000000
00000000
00000000
,
00000001
00000000
00000000
00000000
,
00000010
00000000
00000010
00000000
,
00000001
00000000
00000000
00000000
,
00001000
00000000
00000000
00000000
,
00010000
00000000
00000000
00000000
,
00001000
00000000
00001000
00000000
,
00100000
00000000
00000000
00000000
,
10000000
00000000
00000000
00000000
,
00100000
00000000
00000000
00000000
,
01000000
00000000
01000000
00000000
,
00001000
00000000
00000000
00000000
,
00010000
00000000
00000000
00000000
,
00000010
00000000
00000100
00000000
,
00000001
00000000
00000000
00000000
,
00000001
00000000
00000000
00000000
,
00000100
00000000
00000000
00000000
,
00001000
00000000
00001000
00000000
,
00010000
00000000
00010000
00000000
,
00100000
00000000
00000000
00000000
,
10000000
00000000
00000000
00000000
,
01000000
00000000
00010000
00000000
,
00001000
00000000
00010000
00000000
,
00001000
00000000
00000000
00000000
,
00000010
00000000
00000000
00000000
,
00000001
00000000
00000100
00000000
,
00000001
00000000
00000000
00000000
,
00000100
00000000
00000000
00000000
,
00001000
00000000
00000000
00000000
,
00010000
00000000
00000000
00000000
,
00001000
00000000
00100000
00000000
,
00010000
00000000
00000000
00000000
;

//---------------dance-double - ----------------
#NOTES:
     dance-double:
     :
     Easy:
     3:
     0.171,0.221,0.040,0.030,0.000:
00000000
00000000
00000000
00000000
,
00000000
00000000
00000000
00000000
,
00000000
00000000
00000000
00000000
,
00000000
00000000
00000000
00000000
,
00000010
00000000
00001000
00000000
,
00000001
00000000
00000100
00000000
,
00001000
00000000
00000010
00000000
,
00000100
00000100
00000100
00000000
,
00002000
00000000
00000000
00003000
,
00020000
00000000
00000000
00030000
,
00200000
00000000
00000000
00000000
,
00000000
00000000
00000000
00300000
,
10000000
00000000
01000000
00000000
,
10000000
00000000
00000000
00000000
,
00010000
00000000
10000000
00000000
,
00100000
00000000
00000000
00000000
,
00010000
00000000
00001000
00000000
,
00000010
00000000
00000100
00000000
,
00000001
00000000
00000100
00000000
,
00000010
00000000
00001000
00000000
,
00010000
00000000
00010000
00000000
,
00100000
00000000
10000000
00000000
,
01000000
00000000
00100000
00000000
,
00010000
00000000
00000000
00000000
,
00011000
00000100
00000010
00000000
,
00001000
00000001
00000010
00000000
,
00000100
00010000
00001000
00000000
,
00010000
00000000
01000000
00000000
,
10000000
00100000
01000000
00000000
,
00001000
00000000
00010000
00000000
,
00001000
00000100
00000001
00000000
,
00000110
00000000
00000000
00000000
,
00000001
00000000
00000010
00000000
,
00000100
00001000
00000010
00000000
,
00000100
00000000
00001000
00000000
,
00010000
00100000
10000000
00000000
,
01000000
00000000
10000000
00000000
,
00100000
10000000
01000000
00000000
,
00010000
00000000
00001000
00000000
,
00010000
00000000
00000000
00000000
,
00001000
00000010
00000001
00000000
,
00000100
00000010
00010000
00000000
,
00011000
00000000
00010000
00000000
,
01000000
00000000
10000000
00000000
,
00100000
00000000
01000000
00010000
,
00100000
00000000
01000000
10000000
,
01000000
00000000
00010000
00000000
,
00001000
00000000
00000010
00000001
,
00000100
00000000
00001000
00000100
,
00000001
00000000
00000010
00001000
,
00010000
00000000
00100000
00000000
,
10000000
00000000
01000000
00100000
,
00010000
00000000
10000000
00000000
,
00100000
00010000
00001000
00000000
,
00000010
00000001
00001000
00000000
,
00000100
00000000
00000010
00000000
,
00001001
00000000
00000000
00000000
;

//---------------dance-double - ----------------
#NOTES:
     dance-double:
     :
     Medium:
     6:
     0.350,0.443,0.119,0.030,0.020:
00000000
00000000
00000000
00000000
,
00000000
00000000
00000000
00000000
,
00000000
00000000
00000000
00000000
,
00000000
00000000
00000000
00000000
,
10000000
00010000
01000000
00001000
,
00010000
00000000
00000100
00000000
00000010
00000000
00000001
00001000
,
00000001
00000100
00000010
00010000
,
00001000
00001000
00100000
00000000
00010000
00000000
10000000
10000000
,
10010000
00000000
00000000
00000000
,
00100000
00000000
00000000
00000000
,
00010000
00000000
00000000
00000000
,
00001000
00000000
00000000
00000000
,
00000100
00010000
00000010
00000000
,
00010000
00001000
00000010
00000000
,
00000010
00000001
00000100
00001000
,
00010000
00001000
00000000
00000000
,
00011000
00000000
00000000
00000000
00010000
00000000
00000000
00100000
00000000
00000000
10000000
00000000
00000000
00000000
00000000
00000000
,
10000000
01000000
00100000
01000000
,
00010000
00000000
00000000
00000000
00001000
00000000
00000000
00000010
00000000
00000000
00000001
00000000
00000000
00000000
00000000
00000000
,
00000010
00000000
00000100
00000000
00001000
00000010
00001000
00000010
,
00000100
00000000
00000000
00000000
00001000
00000000
00000000
00010000
00000000
00000000
00100000
00000000
00000000
00000000
00000000
00000000
,
10000000
01000000
00010000
00001000
,
00000100
00000000
00000000
00000000
00000001
00000000
00000000
00000010
00000000
00000000
00000100
00000000
00000000
00000000
00000100
00000000
,
00001000
00000000
00000000
00000000
,
00000001
00000000
00001000
00000000
00000010
00000100
00001000
00000000
,
00010000
00000000
01000000
00000000
10000000
00100000
01000000
00000000
,
00010000
00100000
10000000
00000000
10000000
00100000
00010000
00000000
,
00101000
00011000
00010010
00002010
,
00003001
00000010
00001000
00000000
00010000
00000000
00001000
00000000
,
00010000
00100000
10000000
00000000
01000000
00000000
00010000
00000000
,
01000000
10000000
00100000
00000000
01000000
00010000
00100000
00000000
,
00101000
00000000
00011000
00000000
00001000
00010000
00000100
00000000
,
00000010
00000000
00000001
00000010
00000100
00000000
00001000
00000000
,
00000010
00000000
00000100
00000001
00000010
00000000
00001000
00000000
,
00010000
00000000
00001000
00010000
01000000
00000000
10000000
00000000
,
02200000
00000000
00000000
03300000
,
11000000
00000000
00100000
01000000
00010000
00000000
00100000
00000000
,
01100000
00000000
01000000
00010000
00001000
00000000
00000010
00000000
,
00000001
00000000
00001000
00000100
00000001
00000000
00000100
00000000
,
00001000
00000000
00000000
00000000
,
00000010
00000000
00000100
00000000
00001000
00010000
00001000
00000000
,
00010000
00000000
00100000
00000000
01000000
00100000
10000000
00000000
,
01000000
00000000
00010000
00000000
00001000
00010000
00001000
00000010
,
00001000
00000000
00010000
00000000
00001000
00000100
00000100
00000000
,
00000001
00000010
00000100
00000000
00001000
00000100
00000001
00000100
,
00001000
00000000
00000010
00000000
00000100
00001000
00010000
00001000
,
00010000
00000000
00011000
00000000
00010000
00100000
10000000
01000000
,
10000000
00000000
00010000
00000000
00100000
01000000
10000000
00100000
,
01000000
00100000
10000000
00000000
01000000
00000000
00010000
00000000
,
00001000
00010000
00000010
00000000
00000100
00000001
00000010
00000000
,
00000100
00000000
00000010
00000000
00000001
00000100
00001000
00000000
,
00010000
00000000
00001000
00000000
00100000
00010000
01000000
10000000
,
01000000
00000000
00001000
00000000
00010000
00001000
00000100
00001000
,
00010000
00000000
00000010
00000000
00000100
00000010
00000100
00000010
,
00000100
00000000
00000001
00000000
00000010
00000100
00010000
00001000
,
00100000
00000000
01000000
00000000
10000000
01000000
00010000
00001000
,
00010000
00000000
00000000
00000000
;

//---------------dance-double - ----------------
#NOTES:
     dance-double:
     :
     Hard:
     7:
     0.428,0.470,0.109,0.069,0.138:
00000000
00000000
00000000
00000000
,
00000000
00000000
00000000
00000000
,
00000000
00000000
00000000
00000000
,
00000000
00000000
00000000
00000000
,
00010000
10000000
00100000
01000000
,
00001000
00000000
00010000
00000000
00000010
00000000
00000100
00000001
,
00000100
00000010
00000100
00001000
,
00010000
01000000
10000000
00000000
00000000
10000000
00100000
01000000
,
00020000
00000000
00000000
00000000
,
20000000
00000000
00000000
00030000
,
02000000
00000000
00000000
30000000
,
00020000
00000000
00000000
03000000
,
00031000
00000100
00000001
00000010
,
00000100
00000010
00001000
00001000
,
00000010
00001000
00000001
00000000
00000000
00000100
00000010
00000100
,
00001000
00010000
01000000
10000000
10000000
00000000
00000000
00000000
,
00100000
00000000
00000000
00000000
10000000
00000000
00000000
01000000
00000000
00000000
00010000
00000000
00001000
00000000
00000000
00000000
,
00010000
00000000
00000000
00000000
00001000
00000000
00000000
00000100
00000000
00000000
00000100
00000000
00000001
00000000
00000000
00000000
,
00000010
00000000
00000000
00000000
00000100
00000000
00000000
00001000
00000000
00000000
00001000
00000000
00000010
00000000
00000000
00000000
,
00000100
00000000
00000001
00000000
00000010
00000100
00010000
00000000
,
00001000
00000000
00000000
00000000
00010000
00000000
00000000
01000000
00000000
00000000
00100000
00000000
00010000
00000000
00010000
00000000
,
10000000
00000000
00000000
00000000
00100000
00000000
00000000
01000000
00000000
00000000
00010000
00000000
00100000
00000000
00100000
00000000
,
01000000
00000000
00000000
00000000
10000000
00000000
00000000
00100000
00000000
00000000
00010000
00000000
00001000
00000000
00001000
00000000
,
00011000
00000000
00000000
00000000
,
00001000
00000010
00000001
00000100
00000000
00000100
00000010
00000000
,
00000100
00000001
00000100
00001000
00000000
00010000
00100000
00000000
,
10000000
01000000
00010000
01000000
00000000
00100000
00010000
00000000
,
10100000
00000000
00110000
00000000
01000000
10000000
00100000
00000000
,
10000000
01000000
00010000
01000000
00000000
10000000
00100000
00000000
,
00010000
00001000
00000010
00000100
00000000
00001000
00000010
00000000
,
00000001
00000010
00001000
00000010
00000000
00000001
00000100
00000000
,
00000101
00000000
00001100
00000000
00000010
00000001
00000100
00000000
,
00000001
00000000
00001000
00000100
00000010
00000001
00000100
00000010
,
00001000
00000000
00000100
00010000
00000000
00001000
00100000
01000000
,
00020000
00000000
00000000
01030000
20000000
00000000
00000000
30100000
,
02000000
00000000
00000000
03000000
,
01100000
00000000
00000000
00000000
11000000
00000000
00000000
10000000
00000000
00000000
01000000
00000000
00010000
00000000
00010000
00000000
,
00001000
00000000
00000000
00000000
00000010
00000000
00000000
00000001
00000000
00000000
00000100
00000000
00000010
00000000
00000010
00000000
,
00000100
00000000
00000000
00000000
00001000
00000000
00000000
00010000
00000000
00000000
00010000
00000000
01000000
00000000
01000000
00000000
,
10010000
00000000
00000000
00000000
10000000
10000000
00010000
00010000
,
10000000
00000000
00000000
00000000
01000000
00000000
00000000
00100000
01000000
00000000
10000000
00000000
00100000
00000000
01000000
00000000
,
00001000
00000000
00000000
00000000
00010000
00000000
00000000
00001000
00010000
00000000
00001000
00000000
00000100
00000000
00000001
00000000
,
00000010
00000000
00000000
00000000
00000100
00000000
00000000
00001000
00000001
00000000
00000010
00000000
00000100
00000000
00000100
00000000
,
00001000
00000000
00000000
00000000
00000001
00000000
00000000
00000100
00000010
00001000
00000000
00000000
00000100
00000000
00000100
00000000
,
00000001
00000000
00000000
00000000
00000010
00000000
00000000
00000100
00000010
00000000
00000001
00000000
00000100
00000000
00000010
00000000
,
00010000
00000000
00000000
00000000
00001000
00000000
00000000
00010000
00001000
00000000
00010000
00000000
00100000
00000000
00100000
00000000
,
10000000
00000000
00000000
00000000
10010000
00000000
00000000
00010000
00100000
00000000
00100000
00000000
01000000
00000000
10000000
00000000
,
00010000
00000000
00000000
00000000
10000000
00000000
00000000
00100000
01000000
00000000
00010000
00000000
10000000
00000000
01000000
00000000
,
01000000
00000000
10000000
00000000
00100000
00000000
00000000
10000000
01000000
00000000
00010000
00000000
01000000
00000000
00010000
00000000
,
00001000
00000000
00010000
00000000
00001000
00000000
00000000
00001000
00000010
00000000
00000001
00000000
00000100
00000000
00000100
00000000
,
00000010
00000000
00000100
00000000
00001000
00000000
00000000
00001000
00010000
00000000
01000000
00000000
10000000
00000000
10000000
00000000
,
00100000
00000000
01000000
00000000
00100000
00000000
00000000
00000000
10000000
01000000
00000000
00000000
10000000
00000000
01000000
00000000
,
00010000
00000000
00001000
00000000
00000010
00000000
00000000
00000001
00000100
00000000
00000010
00000000
00001000
00000000
00000100
00000000
,
00010000
00000000
00100000
00000000
10000000
00000000
00000000
10000000
01000000
00000000
00000000
10000000
01000000
00000000
10000000
00000000
,
00100000
00000000
00000000
00000000
01100000
00000000
00000000
01000000
00010000
01000000
00000000
00000000
00001000
00000000
00010000
00000000
,
00001000
00000000
00000000
00000000
00011000
00000000
00000000
00000000
00010000
00000100
00000000
00000000
00000100
00000000
00001000
00000000
,
00000010
00000000
00000000
00000000
;

//---------------dance-single - Copied from----------------
#NOTES:
     dance-single:
     Copied from:
     Challenge:
     9:
     0.743,0.732,0.801,0.237,0.351: // measure 1
0001
0000
1000
0000
0010
0000
0100
0010
1000
0000
0001
0000
0010
0000
0000
0000
,  // measure 2
0010
0000
0100
0000
1000
0000
0001
1000
0100
0000
0010
0000
0001
0000
0000
0000
,  // measure 3
0001
0000
0100
0000
0010
0000
1000
0100
0010
0000
0001
0000
1000
0000
0000
0000
,  // measure 4
1000
0000
0010
0000
0100
0000
0001
0010
0100
0000
1000
0000
0010
0000
0000
0000
,  // measure 5
0010
0000
0100
0000
0001
0000
0010
1000
0001
0000
0100
0000
1000
0000
0000
0000
,  // measure 6
1000
0000
0001
0000
0100
0000
0010
0001
0010
0000
1000
0000
0001
0000
0000
0000
,  // measure 7
0001
0000
1000
0000
0010
0000
0100
0001
0010
0000
0100
0000
1001
0000
0000
0000
,  // measure 8
0101
0000
0001
1000
0010
0000
0010
0100
0001
0000
0001
0010
0100
1000
0001
1000
,  // measure 9
0020
0000
0100
0000
1030
0001
1000
0010
,  // measure 10
0102
0100
0000
0010
0000
0010
0000
1003
,  // measure 11
2100
0000
0000
0000
0010
0000
0000
0100
0000
0000
0001
0000
0000
0000
3100
0000
,  // measure 12
0200
0000
0000
0000
0010
0000
0000
1000
0000
0000
0301
0000
0010
0000
0100
0000
,  // measure 13
1000
1100
0001
0101
,  // measure 14
0010
1001
0100
1010
,  // measure 15
0100
0000
0010
0000
1000
0010
0100
0001
0010
0000
0100
1000
0100
0010
0000
0001
,  // measure 16
0010
0000
0100
1000
0001
0000
1000
0010
0000
0010
0100
0000
0001
0000
1000
0000
,  // measure 17
0110
0000
0000
0000
0110
0000
0000
0100
0010
0000
1000
0000
0010
0000
0001
0000
,  // measure 18
1000
0000
0000
0000
0101
0000
0000
1000
0001
0000
0010
0000
1000
0000
0010
0000
,  // measure 19
0001
0000
0000
0000
1100
0000
0000
0100
0010
0000
0001
0000
1000
0000
0010
0000
,  // measure 20
0100
0000
0000
0000
1010
0000
0000
1000
0100
0000
0010
0000
0001
0000
1000
0000
,  // measure 21
0010
0000
0000
0000
0110
0000
0000
0100
0001
0000
1000
0000
0010
0000
1000
0000
,  // measure 22
0001
0000
0000
0000
1001
0000
0000
1000
0100
0000
0010
0000
0100
0000
1000
0000
,  // measure 23
0001
0000
0000
0000
0101
0000
0000
0100
0010
0000
1000
0000
0010
0000
0001
0000
,  // measure 24
0010
0000
0000
0000
1010
0000
0000
1000
0010
0000
0100
0000
0001
0000
0010
0000
,  // measure 25
0200
0000
2300
0001
3001
0100
0110
0020
,  // measure 26
1000
2030
0000
3002
0000
0203
0000
0010
,  // measure 27
0310
0000
0000
0000
1010
0000
0010
1000
0001
0000
0100
0000
1000
0000
0100
0000
,  // measure 28
0002
0000
0000
0000
0203
0000
0301
1000
0010
0000
0101
0000
0110
0000
1001
0000
,  // measure 29
1100
0000
0000
0000
1001
0000
0010
0100
0001
0000
0010
0000
0100
0000
1000
0000
,  // measure 30
0100
0000
0020
0000
0000
0000
0031
0010
0100
0000
1000
0000
0010
0000
0100
0000
,  // measure 31
0110
0000
0000
0000
1001
0000
0010
0100
0020
0000
1000
0000
1030
0000
0001
0000
,  // measure 32
0011
0000
0000
0000
0110
0000
0100
1000
0001
0000
1001
0000
1100
0000
0110
0000
,  // measure 33
0011
0000
0000
0000
0110
0000
0100
1000
0001
0000
0010
0000
0100
0000
0100
0000
,  // measure 34
2001
0000
0000
0000
3001
0000
0010
0100
1000
0000
0100
0000
0010
0000
0001
0000
,  // measure 35
0011
0000
0000
0000
1100
0000
1000
0001
2000
0000
0010
0000
3010
0000
0100
0000
,  // measure 36
0101
0000
0000
0000
0011
0000
0001
0010
0100
0000
0110
0000
1001
0000
1010
0000
,  // measure 37
0101
0000
0000
0000
1010
0000
0100
0001
0100
0000
0020
0000
0000
0000
0032
0000
,  // measure 38
0000
2003
0000
3200
0000
0320
0000
1030
,  // measure 39
1000
0000
0001
0000
0110
0000
0100
0001
0010
0000
0100
0000
1000
0000
0100
0000
,  // measure 40
0110
0000
0000
0000
0011
0000
0000
0000
0001
1000
0010
0000
1000
0000
0210
0000
,  // measure 41
0301
0000
0000
0000
1001
0000
0000
0001
1000
0000
0010
0000
0100
0000
0100
0000
,  // measure 42
1010
0000
0000
0000
0101
0000
0000
0001
1000
0000
0010
0000
0100
0000
0100
0000
,  // measure 43
1001
0000
0000
0000
0110
0000
0000
0010
0100
0000
0010
0000
1000
0000
1000
0000
,  // measure 44
0011
0000
0000
0000
1100
0000
0000
0001
0100
0010
0100
0001
1000
0010
0100
0000
,  // measure 45
1010
0000
0000
0000
0101
0000
0000
0001
1000
0000
0010
0000
0100
0000
0100
0000
,  // measure 46
1010
0000
0000
0000
0110
0000
0000
1000
0010
0100
0001
0000
0010
0000
0010
0000
,  // measure 47
1001
0000
0000
0000
1010
0000
0000
0100
0001
0100
0010
0000
1000
0000
1000
0000
,  // measure 48
0110
0000
0000
0000
0101
0000
0000
1000
0010
1000
0001
0000
0100
0000
0100
0000
,  // measure 49
1010
0000
0000
0000
0101
0000
0000
0010
0100
0000
0001
0000
0100
0000
1000
0000
,  // measure 50
1100
0000
0000
0000
0101
0000
0000
0010
0001
0000
1000
0000
0010
0000
0100
0000
,  // measure 51
0101
0000
0000
0000
0110
0000
0000
0100
0010
0000
1000
0000
0001
0000
0001
0000
,  // measure 52
1100
0000
0000
0000
0011
0000
0000
0001
0010
0100
1000
0010
0100
0001
1000
0000
,  // measure 53
0110
0000
0000
0000
1001
0000
0000
0001
0100
0000
0010
0000
1000
0000
1000
0000
,  // measure 54
0101
0000
0000
0000
0011
0000
0000
0010
0100
1000
0100
0000
0010
0000
0001
0000
,  // measure 55
0101
0000
0000
0000
1010
0000
0000
0010
1000
0001
1000
0000
0100
0000
0100
0000
,  // measure 56
0110
0000
0000
0000
0011
0000
0000
0001
0010
0100
1000
0000
1001
0000
1010
0000
,  // measure 57
0220
0000
0000
0000
,  // measure 58
0330
0000
0000
0000
;
