#TITLE:Benita;
#SUBTITLE:;
#ARTIST:Tomoaki Hirono;
#TITLETRANSLIT:;
#SUBTITLETRANSLIT:;
#ARTISTTRANSLIT:;
#GENRE:;
#CREDIT:;
#BANNER:;
#BACKGROUND:;
#LYRICSPATH:;
#CDTITLE:;
#MUSIC:Benita.mp3;
#OFFSET:-0.060000;
#SAMPLESTART:39.179955;
#SAMPLELENGTH:12.000000;
#SELECTABLE:YES;
#BPMS:0.000000=174.000000
;
#STOPS:76.000000=0.080000,
76.500000=0.080000,
217.500000=0.180000,
251.000000=0.080000,
251.500000=0.080000
;
#BGCHANGES:;
#KEYSOUNDS:;
#ATTACKS:;

//---------------dance-single - ----------------
#NOTES:
     dance-single:
     :
     Hard:
     16:
     0.887170,1.000000,0.585532,0.594404,0.714172,567.000000,66.000000,67.000000,0.000000,0.000000,0.000000,0.887170,1.000000,0.585532,0.594404,0.714172,567.000000,66.000000,67.000000,0.000000,0.000000,0.000000:
// measure 0
0000
0000
0000
1001
,  // measure 1
1000
0000
0001
0000
0100
0000
0010
0000
0000
0000
0000
0000
0000
0000
0000
0100
0000
0000
0000
0000
0000
0010
0000
0000
,  // measure 2
0101
0000
0000
1000
0000
0000
0100
0000
0010
0000
0000
0001
0000
0000
0010
0000
,  // measure 3
1001
0000
0000
0001
0000
0000
0100
0000
0110
0000
0000
0010
0000
0000
0100
0000
,  // measure 4
1001
0000
0000
0020
0000
0000
0000
0000
0000
0000
0000
0000
0000
0000
0000
0030
0000
0000
1000
0000
0001
0000
0100
0000
,  // measure 5
0010
0000
0100
0000
0001
0000
1000
0000
0000
0000
0000
0000
0000
0000
0000
0010
0000
0000
0000
0000
0000
0100
0000
0000
,  // measure 6
1001
0000
0000
0010
0000
0000
0100
0000
0001
0000
0000
0010
0000
0000
0100
0000
,  // measure 7
1100
0000
0000
1000
0000
0000
0010
0000
0101
0000
0000
0010
0000
0000
1000
0000
,  // measure 8
0010
0000
1000
0000
0001
0000
0200
0000
0000
0000
0000
0000
0000
0000
0000
0000
0000
0000
0000
0000
0000
0300
0000
0000
,  // measure 9
2002
0000
0000
0000
0000
0000
0000
3003
,  // measure 10
1000
0000
0010
0100
0001
0100
0000
0010
1000
0000
0100
0010
0001
0010
0000
0100
,  // measure 11
1000
0000
0001
1000
0010
1000
0000
0001
0010
0000
0100
1000
0010
0100
0000
0010
,  // measure 12
0100
0000
0001
0010
0100
0010
0000
0001
1000
0000
0100
0000
1000
0000
0002
0000
,  // measure 13
0000
0000
0203
0000
0000
0000
0301
1000
0000
1000
0001
0010
0100
0010
0001
1000
,  // measure 14
0001
0000
1000
0010
0100
0010
0000
0100
0001
0000
1000
0100
0010
0100
0000
0010
,  // measure 15
0001
0000
0010
0001
0100
0001
0000
1000
0100
0000
0010
0100
1000
0001
0000
0100
,  // measure 16
0010
0000
1000
0001
0010
0100
0000
1000
0100
0000
0010
0000
0001
0000
1000
0000
,  // measure 17
0001
0010
0100
1000
0002
0000
0000
0000
0023
0000
0000
0000
0130
0000
0000
0000
,  // measure 18
1002
0000
0000
0203
0000
0000
0310
0000
,  // measure 19
2002
3003
0220
0330
2002
0000
0000
0000
0000
0000
0000
0000
0000
0000
0000
0000
,  // measure 20
0000
0000
3003
0000
0000
0001
1000
0000
0000
1001
0000
0000
0100
0000
0001
0000
,  // measure 21
0010
0100
0010
0001
0100
0010
1000
0010
,  // measure 22
0000
1001
0000
0000
1000
0000
0100
0000
0010
0000
0001
0000
1000
0000
0010
0000
,  // measure 23
0001
0000
0010
0000
1000
0000
0001
0000
0000
0100
0000
0000
0100
0000
0010
1000
,  // measure 24
0001
0100
0010
0000
0100
0000
0010
0000
0001
0000
1000
0000
0100
0000
0001
0000
,  // measure 25
0010
0000
0100
0000
0001
0000
0100
0000
0000
0010
0000
0000
0100
0000
1000
0000
,  // measure 26
0000
0100
0000
0000
0010
0001
0010
0000
0000
0000
0100
1000
0001
0100
0010
0000
,  // measure 27
0100
0000
0000
0000
0000
0000
0010
0000
0000
0000
0000
0000
1000
0000
0000
0000
0000
0000
0001
0000
0000
0000
0000
0000
0000
0000
0000
0100
0000
0000
0000
0000
0000
0000
0000
0000
0001
0000
0000
0000
0000
0000
1000
0000
0000
0000
0010
0000
,  // measure 28
0000
0000
0100
0000
0000
0000
0001
0000
0000
0000
0000
0000
0000
0000
0000
0000
0000
0000
0110
0000
0000
0000
0000
0000
0000
0000
0000
0101
0000
0000
0000
0000
0000
0000
0000
0000
1010
0000
0000
0000
0000
0000
0100
0000
0000
0000
0000
0000
,  // measure 29
0001
0010
0100
1000
0100
0010
0001
0100
,  // measure 30
0000
1000
0000
0000
0001
0000
0010
1000
0010
0000
0100
0000
0001
0000
1000
0000
,  // measure 31
0010
0000
0000
0000
0000
0000
0001
0000
0000
0000
0000
0000
0010
0000
0000
0000
0000
0000
1000
0000
0000
0000
0000
0000
0000
0000
0000
0100
0000
0000
0000
0000
0000
0000
0000
0000
0001
0000
0000
0000
0000
0000
1000
0000
0000
0000
0010
0000
,  // measure 32
0000
0001
0000
0010
0000
0000
0100
0000
0000
0000
0000
0000
2002
0000
0000
0000
0000
0000
0000
0000
0000
3003
0000
0000
,  // measure 33
0100
0000
0010
0000
0010
0000
1000
0000
0000
0100
0000
0000
0010
0000
0001
0000
,  // measure 34
0000
0010
0000
0000
1000
0000
0010
0000
0000
0000
0001
0010
0100
1000
0001
0000
,  // measure 35
0000
1010
0000
0000
0100
0000
0001
0000
0000
0101
0000
0000
0010
0000
0100
0010
,  // measure 36
1000
0100
0010
0000
0001
0000
0010
0000
0100
0000
1000
0100
0010
0001
1000
0000
,  // measure 37
0010
1000
0001
0100
1000
0100
0001
2002
,  // measure 38
0000
0000
0003
0000
3010
0000
0100
0000
0001
0000
0010
0000
0100
1000
0200
0000
,  // measure 39
0000
0000
0000
0000
0310
0000
0011
0000
0000
1000
0000
0000
0001
0000
2020
0000
,  // measure 40
0000
0000
3030
0000
0100
0010
0200
0000
0000
0000
0310
0000
0000
0000
1010
0000
,  // measure 41
0000
1001
0000
0000
0110
0000
0101
0000
0010
0000
1000
0000
0001
0000
0100
0000
,  // measure 42
0000
0010
0000
0000
0100
0010
1000
0000
0000
0101
0000
0000
0010
1000
0001
0000
,  // measure 43
0000
0100
0000
0000
0001
1000
0100
0000
0000
0000
1100
0000
0000
0000
2002
0000
,  // measure 44
0000
0000
3003
0000
0001
0010
0100
0000
0000
1000
0000
0000
0010
0000
1010
0000
,  // measure 45
0000
0101
0000
0000
1001
0000
0110
0000
0000
1100
0000
0000
0011
0000
2002
0000
,  // measure 46
3003
0000
0220
0000
0000
0000
0000
0000
0330
0000
0010
1000
0001
0100
0001
0000
,  // measure 47
1000
0010
0000
0010
0100
0000
0010
0100
0010
0000
1000
0000
0001
0010
0000
0010
,  // measure 48
0100
0000
0100
0000
1000
0000
0010
0100
0010
0000
1000
0000
0010
0100
0001
0000
,  // measure 49
0001
0100
0000
0100
0001
0000
1000
0000
0000
0000
1100
0000
0000
0000
0001
0100
,  // measure 50
1000
0100
0002
0000
0000
0000
0000
0000
0103
0000
0010
0000
0100
0000
0001
1000
,  // measure 51
0000
1000
0010
0100
0001
0100
0010
0000
0100
0000
0001
0000
0010
0000
0100
0000
,  // measure 52
1000
0001
0100
0001
1000
0100
1000
0000
0000
0000
0010
0000
0100
0000
0202
0000
,  // measure 53
0000
0303
2002
0000
0000
3003
0220
0000
0000
0330
2020
0000
0000
3030
2200
0000
,  // measure 54
0000
3300
0220
0000
0000
0330
1001
0000
0001
0010
0100
1000
0100
0000
0010
0001
,  // measure 55
0000
0001
1000
0000
0010
0000
0220
0000
0000
0300
0130
0000
0001
0000
1000
0010
,  // measure 56
0000
0100
0001
0000
0001
0000
2002
0000
0000
3000
1003
0010
0100
0000
0100
0001
,  // measure 57
0000
0010
0001
0000
2000
0000
0000
0000
3200
0000
0000
0000
0310
0100
1000
0001
,  // measure 58
0200
0000
0000
0000
0000
0000
0310
0000
0100
0000
0001
0000
1000
0010
0001
0010
,  // measure 59
0100
0010
1000
0001
0100
0001
0011
0000
,  // measure 60
0010
0100
1000
0100
0010
0000
0000
0000
0001
0000
1000
0000
1100
0000
0000
1010
,  // measure 61
0000
0000
0011
0000
0101
0000
0000
1100
0000
0000
1000
0000
0102
0000
0000
0000
,  // measure 62
1003
1020
0000
0031
0220
0330
1001
0120
,  // measure 63
0100
0100
0130
0010
0100
1000
0100
0001
,  // measure 64
0100
1000
0100
0001
0100
0020
0000
0000
,  // measure 65
0000
0000
1030
0000
0000
0001
0000
0000
0100
0000
0010
0000
0000
1001
0000
0000
,  // measure 66
0000
0000
0010
0100
0000
0000
0000
0000
0000
0000
0002
0000
0000
0000
0000
0000
,  // measure 67
0000
0000
1003
0000
0000
0010
0000
0000
0100
0000
0001
0000
0000
1000
0000
0000
,  // measure 68
0000
0000
0000
0000
0000
0000
0010
0000
1000
0000
0001
0100
0000
0100
0010
0000
,  // measure 69
1002
0000
0000
0000
0103
0000
0010
0000
0100
0000
0001
1000
0000
1000
0100
0000
,  // measure 70
0012
0000
0000
0000
0013
0000
0100
0000
1000
0000
0001
0010
0000
0100
1000
0000
,  // measure 71
1000
0000
0001
0000
0001
0000
0100
0000
0010
0000
2002
0000
0000
3003
0220
0000
,  // measure 72
0000
0000
0000
0000
0300
0000
2030
0000
0000
0000
3001
0100
1000
0100
0001
0000
,  // measure 73
0010
0000
1000
0010
0001
0010
1000
0000
0001
0000
0100
1000
0010
0100
0001
0000
,  // measure 74
0100
0000
1000
0100
0010
0100
1000
0000
0100
0000
0001
0010
0100
0010
0001
0000
,  // measure 75
0010
0000
1000
0010
0001
1000
0010
0000
0100
0000
0001
0100
1000
0001
0010
0000
,  // measure 76
0100
0000
1000
0100
0001
0010
0100
0000
0010
0000
2002
0000
0000
0000
0000
0000
,  // measure 77
0000
0000
0000
0000
3000
2000
0000
0000
,  // measure 78
0000
0000
3003
0000
;

//---------------dance-single - ----------------
#NOTES:
     dance-single:
     :
     Medium:
     13:
     0.645099,0.905357,0.204049,0.550045,0.314945,424.000000,23.000000,62.000000,0.000000,0.000000,0.000000,0.645099,0.905357,0.204049,0.550045,0.314945,424.000000,23.000000,62.000000,0.000000,0.000000,0.000000:
0000
0000
0000
0010
,
1000
0000
0001
0000
1000
0000
0001
0000
0000
0000
0000
0000
0000
0000
0000
0100
0000
0000
0000
0000
0000
0010
0000
0000
,
0100
0000
0000
0100
0000
0000
0001
0000
0010
0000
0000
0010
0000
0000
0100
0000
,
1000
0000
0000
1000
0000
0000
0100
0000
0010
0000
0000
0010
0000
0000
0001
0000
,
1000
0020
0000
0000
0000
0030
1000
0001
,
1000
0000
0010
0000
1000
0000
0010
0000
0000
0000
0000
0000
0000
0000
0000
0100
0000
0000
0000
0000
0000
0001
0000
0000
,
1000
0000
0000
1000
0000
0000
0010
0000
0100
0000
0000
0100
0000
0000
0001
0000
,
0010
0000
0000
0010
0000
0000
0100
0000
1000
0000
0000
1000
0000
0000
0001
0000
,
1000
0000
0001
0000
1000
0000
0020
0000
0000
0000
0000
0000
0000
0000
0000
0000
0000
0000
0000
0000
0000
0030
0000
0000
,
2002
0000
0000
0000
0000
0000
0000
3003
,
1000
0000
0001
0000
0100
0000
0000
0010
0000
0000
0100
0000
1000
0000
0000
0100
,
0000
0000
0001
0000
1000
0000
0000
0001
0000
0000
0100
0000
0010
0000
0000
1000
,
0000
0000
0001
0000
0100
0000
0000
0010
0000
0000
0100
0000
0001
0000
0100
0000
,
0000
0100
0000
0000
0000
0000
0001
1000
0000
0000
0010
0000
0000
0100
0000
0000
,
0000
0000
0001
0000
1000
0000
0000
0010
0000
0000
0100
0000
0001
0000
0000
0010
,
0000
0000
0100
0000
1000
0000
0000
0001
0000
0000
0100
0000
0010
0000
0000
1000
,
0000
0000
0001
0000
0100
0000
0000
0001
0000
0000
1000
0000
0010
0000
0200
0000
,
0000
0302
0023
0130
,
1002
0000
0000
0203
0000
0000
0310
0000
,
0100
0100
2002
0000
0000
0000
0000
0000
,
0000
0000
0000
0000
3003
0000
0000
1000
,
0001
0100
0000
0001
0100
0010
0000
0100
,
0000
0100
0000
0000
0001
0000
0010
0000
0100
0000
1000
0000
0001
0000
1000
0000
,
0000
0000
0010
0000
1000
0000
0001
0000
0000
0100
0000
0000
0010
0000
0100
0000
,
0010
2000
0000
0000
0000
0000
0000
0000
,
3001
0000
0010
0000
0001
0000
0100
0000
0000
0100
0000
0000
0001
0000
1000
0000
,
0000
1000
0000
0000
0100
0000
0010
0000
0000
0000
0001
0000
0010
0000
0100
0000
,
1000
0000
0001
0000
1000
0000
0001
0000
0000
0100
0000
0000
0010
0000
0100
0000
,
0010
0000
0100
0000
0000
0000
0010
0000
0000
0010
0000
0000
0010
0000
0200
0000
,
0000
0000
0301
1000
0100
0010
0001
1000
,
0000
1000
0000
0000
0001
0000
0010
0000
0002
0000
0000
0000
0000
0000
0000
0000
,
0103
0000
0010
0000
1000
0000
0001
0000
0000
0001
0000
0000
1000
0000
0100
0000
,
0010
0001
2000
0000
3020
0000
0000
0000
,
0130
0000
0001
0000
1000
0000
0100
0000
0000
0100
0000
0000
0010
0000
0001
0000
,
0000
0001
0000
0000
1000
0000
0010
0000
0000
0000
1000
0000
0010
0000
1000
0000
,
0000
1000
0000
0000
0001
0000
0010
0000
0000
0010
0000
0000
0100
0000
1000
0000
,
0100
0020
0000
0000
0000
0031
0010
2002
,
0000
3003
0001
1000
0010
1000
0001
0220
,
0000
0330
0010
1000
0100
1000
0001
0202
,
0000
0000
0303
0000
0010
0000
0100
0000
0000
0100
0000
0000
0010
0000
2020
0000
,
0000
3030
0010
2002
3003
2002
3003
0010
,
0000
0010
0000
0000
0010
0000
0100
0000
0001
0000
1000
0000
0001
0000
0100
0000
,
0000
0100
0000
0000
0001
0000
0010
0000
0000
0010
0000
0000
0100
0000
1000
0000
,
0000
1000
0000
0000
0001
0000
1000
0000
0000
0000
1010
0000
0000
0000
0202
0000
,
0000
0000
0303
0000
0001
0000
1000
0000
0000
1000
0000
0000
0001
0000
0010
0000
,
0000
0010
0000
0000
0100
0000
1000
0000
0000
1000
0000
0000
0001
0000
1000
0000
,
0000
0220
0000
0000
0330
0001
0100
0001
,
0000
1000
0000
0000
0001
0000
0010
0000
0010
0000
0100
0000
1000
0000
0100
0000
,
0000
0010
0000
0000
0001
0000
1000
0000
1000
0000
0001
0000
0100
0000
0001
0000
,
0000
0001
0000
0000
0010
0000
0100
0000
0000
0000
1100
0000
0000
0000
0001
0000
,
1000
0002
0000
0000
0103
0010
0100
0001
,
0000
1000
0000
0000
0001
0000
0100
0000
0100
0000
0001
0000
0010
0000
0100
0000
,
1000
0001
0100
0001
0000
1000
0001
2002
,
0000
3003
2002
0000
0000
3003
0220
0000
0000
0330
0220
0000
0000
0330
0202
0000
,
0000
0303
2020
0000
0000
3030
1001
0000
0100
0000
0010
0000
0100
0000
0000
0001
,
0000
0000
1000
0000
0010
0000
0020
0000
0000
0000
1030
0000
0100
0000
0000
0010
,
0000
0000
0001
0000
1000
0000
2000
0000
0000
0000
3001
0000
0100
0000
0000
0010
,
0000
0100
0002
0000
2003
0000
3001
0100
,
0002
0000
0000
1003
0001
0100
0010
0010
,
1000
0001
0001
0100
0010
0100
0001
0000
,
1000
0000
0010
0000
1000
0000
0000
0000
0001
0000
1000
0000
0001
0000
0000
0001
,
0000
0000
0010
0000
0100
0000
0000
0100
0000
0000
1000
0000
0020
0000
0000
0000
,
0130
0002
0000
1003
0020
0000
0130
1001
,
0010
0010
0010
0100
0001
0100
0001
1000
,
0010
1000
0010
1000
0001
0200
0000
0000
,
0000
0000
0301
0000
0000
0001
0000
0000
0100
0000
0010
0000
0000
0100
0000
0000
,
0000
0000
0000
0000
0000
1001
0000
0000
,
0000
0000
0010
0000
0000
0010
0000
0000
0100
0000
0010
0000
0000
0010
0000
0000
,
0000
0000
0000
0000
0000
0000
0100
0000
0001
0000
1000
0000
0000
0010
0000
0000
,
0200
0000
0000
0000
0301
0000
1000
0000
0001
0000
0010
0000
0000
0100
0000
0000
,
2000
0000
0000
0000
3010
0000
0100
0000
0001
0000
1000
0000
0000
0001
0000
0000
,
1000
0000
0001
0000
1000
0000
0001
0000
1000
0000
0002
0000
0000
0003
2000
0000
,
0000
0000
0000
0000
0000
0000
3010
0000
0000
0000
0001
0100
0000
0000
0010
0000
,
1000
0000
0001
0010
0000
0000
0100
0000
1000
0000
0100
0010
0000
0000
0001
0000
,
1000
0000
0001
0010
0000
0000
0100
0000
0010
0000
0001
0010
0000
0000
0100
0000
,
1000
0000
0100
1000
0000
0000
0001
0000
0100
0000
0001
1000
0000
0000
0010
0000
,
0100
0000
0010
0100
0000
0000
0001
0000
1000
0000
2002
0000
0000
0000
0000
0000
,
0000
0000
0000
0000
3000
2000
0000
0000
,
0000
0000
3003
0000
;

//---------------dance-single - ----------------
#NOTES:
     dance-single:
     :
     Easy:
     6:
     0.414435,0.452678,0.115332,0.487943,0.000000,259.000000,13.000000,55.000000,0.000000,0.000000,0.000000,0.414435,0.452678,0.115332,0.487943,0.000000,259.000000,13.000000,55.000000,0.000000,0.000000,0.000000:
0000
0000
0000
1001
,
0000
0001
1000
0000
0000
0001
0000
1000
,
0001
0000
0000
0000
0000
0000
0000
1000
,
0001
0000
0000
1000
0001
0000
0000
1000
,
0001
0200
0000
0000
0000
0000
0301
1000
,
0020
0000
0030
0000
0000
0100
0000
0001
,
1000
0000
0000
0000
0000
0000
0000
0001
,
1000
0000
0000
0010
0100
0000
0000
0010
,
0100
0010
0200
0000
0000
0000
0000
0000
,
0320
0000
0000
0000
,
0130
0000
0010
0000
0000
1000
1000
0000
,
0000
0001
0001
0000
0000
0100
0100
0000
,
0000
0010
0010
0000
0000
0100
0100
0000
,
0000
0000
0000
2002
0000
0000
0000
3003
,
0001
1000
0010
0100
,
0001
0100
0001
1000
,
0100
0000
1000
0000
0001
0000
1000
0001
,
2000
3002
0000
0000
,
2003
0000
0000
3020
0000
0000
0000
0000
,
1030
1000
0002
0000
0000
0000
0000
0000
,
0000
0000
0000
0000
0003
0000
0000
2000
,
0000
3000
0000
0001
0000
0100
0000
0100
,
0000
0000
0001
0010
0000
0001
0000
1000
,
0000
0010
0000
1000
0000
0001
0000
0100
,
0000
0020
0000
0000
0000
0000
0000
0000
,
0000
0130
0000
0100
0000
0010
0000
1000
,
0000
0000
0001
0100
0000
0001
0000
1000
,
0000
0001
0000
1000
0000
0001
0000
0000
,
0100
0010
0000
0020
0000
0000
0100
0130
,
0000
0000
0000
1000
0000
0010
0000
1000
,
0000
0000
0001
0100
0000
0010
0000
1000
,
0000
0010
0000
0100
0000
0000
0001
0100
,
0000
0100
0000
0000
0020
0000
0000
0000
,
0130
0010
0000
1000
0000
0000
0001
0100
,
0000
0000
0001
1000
0000
0010
0000
0010
,
0000
0100
0000
0100
0000
0010
0000
0100
,
0010
0100
0000
0000
0000
0010
0000
2002
,
0000
3003
0001
0000
0000
1000
0000
2002
,
0000
3003
0010
0000
0000
1000
0000
0220
,
0000
0330
0010
0100
0000
0000
0000
0220
,
0000
0330
0000
1001
0000
1001
0000
0010
,
0000
0000
0010
0100
0000
0000
0000
0001
,
0000
0000
1000
0010
0000
0000
0000
1000
,
0000
0000
0001
1000
0000
0000
0000
0202
,
0000
0303
0001
1000
0000
0000
0000
0002
,
0000
2003
0000
3020
0000
0130
0000
0100
,
0000
2002
0000
0000
3003
0001
0000
1000
,
0000
0020
0000
1000
0000
0130
0000
2000
,
0000
0001
0000
3010
0000
0001
0000
0200
,
0000
0010
0000
0310
0000
1001
0000
1000
,
0001
0200
0000
0000
0000
0310
0000
1000
,
0000
0001
0000
0100
0000
0001
0000
0100
,
0000
0001
0000
1000
0000
0010
0000
0200
,
0000
0320
0000
2030
0000
3002
0000
2003
,
0000
3001
0000
1001
0010
0000
0010
0000
,
1000
0000
0001
0002
0000
0000
1003
0000
,
0010
0000
0100
0200
0000
0000
0301
0000
,
1000
0010
0200
0320
,
0000
0000
0130
0010
,
0100
0001
1000
0001
,
0100
0100
0100
0000
0001
0000
0001
0000
,
1000
1000
0010
0200
,
0000
0302
0000
0000
2003
0000
3001
1000
,
0002
0000
0000
0100
0000
0100
0000
0100
,
0000
0100
0000
0100
0000
2003
0000
0000
,
0000
3001
0000
0000
0000
0100
0000
0000
,
0000
0010
0000
0000
0000
1000
0000
0000
,
0000
0001
0000
0000
0100
0010
0000
0000
,
0000
0000
0000
0100
0000
0100
0000
0000
,
0020
0000
0030
1000
0000
0001
0000
0000
,
0200
0000
0300
0001
0000
1000
0000
0000
,
0000
0010
0000
0010
0000
0020
0000
0230
,
0000
0000
0000
0310
0000
0010
0000
0000
,
1000
0001
0000
0000
0001
1000
0000
0000
,
1000
0001
0000
0000
0001
1000
0000
0000
,
1000
0001
0000
0000
0001
1000
0000
0000
,
0001
1000
0000
0000
1000
2002
0000
0000
,
0000
0000
0000
0000
3000
2000
0000
0000
,
0000
0000
3003
0000
;

//---------------dance-single - ----------------
#NOTES:
     dance-single:
     :
     Beginner:
     3:
     0.269953,0.313393,0.106460,0.514558,0.000000,143.000000,12.000000,58.000000,0.000000,0.000000,0.000000,0.269953,0.313393,0.106460,0.514558,0.000000,143.000000,12.000000,58.000000,0.000000,0.000000,0.000000:
0000
0000
0000
0000
,
0000
1000
0001
0000
0000
0000
0000
0000
,
2002
3003
0000
0000
,
0020
0030
2000
3000
,
0020
0000
0000
0030
,
0200
0000
0300
0000
0000
0000
0000
1000
,
0001
0000
0000
0000
,
2002
3003
0000
0000
0220
0330
0000
0000
,
0000
0010
0020
0000
0000
0000
0000
0000
,
0230
0000
0000
0000
,
0310
0100
0000
0001
,
0000
1000
0000
0010
,
0000
0100
0000
0010
,
0000
0000
0000
2002
0000
0000
0000
3003
,
0000
1000
0000
0001
,
0000
0100
0000
0010
,
0000
1000
0000
0001
,
0000
2000
0000
0000
,
3002
0000
0000
0203
0000
0000
0000
0000
,
0300
0020
0000
0000
,
0000
0000
0000
0000
0000
0000
0000
1030
,
0000
0000
0000
1000
0000
0000
0000
0010
,
0000
0000
0000
0100
0000
0000
0000
0001
,
0000
0000
0000
0001
0000
0000
0000
0100
,
0000
0200
0000
0000
0000
0000
0000
0000
,
0000
0300
0000
0010
0000
0000
0000
0010
,
0000
0000
0000
1000
0000
0000
0000
0001
,
0000
0000
0000
1000
0000
0000
0000
0000
,
0000
0010
0000
0200
0000
0000
0000
0310
,
0000
0000
0000
0001
0000
0000
0000
0001
,
0000
0000
0000
0010
0000
0000
0000
1000
,
0000
0000
0000
0001
0000
0000
0000
1000
,
0000
0000
0200
0000
,
0300
0100
0000
0001
0000
0000
0000
0010
,
0000
0000
0000
0001
0000
0000
0000
0100
,
0000
0000
0000
0010
0000
0000
0000
0010
,
0000
0000
0000
0000
0000
0100
0000
2002
,
0000
3003
0000
0000
0000
0000
0000
2002
,
0000
3003
0000
0000
0000
0000
0000
0202
,
0000
0303
0000
0000
0000
0000
0000
2020
,
0000
3030
0000
0010
0000
0010
0000
0100
,
0000
0000
0000
0020
0000
0030
0000
1000
,
0000
0000
0000
0020
0000
0030
0000
1000
,
0000
0000
0000
0002
0000
0003
0000
2020
,
0000
3030
0000
0010
0000
0000
0000
2000
,
0000
0000
0000
0000
0000
0000
0000
3010
,
0000
2002
0000
0000
3003
1000
0000
0000
,
0000
0200
0000
0000
0000
0300
0000
0002
,
0000
0000
0000
0103
0000
0000
0000
0020
,
0000
0000
0000
0130
0000
0100
0000
0000
,
0000
0020
0000
0000
0000
0130
0000
0001
,
0000
0000
0000
0010
0000
0000
0000
0010
,
0000
0000
0000
0001
0000
0000
0000
0020
,
0000
0030
0000
2000
0000
3000
0000
0002
,
0000
0003
0000
1001
0000
0000
0100
0000
,
0000
0000
1000
2000
0000
0000
3001
0000
,
0000
0000
0010
0020
0000
0000
1030
0000
,
0000
0001
0000
0200
,
0000
0000
0300
0100
,
0000
1000
0000
1000
,
0010
0010
0010
0000
0000
0000
1000
0000
,
0000
0001
0000
0020
,
0000
2030
0000
0000
3002
0000
0000
0000
,
2003
0000
0000
0000
,
0000
0000
0000
0000
0000
3010
0000
0000
,
0000
1000
0000
0000
0000
0010
0000
0000
,
0000
0100
0000
0000
0000
0001
0000
0000
,
0000
1000
0000
0000
0000
0010
0000
0000
,
0000
0000
0000
0010
0000
0000
0000
0000
,
0200
0000
0300
0000
0000
1000
0000
0000
,
0020
0000
0030
0000
0000
0001
0000
0000
,
0000
0100
0000
0000
0000
0200
0000
0320
,
0000
0000
0000
0030
0000
0100
0000
0000
,
0000
0100
0000
0000
0000
0010
0000
0000
,
0000
0010
0000
0000
0000
1000
0000
0000
,
0000
1000
0000
0000
0000
0010
0000
0000
,
0000
0010
0000
0000
0000
2002
0000
0000
,
0000
0000
0000
0000
0003
0002
0000
0000
,
0000
0000
3003
0000
;
