#TITLE:Beginning of the End;
#SUBTITLE:;
#ARTIST:Klayton (Celldweller);
#TITLETRANSLIT:;
#SUBTITLETRANSLIT:;
#ARTISTTRANSLIT:;
#CREDIT:;
#BANNER:Beginning of the End.png;
#BACKGROUND:Beginning of the End-bg.png;
#LYRICSPATH:;
#CDTITLE:./CDTITLES/Dance Dance Revolution SuperNOVA 2.png;
#MUSIC:Beginning of the End.mp3;
#OFFSET:1.667;
#SAMPLESTART:49.550;
#SAMPLELENGTH:15.000;
#SELECTABLE:YES;
#BPMS:0.000=136.000;
#STOPS:;
#BGCHANGES:;

//---------------dance-single - ----------------
#NOTES:
     dance-single:
     :
     Beginner:
     1:
     0.151,0.168,0.054,0.022,0.000:
0000
0000
0000
0000
,
1000
0000
0000
0010
,
0010
0000
0000
0100
,
0100
0000
0000
0001
,
0001
0000
0000
1000
,
1000
0000
0001
0000
,
0010
0000
0010
0000
,
0010
0000
0100
0000
,
1000
0000
0000
0000
,
0001
0000
0100
0000
,
0010
0000
0100
0000
,
0001
0000
1000
0000
,
1001
0000
0000
0000
,
0001
0000
0000
0000
,
1000
0000
0000
0000
,
0010
0000
0000
0000
,
0100
0000
0000
0100
,
0100
0000
0000
0000
,
0001
0000
0000
0000
,
0010
0000
0100
0000
,
0100
0000
0000
0000
,
1000
0000
0010
0000
,
1000
1000
0000
0000
,
0010
0000
0001
0000
,
1000
0000
0000
0000
,
0100
0000
0010
0000
,
0001
0001
0000
0000
,
0100
0000
0010
0000
,
0100
0000
0000
0000
,
0001
0001
0000
0001
,
0000
1000
0000
1000
,
0000
0100
0000
0100
,
0000
0010
0000
0100
,
0100
0100
0000
0010
,
0000
0010
0000
1000
,
0000
1000
0000
0001
,
0000
1001
0000
0000
,
0001
0000
0001
0001
,
0001
0000
1000
0000
,
0100
0000
0010
0010
,
0010
0000
1000
0000
,
0001
0000
0100
0100
,
0100
0000
0010
0000
,
0010
0000
0001
0001
,
0001
0000
0000
0000
,
2000
0000
0000
3000
,
1000
0000
0000
0000
,
0020
0000
0000
0030
,
0010
0000
0000
0000
,
0110
0000
0000
0000
,
0110
0000
0000
0000
,
0001
0000
1000
0000
,
1001
0000
0000
0000
;

//---------------dance-single - ----------------
#NOTES:
     dance-single:
     :
     Easy:
     4:
     0.249,0.280,0.075,0.075,0.000:
0000
0000
0000
0000
,
1000
0010
0100
0000
,
0001
0100
0001
0000
,
0010
1000
0001
0000
,
0100
0100
0010
0100
,
0001
0000
1000
0000
,
0010
0100
0001
0010
,
0100
0000
1000
0000
,
0010
0000
0100
0010
,
0001
0000
1000
0000
,
0001
0010
0100
0001
,
0010
0100
0010
0100
,
0110
0000
0000
1000
,
0010
0000
0100
0001
,
0010
0000
0100
1000
,
0010
0000
0001
1000
,
0100
0000
0010
0001
,
1000
0000
0010
0100
,
0010
0000
0001
0010
,
0001
1000
0001
1000
,
1001
0000
0000
0000
,
0010
0000
1000
0001
,
0010
0100
0100
0100
,
0010
0000
1000
0010
,
0100
0001
0001
0001
,
1000
0000
0100
0010
,
0001
1000
1000
1000
,
0010
0000
0100
0010
,
0110
0000
0000
0000
,
1000
0001
0000
1000
,
0001
0100
0000
0010
,
1000
0100
0000
1000
,
0001
0010
0100
0001
,
0010
0100
0000
1000
,
0010
0100
0000
0001
,
0010
0100
0000
1000
,
0001
1000
0010
0100
,
0001
0001
0000
1000
,
0010
0010
0000
0100
,
0001
0001
0000
0010
,
0100
1000
0001
0010
,
0100
0100
0000
0010
,
1000
1000
0000
0001
,
0010
0010
0000
0100
,
1000
0000
0000
0001
0000
0000
0000
0000
,
2000
0000
3000
1000
,
0020
0000
0030
0010
,
0200
0000
0300
0100
,
0110
0000
0000
0000
,
2002
0000
3003
0000
,
0220
0000
0330
0000
,
1000
0010
0100
0001
,
1001
0000
0000
0000
;

//---------------dance-single - ----------------
#NOTES:
     dance-single:
     :
     Medium:
     6:
     0.392,0.420,0.172,0.086,0.000:
0000
0000
0000
0000
,
1000
0001
0010
0011
,
0001
1000
0010
1010
,
0010
0100
0010
0110
,
0001
0000
0010
0000
0100
0000
1000
0010
,
0100
0001
1000
0010
,
1010
0000
2020
0000
3030
0000
1000
0001
,
0100
0010
0100
1000
,
1001
0000
2002
0000
3003
0000
1000
0010
,
0100
0001
0010
0100
,
0110
0220
0330
1000
,
0001
0000
1000
0010
0100
0000
1001
0000
,
0110
0000
0000
0000
,
1000
0000
0001
0000
0010
0100
1000
0000
,
0010
0001
1000
0001
,
0010
0000
0100
0000
1000
0010
0100
0000
,
0001
0000
0100
0000
1000
0000
0001
1000
,
0100
0000
0010
0000
0001
0100
0010
0000
,
1000
0001
1000
0100
,
0010
0000
1000
0001
0100
0000
0101
0000
,
1100
0000
0000
0000
,
0001
1000
0001
0010
,
0100
1000
0010
0000
0100
0001
0010
0000
,
0100
1000
0010
0100
,
0001
1000
0001
1000
0001
1000
0001
0000
,
0010
0100
1000
0001
,
0010
0100
1000
0000
0100
1000
0010
0000
,
0100
0001
0010
0100
,
1001
0000
0000
0000
,
1000
0100
1000
0000
0001
0100
0001
0000
,
0010
0000
0001
0000
0100
0001
0010
0000
,
0100
1000
0100
0000
0010
0001
0010
0000
,
0100
0000
1000
0000
0010
0100
0001
0010
,
0100
0010
0100
0000
1000
0001
1000
0000
,
0010
0000
0100
0000
0010
1000
0100
0000
,
0001
1000
0001
0000
0100
1000
0100
0000
,
1000
0000
0010
0000
0100
0000
0001
0010
,
0100
0010
0100
0000
0001
0010
0001
0000
,
1000
0000
0010
0000
0100
0001
0010
0000
,
0100
1000
0100
0000
0100
1000
0100
0000
,
0010
0001
0010
0000
0100
0000
1000
0000
,
0010
0100
0010
0000
0001
0010
0001
0000
,
1000
0000
0001
0000
0010
0100
1000
0000
,
1000
0010
0100
0000
1000
0010
0100
0000
,
0001
0000
0000
1000
0000
0000
0001
0000
,
0010
0100
1000
0001
,
0010
0100
1000
0010
,
0100
0001
0010
1000
,
0010
0001
0010
0100
,
1000
0000
0001
0020
0000
0000
0030
0000
,
1000
0000
0010
0200
0000
0000
0300
0000
,
0001
0000
1000
0010
0100
0000
0110
0000
,
1001
0000
0000
0000
;

//---------------dance-single - ----------------
#NOTES:
     dance-single:
     :
     Hard:
     8:
     0.541,0.558,0.172,0.043,0.161:
0000
0000
0000
0000
,
1000
0001
0010
0100
,
0001
1000
0010
0100
,
0001
1000
0100
0010
,
1000
0000
0000
0000
0100
0000
0000
0000
0010
0000
0000
0000
1000
0100
1000
0100
,
1000
0001
0000
1000
0000
0010
0000
1000
,
0000
1001
0000
1001
0000
0001
0000
0010
,
0001
0100
0010
0000
0000
0000
0010
0000
0000
0000
0100
0000
0000
0000
0001
0000
,
0000
0000
1000
0000
0000
0000
0001
0000
0000
0000
0010
0000
0001
0010
0000
0010
,
0001
1000
0000
0010
0000
0100
0000
0001
,
0000
0011
0000
0011
0000
0100
0000
0001
,
0010
0000
1000
0100
0010
1000
0001
0020
,
0000
0000
0000
0030
,
1001
0000
0000
0001
0100
0000
0000
0100
0010
0000
0000
0000
0100
0000
0000
0000
,
0010
0000
0000
0000
1000
0000
0000
0000
0001
0000
0000
1000
0100
0000
0010
0000
,
0011
0000
0000
0001
0100
0000
0000
0100
0010
0000
0000
0000
1000
0000
0000
0000
,
0010
0000
0000
0000
1000
0000
0000
0001
0100
0000
0000
0000
1000
0001
0000
0001
,
1000
0000
0000
1000
0100
0000
0000
0100
0010
0000
0000
0000
0001
0000
0000
0000
,
1000
0000
0000
0000
0100
0000
0000
0000
0001
0000
0000
0100
0010
0000
1000
0000
,
0010
0000
1000
0100
0010
0001
1000
0020
,
0000
0000
0000
0030
,
1000
0010
0000
0100
0000
0001
0000
1000
,
0010
0100
0010
0000
1000
0001
1000
0000
1001
0000
0000
0000
1001
0000
0010
0000
,
0100
1000
0000
0010
0000
0100
0000
0010
,
1000
0000
0100
0000
0010
0000
0000
0000
0001
0000
1000
0000
0001
0100
0000
0100
,
0010
1000
0000
0010
0000
0100
0000
0001
,
1000
0001
1000
0000
0010
1000
0010
0000
0100
0000
0010
0000
0100
0000
0001
0000
,
0010
0100
0000
1000
0000
0001
0100
0000
,
0220
0000
0000
0000
0000
0000
0330
1001
,
1000
0010
0100
0001
0010
0001
1000
0100
,
0010
1000
0010
0100
0001
1000
0100
0100
,
0100
0010
0001
1000
0010
0100
0010
1000
,
0001
0010
0100
0001
1000
0010
0001
0001
,
0001
0010
0100
1000
0010
1000
0100
1000
,
0010
0100
0001
0010
0100
1000
0001
0001
,
0001
0100
0010
1000
0100
0010
0100
0001
,
0010
0100
1000
0010
0100
0001
0101
0000
,
0010
0001
1000
0000
0100
0000
1000
0000
0010
0000
1000
0000
0100
0000
1000
0000
,
0001
0010
0100
0000
0010
0000
0001
0000
0100
0000
0010
0000
1000
0000
0010
0000
,
1000
0100
0010
0000
0100
0000
1000
0000
0010
0000
0100
0000
0001
0000
0100
0000
,
0001
1000
0010
0100
0001
0010
0001
0100
,
0010
1000
0001
0000
0100
0000
1000
0000
0001
0000
0100
0000
0010
1000
0001
0000
,
0010
0001
0100
0000
0001
0000
1000
0000
0100
0000
1000
0000
0001
0000
0100
0000
,
0010
0100
0001
0000
1000
0000
0100
0000
0010
0000
0001
0000
1000
0000
0010
0000
,
0110
0000
0000
0000
0010
0000
0110
0000
0000
0000
1000
0001
1000
0000
0000
0000
,
0001
0010
0100
1000
0001
0010
0100
1000
,
0010
0100
0001
1000
0010
0100
0001
1000
,
0100
0010
0001
1000
0100
0010
0001
1000
,
0001
0100
0010
1000
0001
0100
0010
1000
,
0001
0010
0100
1100
0000
0100
0000
0100
,
1000
0010
0100
0101
0000
0010
0000
0010
,
1000
0000
0010
0001
0100
0010
1000
1001
;

//---------------dance-double - ----------------
#NOTES:
     dance-double:
     :
     Easy:
     3:
     0.251,0.280,0.097,0.000,0.000:
00000000
00000000
00000000
00000000
,
00000001
00000100
00001000
00000000
,
00000100
00000010
00010000
00000000
,
00001000
00010000
00001000
00000000
,
00010000
00010000
00001000
00010000
,
00001000
00000000
00100000
00000000
,
00010000
01000000
00100000
10000000
,
00010000
00000000
01000000
00000000
,
00100000
00000000
10000000
01000000
,
00100000
00000000
00010000
00000000
,
01000000
00001000
00010000
00001000
,
00010000
00010000
00001000
00010000
,
00011000
00000000
00000000
00000100
,
00001000
00000000
00000010
00001000
,
00000001
00000000
00001000
00000100
,
00000001
00000000
00000100
00000010
,
00000001
00000000
00000100
00000010
,
00010000
00000000
00001000
00010000
,
01000000
00000000
00100000
00010000
,
00100000
00100000
00010000
00100000
,
00110000
00000000
00000000
00000000
,
10000000
00000000
00010000
10000000
,
00100000
01000000
01000000
01000000
,
00010000
00000000
00100000
00001000
,
00010000
00001000
00001000
00001000
,
00010000
00000000
00000100
00001000
,
00000001
00000100
00000100
00000100
,
00000010
00000000
00001000
00000001
,
00001001
00000000
00000000
00000000
,
00000010
00000010
00000000
00010000
,
00001000
00100000
00000000
00010000
,
00100000
00100000
00000000
00010000
,
10000000
01000000
10000000
00100000
,
01000000
01000000
00000000
00010000
,
00100000
00100000
00000000
00001000
,
00010000
00001000
00000000
00010000
,
00000100
00001000
00000010
00000100
,
00000001
00000001
00000000
00001000
,
00000010
00000010
00000000
00000100
,
00010000
00010000
00000000
01000000
,
00100000
10000000
01000000
10000000
,
00100000
00100000
00000000
01000000
,
00010000
00010000
00000000
00100000
,
00001000
00001000
00000000
00010000
,
00001000
00000000
00000000
00010000
00000000
00000000
00000000
00000000
,
00011000
00001000
00000100
00000000
,
00000110
00000010
00001000
00000000
,
00001010
00000010
00010000
00000000
,
00001000
00100000
00010000
01000000
,
01010000
00000000
00000000
00000000
,
00011000
00000000
00000000
00000000
,
00001000
00001000
00010000
00001000
,
00011000
00000000
00000000
00000000
;

//---------------dance-double - ----------------
#NOTES:
     dance-double:
     :
     Medium:
     5:
     0.398,0.420,0.204,0.065,0.000:
00000000
00000000
00000000
00000000
,
00000001
00000100
00000010
00000110
,
00000010
00001000
00000100
00001100
,
00000100
00010000
00001000
00011000
,
00001000
00000000
01000000
00000000
00100000
00000000
00010000
00100000
,
01000000
10000000
00010000
01000000
,
01010000
00000000
11000000
00000000
01010000
00000000
00010000
10000000
,
01000000
00010000
00100000
00001000
,
00011000
00000000
00110000
00000000
00011000
00000000
00010000
00001000
,
00000100
00000010
00001000
00000100
,
00000110
00000011
00000110
00000001
,
00000100
00000000
00000010
00001000
00000001
00000000
00001100
00000000
,
00022000
00000000
00033000
00000000
,
00001000
00000000
00100000
00000000
00010000
01000000
10000000
00000000
,
01000000
00010000
00100000
01000000
,
00010000
00000000
10000000
00000000
00100000
01000000
00010000
00000000
,
00100000
00000000
00001000
00000000
00010000
00000000
00001000
00010000
,
00001000
00000000
00010000
00000000
00000100
00000010
00000001
00000000
,
00001000
00000010
00000100
00000001
,
00000100
00000000
00000010
00001000
00000100
00000000
00001001
00000000
,
00000220
00000000
00000330
00000000
,
00000010
00010000
00001000
00100000
,
01000000
10000000
00100000
00000000
01000000
00010000
10000000
00000000
,
00010000
01000000
00100000
10000000
,
00010000
00100000
00010000
00100000
00010000
00100000
00010000
00000000
,
00100000
00001000
00100000
00010000
,
00100000
00001000
00010000
00000000
00001000
00000100
00000010
00000000
,
00000100
00000001
00000010
00000100
,
00000220
00000000
00000330
00000000
,
00000001
00000010
00000001
00000000
00001000
00000010
00001000
00000000
,
00000100
00000000
00010000
00000000
00001000
00010000
00001000
00000000
,
00100000
00010000
00100000
00000000
01000000
10000000
01000000
00000000
,
00100000
00000000
00010000
00000000
01000000
00100000
10000000
01000000
,
00100000
01000000
00100000
00000000
00010000
10000000
00010000
00000000
,
01000000
00000000
00010000
00000000
00100000
00010000
00100000
00000000
,
00001000
00010000
00001000
00000000
00010000
00001000
00010000
00000000
,
00000100
00000000
00000010
00000000
00001000
00000000
00000010
00000100
,
00000001
00000100
00000001
00000000
00000100
00000010
00000100
00000000
,
00000010
00000000
00001000
00000000
00000100
00010000
00000100
00000000
,
00010000
00001000
00010000
00000000
00010000
00001000
00010000
00000000
,
01000000
00100000
01000000
00000000
10000000
00000000
00100000
00000000
,
10000000
00010000
10000000
00000000
00100000
00010000
00100000
00000000
,
01000000
00000000
10000000
00000000
00010000
01000000
00010000
00000000
,
00100000
00001000
00010000
00000000
00100000
00001000
00010000
00000000
,
00000100
00000000
00000000
00010000
00000000
00000000
00000010
00000000
,
00001000
00000100
00000001
00000100
,
00001000
00000001
00000100
00010000
,
01000000
00100000
10000000
01000000
,
00010000
01000000
10000000
00100000
,
01000000
00000000
00010000
10000000
00000000
00000000
00000000
00000000
,
00100000
00000000
01000000
00001000
00000000
00000000
00000000
00000000
,
00010000
00000000
00001000
00010000
00000100
00000000
00010100
00000000
,
00011000
00000000
00000000
00000000
;

//---------------dance-double - ----------------
#NOTES:
     dance-double:
     :
     Hard:
     8:
     0.557,0.539,0.366,0.237,0.253:
00000000
00000000
00000000
00000000
,
20000000
01000000
01000000
31000000
,
00020000
00001000
00001000
00031000
,
00000200
00000001
00000001
00000301
,
00001100
00011000
00110000
10010000
,
00010000
00100000
10000000
00100000
,
00020000
01000000
00100000
01030000
,
00100000
00010000
00000000
00000000
01000000
00010000
00000000
00000000
00100000
00001000
00000000
00000000
00010000
00001000
00000000
00000000
,
00100000
00010000
00000000
00000000
01000000
00010000
00000000
00000000
00100000
00001000
00000000
00000000
00010000
00001000
00000000
00001000
,
00010000
00001000
00000100
00000001
,
00000020
00001000
00000001
00001030
,
00000100
00001000
00000000
00000000
00000010
00001000
00000000
00000000
00000100
00010000
00000000
00000000
00001000
00010000
00000000
00000000
,
00000100
00001000
00000000
00000000
00000010
00001000
00000000
00000000
00000100
00010000
00000000
00000000
00001000
00010000
00000000
00010000
,
00002000
00203000
02300000
13000000
,
10010000
11000000
10010000
01010000
,
10000000
00100000
01000000
00010000
00100000
00001000
00010000
00000100
,
00001000
00000100
00000000
00000000
00001000
00000010
00000000
00000000
00000100
00000001
00000000
00000000
00001000
00000010
00000000
00000000
,
00002000
00003200
00000320
00000031
,
00001001
00000011
00001001
00001010
,
00000001
00000100
00000010
00001000
00000100
00010000
00001000
00100000
,
00010000
01000000
00000000
00000000
00100000
10000000
00000000
00000000
00100000
01000000
00000000
00000000
00010000
10000000
00000000
10000000
,
00010000
01010000
10000000
11000000
,
10000000
00100000
01000000
00010000
10000000
00010000
01000000
00001000
,
00010000
00010100
00001000
00001100
,
00000011
00000000
00000000
00000000
00000101
00000000
00000000
00000000
00001001
00000000
00000000
00000000
00000100
00000010
00000000
00000010
,
00000100
00001100
00000001
00000101
,
00000001
00000100
00000010
00001000
00000001
00001000
00000010
00010000
,
00001000
00101000
00010000
00110000
,
20020000
00000000
30030000
01100000
,
00100000
10000000
00100000
10000000
00010000
01000000
00010000
01000000
,
00100000
10000000
00010000
00100000
00001000
00010000
00000100
00001000
,
00000001
00000100
00000001
00000100
00000010
00001000
00000010
00001000
,
00000001
00000100
00001000
00010000
00000000
00100000
00100000
00100000
,
10000000
00010000
00000000
00000000
10000000
00100000
00000000
00000000
01000000
00010000
00000000
00000000
00010000
10000000
00000000
10000000
,
01000000
10000000
00010000
00100000
00001000
00010000
00000100
00001000
,
00000010
00001000
00000000
00000000
00001000
00000100
00000000
00000000
00000010
00000001
00000000
00000000
00000001
00001000
00000000
00001000
,
00000001
00000100
00000010
00000100
00000000
00001000
00001000
00001000
,
00100000
00010000
00100000
00010000
10000000
01000000
10000000
01000000
,
00100000
00010000
10000000
00100000
01000000
00001000
00010000
00000100
,
00001000
00000010
00001000
00000010
00000100
00000001
00000100
00000001
,
00000010
00000100
00001000
00000010
00000000
00000100
00000100
00000100
,
00001000
00010000
00000000
00000000
00001000
00100000
00000000
00000000
00100000
00010000
00000000
00000000
10000000
00010000
00000000
00010000
,
01000000
00100000
01000000
00010000
00100000
01000000
10000000
01000000
,
00010000
00001000
00000000
00000000
00001000
00010000
00000000
00000000
00010000
00000100
00000000
00000000
00000100
00000000
00000010
00000000
,
00001001
00000000
00000100
00001001
00000000
00000010
00000100
00000010
,
00002002
00000000
00000000
00000000
,
00000000
00000000
00000000
00003003
,
00000001
00000100
00001000
00010000
,
01000000
10000000
00100000
00010000
,
00022000
00000000
00033000
00011000
00000000
00001000
00000100
00000010
,
00000220
00000000
00000330
00000110
00000000
00000100
00001000
00010000
,
00022000
00000000
00033000
00011000
00000000
00010000
00100000
01000000
,
20000000
00000000
00000000
30000000
;

//---------------dance-single - Copied from----------------
#NOTES:
     dance-single:
     Copied from:
     Challenge:
     9:
     0.909,0.957,0.732,0.151,1.000: // measure 1
0000
0000
0000
0000
,  // measure 2
1010
1001
1010
0110
,  // measure 3
0101
1010
1010
0110
,  // measure 4
0101
1010
0101
0110
,  // measure 5
1010
0000
0000
0000
0101
0000
0000
0000
1010
0000
0000
0000
1000
0010
1000
0010
,  // measure 6
1000
0101
0000
1010
0000
0110
0000
1010
,  // measure 7
0000
1001
0000
1001
0000
1001
0000
0010
,  // measure 8
0001
0100
0010
0000
0000
0000
1010
0000
0000
0000
0101
0000
0000
0000
1001
0000
,  // measure 9
0000
0000
1010
0000
0000
0000
1001
0000
0000
0000
0010
0000
0001
1000
0001
1000
,  // measure 10
0001
1010
0000
0110
0000
0110
0000
1001
,  // measure 11
0000
0101
0000
0011
0000
1100
0000
0001
,  // measure 12
1000
0010
1000
0100
0010
0001
2000
0020
,  // measure 13
0000
0000
0000
3030
,  // measure 14
1000
0001
1000
0000
0010
0100
0010
0000
1000
0001
1000
0000
0010
0100
0010
0000
,  // measure 15
0000
0000
1000
0100
0010
0001
1000
0001
0100
0010
0100
0001
1000
0001
1000
0001
,  // measure 16
1000
0000
0010
0100
0010
0000
1000
0001
1000
0000
0010
0100
0010
0000
1000
0100
,  // measure 17
1000
0000
0001
0100
0001
0000
1000
0100
1000
0000
0000
0000
1000
0001
1000
0001
,  // measure 18
1000
0000
0010
0100
0010
0000
1000
0001
1000
0000
0010
1000
0010
0000
1000
0001
,  // measure 19
1000
0000
0001
0100
0001
0000
0100
1000
0100
0000
0010
0100
0010
0000
1000
0000
,  // measure 20
0010
0100
1000
0100
0010
1000
0002
2000
,  // measure 21
0000
0000
0000
0000
,  // measure 22
3003
1010
0000
0101
0000
0101
0000
1001
,  // measure 23
0000
0110
0000
1010
0000
0101
0000
1010
,  // measure 24
0000
1001
0000
1010
0000
0110
0000
0011
,  // measure 25
0000
0000
1100
0000
0000
0000
0110
0000
0000
0000
1001
0000
0010
0100
0010
0100
,  // measure 26
0010
1001
0000
0110
0000
1010
0000
0101
,  // measure 27
0000
1010
0000
0110
0000
1010
0000
1001
,  // measure 28
0000
0110
0000
1001
0000
0101
0000
1010
,  // measure 29
1000
0010
0100
0001
0010
0100
1000
0010
0100
0001
0010
0100
1000
0010
0100
0000
,  // measure 30
0001
0010
0100
1000
0010
1000
0100
0010
0001
0100
0001
0010
0100
1000
0010
0100
,  // measure 31
0001
0010
0100
1000
0010
0100
0001
0010
0100
1000
0010
0100
0001
0010
0100
1000
,  // measure 32
0001
0100
0001
1000
0001
0100
0010
0100
0001
0100
0010
1000
0001
0010
0100
1000
,  // measure 33
0001
0100
0010
0001
0010
0100
1000
0100
0010
1000
0010
0100
0001
0010
0100
1000
,  // measure 34
0001
1000
0100
1000
0001
1000
0100
0010
0100
1000
0100
0010
0100
1000
0100
0010
,  // measure 35
0001
1000
0001
0100
0001
1000
0001
0100
0001
1000
0100
0010
0001
0100
0010
1000
,  // measure 36
0100
0010
0001
0010
0100
1000
0100
0010
0001
0010
0100
1000
0100
0010
0001
1000
,  // measure 37
0010
1000
0001
0100
0001
1000
0010
1000
0001
0100
0001
1000
0010
0100
0010
1000
,  // measure 38
0001
0010
0100
1000
0001
0010
0100
0010
0001
0010
0100
1000
0001
0010
0100
0010
,  // measure 39
0001
1000
0001
0100
0001
1000
0001
0100
0001
0010
0100
1000
0010
0100
0001
0010
,  // measure 40
0100
1000
0001
0100
1000
0100
0010
0100
0001
0010
0100
1000
0010
0100
0001
0010
,  // measure 41
0100
1000
0010
0100
0001
1000
0010
0100
0001
0010
0100
1000
0100
0010
0100
1000
,  // measure 42
0100
0010
0001
0010
0100
1000
0100
0010
0001
0100
1000
0100
0010
0100
0010
1000
,  // measure 43
0010
0100
0010
1000
0010
0100
0010
1000
0100
0010
0001
1000
0010
1000
0100
0010
,  // measure 44
0001
1000
0100
1000
0001
0010
0001
0100
0010
0100
0001
1000
0001
0010
0100
0000
,  // measure 45
0220
0000
0330
2002
0000
0000
0000
3003
,  // measure 46
0001
0010
0100
1000
0010
0100
0001
0010
0100
1000
0010
0100
0001
0010
0100
1000
,  // measure 47
0010
0100
0001
0010
0100
1000
0010
0100
0001
0010
0100
1000
0010
0100
0001
0010
,  // measure 48
0100
1000
0010
0100
0001
0010
0100
1000
0010
0100
0001
0010
0100
1000
0010
0100
,  // measure 49
0001
0010
0100
1000
0010
0100
0001
0010
0100
1000
0010
0100
0001
1000
0001
0000
,  // measure 50
2001
0000
3001
0120
0000
1000
0031
0100
,  // measure 51
1020
0000
0130
0201
0000
0310
1000
0001
,  // measure 52
0100
1000
0100
0010
0001
0010
1000
2002
,  // measure 53
0000
0000
0000
0000
,  // measure 54
0000
0000
0000
0000
0000
0000
0000
3003
;
