#TITLE:バルベリア・タンゴ;
#SUBTITLE:;
#ARTIST:ARM (IOSYS) x パプリカ (豚乙女);
#TITLETRANSLIT:;
#SUBTITLETRANSLIT:;
#ARTISTTRANSLIT:ARM (IOSYS) x Paprika (Butaotome);
#GENRE:;
#CREDIT:;
#BANNER:;
#BACKGROUND:;
#LYRICSPATH:;
#CDTITLE:;
#MUSIC:Barberia tango.mp3;
#OFFSET:-0.100000;
#SAMPLESTART:42.576996;
#SAMPLELENGTH:12.000000;
#SELECTABLE:YES;
#BPMS:0.000000=175.000000
,126.500000=87.550003
,128.000000=175.000000
,192.500000=87.550003
,208.500000=43.775002
,216.000000=87.550003
,233.000000=175.000000
;
#STOPS:
;
#BGCHANGES:-0.000=05 RageDDRII.avi=1.000=1=0=1===CrossFade==,
99999=-nosongbg-=1.000=0=0=0 // don't automatically add -songbackground-
;
#KEYSOUNDS:;
#ATTACKS:;

//---------------dance-single - ----------------
#NOTES:
     dance-single:
     :
     Hard:
     17:
     0.809349,1.180971,0.214600,0.293287,0.969277,792.000000,762.000000,30.000000,41.000000,0.000000,0.000000,0.809349,1.180971,0.214600,0.293287,0.969277,792.000000,762.000000,30.000000,41.000000,0.000000,0.000000:
0000
0000
0000
0000
0000
0000
0000
0000
0001
0000
1000
0100
1000
0000
0001
0000
,
0100
0010
0100
0000
0002
0000
1000
0000
1003
0000
0100
1000
0100
0000
0010
0000
,
0001
0010
0001
0000
0010
0000
0100
0000
1100
0000
0000
0011
0000
0000
1001
0000
,
0000
0000
1000
0000
0010
0100
0010
0100
0002
0000
0000
0000
0000
0000
0000
0000
,
1003
0000
0000
0000
0000
0000
0000
0000
0001
0010
0100
1000
0001
0010
0100
1000
,
0001
0001
0000
1000
1000
0010
0100
0001
,
0010
0000
0100
0000
1000
0000
1000
0000
0001
1000
0010
0100
0001
1000
0010
0100
,
0001
0000
0001
0000
0000
0000
0100
0000
0100
0000
0010
0000
1000
0000
0001
0010
,
0001
0000
0010
0000
0100
0000
1000
0001
1000
0000
0010
0000
0000
0000
0100
0000
,
0001
0000
1000
0100
1000
0100
1000
0100
0010
0000
0000
0000
0011
0000
0000
0000
,
0000
0001
0010
0100
0001
0100
1000
0010
,
0100
1000
0100
0001
0010
0010
0100
0100
,
1000
0000
1000
0000
0001
0000
0001
0100
0010
0000
0000
0000
0100
0000
0010
0000
,
2000
0000
0000
0000
3001
0000
0010
0001
0100
0000
0010
1000
0100
0000
0010
0001
,
0100
0000
0010
1000
0001
0000
0100
0001
2000
0000
0000
0000
3100
0000
0010
0000
,
0002
0000
0000
0000
0013
0000
0100
1000
0001
0000
0100
0001
1000
0000
0100
1000
,
0001
0000
0100
0010
1000
0000
0100
0010
0002
0000
0000
0000
0013
0000
0100
0000
,
2000
0000
0000
0000
3001
0000
1000
0001
1000
0000
0000
0000
0220
0000
0000
0000
,
0330
0000
1000
0000
0001
0000
0010
0000
0100
1000
0100
1000
0100
0000
0010
0000
,
0001
0100
0000
0100
0010
1000
0000
1000
,
0001
0000
0100
0000
0000
0000
0010
1000
0010
0000
0100
0000
0001
0000
0010
0000
,
0200
0000
0000
0000
0310
0000
0001
0010
0100
0000
0010
0100
1000
0000
0100
1000
,
0001
0000
0100
0001
0010
0000
0100
0000
2000
0000
0000
0000
3010
0000
0100
0000
,
0002
0000
0000
0000
1003
0000
0010
0100
0001
0000
0100
0010
1000
0000
0010
1000
,
0100
0000
1000
0100
0010
0000
0001
0000
1000
0100
0010
0100
1000
0100
0010
0100
,
1000
0100
0010
0100
1000
0100
0010
0100
1000
0100
0010
0100
1000
0100
0010
0100
,
1000
0000
0100
0000
0010
0000
0001
0000
1000
0010
0100
0010
1000
0010
0100
0010
,
1000
0010
0100
0010
1000
0010
0100
0010
1000
0010
0100
0010
1000
0010
0100
0010
,
1000
0000
0001
0000
0100
0000
0001
0000
1000
0010
1000
0010
0100
0001
0100
0001
,
0010
0100
0010
0100
1000
0001
1000
0001
0200
0010
0300
0000
2002
0000
3003
0000
,
0000
0010
0100
0010
1000
0001
0010
0100
,
0010
0000
0001
0000
1000
0000
0100
0000
0010
0000
0001
0001
0010
0010
0100
0100
,
1000
0001
1000
0000
0000
0000
0001
0000
1000
0000
0010
0000
0000
0000
0100
0000
,
0001
0000
0010
0000
0010
0000
0100
0000
2000
0000
0000
0000
3001
0000
1000
0100
,
0010
0001
0100
0000
0010
0000
1000
0000
0001
0000
0000
0000
0100
0000
0001
0000
,
0010
0100
0100
0010
0002
0000
1003
0010
,
1000
0000
0200
0000
0000
0000
0310
0000
0100
0000
1000
0000
0000
0001
0000
0000
,
0100
0101
0000
1010
0000
0000
0010
1000
,
0001
0000
0100
0010
0100
0010
1000
0000
0001
0000
0000
0000
0100
0010
0100
0010
,
1000
0000
0000
0000
0001
0010
0001
0010
0100
0000
0000
0000
1000
0010
1000
0010
,
0100
0000
0001
0010
0100
1000
0001
0010
0100
1000
0001
0010
0100
1000
0001
0010
,
0100
1000
0001
0010
0100
1000
0001
0010
0100
1000
0001
0000
0100
0000
0010
0000
,
1000
0000
1000
0010
0100
0001
1000
0010
0100
0001
1000
0010
0100
0001
1000
0010
,
0100
0001
1000
0010
0100
0001
1000
0010
0100
0001
1000
0000
0010
0000
0100
0000
,
0001
0000
0001
0000
1000
0000
0010
0000
1000
0000
0001
0000
0100
0000
0001
1000
,
0001
1000
0001
0000
0000
0000
2002
0000
3003
0000
0000
0000
0100
0000
0010
0000
,
1000
0101
0000
0000
0001
1100
0000
0000
,
1000
0000
0101
0000
0000
0000
1001
0000
0000
0000
0110
0000
0000
0000
0010
1000
,
0001
0000
1000
0001
0100
0100
0010
0010
1000
1000
0001
0010
0100
1000
0010
0100
,
0001
0100
0010
1000
0001
0010
0100
1000
0100
0001
0100
1000
0010
0100
1000
0100
,
0001
0000
0010
0000
0100
0000
1000
0100
1000
0100
1000
0001
0100
0000
0010
0100
0010
0100
0010
1000
0001
0000
0100
0001
0100
0001
0100
0010
1000
0000
0001
0010
,
0001
0010
0001
1000
0020
0000
0100
0000
0100
0000
0130
0000
0002
0000
1000
0000
1000
0000
1003
0000
0200
0000
0010
0000
0010
0000
0310
0000
0002
0000
0100
0000
,
0100
0000
0000
0103
0000
0000
0010
0000
0000
0000
0000
0010
0100
0000
0000
0000
0000
0001
1000
0000
0000
0000
0000
0100
0010
0000
0000
0000
0000
0001
0010
0000
0000
0000
0000
0001
1000
0000
0000
0000
0000
0100
1000
0000
0000
0000
0000
0010
,
0100
0000
0000
0000
0000
0000
0001
0000
0000
0000
0000
1000
0010
0000
0000
0000
0000
0100
0001
0000
0000
0000
0000
0010
0001
0000
0000
0000
0000
1000
0001
0000
0000
0000
0000
0100
0010
0000
0000
0000
0000
1000
0100
0000
0000
0000
0000
0000
,
1000
0100
0010
0001
1000
0010
0100
0001
1000
0100
0010
0001
1000
0010
0100
0001
,
1000
0000
0100
0000
0010
0000
0001
0000
0010
0100
0010
0100
1000
0001
1000
0001
0100
0010
0100
0010
1000
0100
1000
0100
0010
0000
0001
0000
0100
0000
0010
0000
,
0100
0000
0001
0000
1000
0000
0001
0000
1001
0000
0000
0000
0000
0000
0010
1000
0001
0000
0000
0000
0000
0000
0100
0001
1000
0000
0000
0000
2002
0000
0000
0000
,
3003
0000
0000
0000
0100
0000
0001
1000
0100
0000
0000
0000
1000
0000
0010
0100
0001
0000
0000
0000
0010
0000
0100
1000
0001
0000
0000
0000
0100
0000
0010
1000
,
0100
0000
0010
0000
0001
0100
0010
0100
0001
0100
0010
0100
0001
0000
1000
0000
,
0000
0001
0001
1000
0010
0100
0002
0000
,
1003
0000
0000
0000
0001
1000
0010
1000
0001
1000
0010
1000
0001
1000
0010
1000
,
0001
1000
0010
0000
2002
0000
3003
0000
0220
0000
0000
0000
0000
0000
0330
0000
,
2020
0000
3030
0000
1000
0001
0100
0001
1000
0001
0100
0001
1000
0001
0100
0001
,
1000
0000
0000
0001
0000
0000
0100
0000
0000
0001
0000
0000
1000
0000
0000
0000
0000
0000
0010
0000
0100
0000
0000
0000
0010
0000
0100
0000
0000
0000
0001
0000
1000
0000
0000
0000
0001
0000
1000
0000
0000
0000
0100
0000
0010
0000
0000
0000
,
0100
0000
0010
0000
0000
0000
0001
0000
1000
0000
0000
0000
0001
0000
0000
0100
0000
0000
0001
0000
0000
1000
0000
0000
0100
0000
0000
1000
0000
0000
0001
0000
0000
0100
0000
0000
0001
0000
0000
1000
0000
0000
0100
0000
0000
1000
0000
0000
,
0001
0100
0001
1000
0100
1000
0001
0100
0001
1000
0100
1000
0001
0100
0001
1000
,
0100
1000
0001
0100
0010
1000
0010
0100
0001
0100
0010
1000
0010
0100
0001
0100
,
0010
1000
0010
0100
0001
0100
0010
1000
0010
0100
0001
0100
0010
1000
0010
0100
,
0001
0100
0010
1000
0010
0000
0101
0000
0010
0000
1100
0000
0001
0000
0110
0000
,
1000
0011
0100
1010
0001
1100
0011
0000
,
2002
3003
0220
0000
0000
0330
2002
0000
,
0000
0000
3003
0220
0000
0000
0000
0000
,
0000
0000
0000
0000
,
0000
0000
0000
0330
0000
0000
0000
0000
;

//---------------dance-single - ----------------
#NOTES:
     dance-single:
     :
     Medium:
     12:
     0.548763,0.866046,0.221753,0.371974,0.139490,537.000000,506.000000,31.000000,52.000000,0.000000,0.000000,0.548763,0.866046,0.221753,0.371974,0.139490,537.000000,506.000000,31.000000,52.000000,0.000000,0.000000:
0000
0000
0000
0000
1000
0001
0100
0010
,
0000
0010
2000
0000
3001
0010
0001
0100
,
0000
0000
0100
0000
0010
0000
1000
0000
0001
0000
0000
0100
0000
0000
0110
0000
,
0000
0010
1000
0000
2000
0000
0000
0000
,
3001
0000
0000
0000
1000
0010
0100
0001
,
0010
0010
0000
0100
0100
1000
0010
1000
,
0100
0010
0001
0001
1000
0100
0010
0001
,
1000
1000
0000
0001
0001
0100
0010
1000
,
1000
0100
0010
0001
1000
0001
0000
1000
,
0100
1000
0001
0010
0001
0000
1001
0000
,
0000
1000
0100
0010
0100
0010
0000
0100
,
0010
0001
0010
0100
1000
1000
0001
0001
,
0100
0000
0100
0000
0010
0000
0010
1000
0001
0000
0000
0000
0001
0000
1000
0000
,
0200
0000
0000
0310
0001
0010
0100
1000
,
0010
0000
0100
0000
0001
0000
1000
0001
2000
0000
0000
0000
3010
0000
0100
0000
,
0020
0000
0130
0001
0100
0010
1000
0001
,
0100
0000
0001
0000
0010
0000
0100
1000
0200
0000
0000
0000
0310
0000
0001
0000
,
2000
0000
3010
0100
0001
0000
0202
0000
,
0303
0001
1000
0100
0010
0100
1000
0001
,
1000
0010
0000
0010
0100
0001
0000
0001
,
1000
0000
0010
0000
0000
0000
0100
0001
0100
0000
0000
0000
0000
0000
0100
0000
,
0020
0000
0130
0010
1000
0010
0100
0001
,
0100
0001
0010
0001
0002
0000
0003
1000
,
2000
0000
3000
0001
0100
0001
1000
0100
,
1000
0010
0100
0010
0100
0001
0100
0010
,
1000
0001
1000
0010
0100
0001
0010
0001
,
0010
0100
0100
0100
1000
0100
0010
0100
,
1000
0001
0010
0001
1000
0100
1000
0001
,
0100
0010
0010
0010
0200
0000
0302
0000
,
0203
0320
1030
1001
,
0000
1000
0001
0010
0002
0000
0013
0100
,
1000
0000
0001
0000
0010
0000
0100
0000
1000
0000
1000
0100
0010
0001
1000
0100
,
0010
0001
0000
1000
0001
0100
0000
0010
,
1000
0001
0001
0100
0020
0000
1030
0100
,
0010
0001
0100
0001
1000
0000
0001
1000
,
0010
0100
0100
0001
0020
0000
0130
1000
,
0001
0000
0200
0000
0000
0000
0310
0000
1000
0000
0001
0000
0000
0100
0000
0000
,
0010
1010
0000
0101
0000
0000
0001
1000
,
0100
0000
0010
0000
0010
0000
0001
0000
1000
0000
0000
0000
0010
0000
1000
0100
,
1000
0000
0000
0000
0001
0000
0010
0001
0010
0000
0000
0000
0100
0000
1000
0001
,
1000
0001
0010
0100
0010
0001
0010
0100
,
0010
0001
0010
0100
0010
0001
1000
0001
,
0001
0001
0100
0010
0100
0001
0100
0010
,
0100
0001
0100
0010
0100
0001
0100
0010
,
0010
0010
1000
0001
0100
0010
0100
0001
,
1000
0001
1000
0000
0000
0000
1001
0000
0000
0000
0000
0000
0001
0000
1000
0000
,
0001
1001
0000
0000
1000
1010
0000
0000
,
0001
0011
0000
0110
0000
1100
0000
1000
,
0000
0000
0001
1000
0001
1000
0001
1000
0001
1000
0010
0100
0010
1000
0100
1000
,
0001
0010
0001
0100
0010
0100
0001
0010
0100
1000
0001
0010
0001
1000
0100
1000
,
0010
0100
0002
0000
0000
0000
0203
0000
0000
0000
2300
0000
0000
0000
3200
0000
,
0000
0302
0000
0023
0000
2030
0000
3020
,
0000
0032
0013
0200
1300
0020
0130
0002
,
0013
0002
0103
0020
1030
0200
1300
0020
,
0130
0001
1000
0001
0100
0010
0100
0001
,
1000
0000
0100
0000
1000
0100
0010
0001
0010
0100
1000
0001
0100
0100
0001
0001
,
1000
1000
0001
0001
1001
0000
0000
0100
0110
0000
0000
0010
1010
0000
0101
0000
,
0000
0001
0011
0001
1001
0001
0101
0100
,
0110
0010
1000
0001
1000
0100
1000
0001
,
0000
0100
0100
0001
0100
0010
2000
0000
,
3001
0000
1000
0010
1000
0001
1000
0010
,
1000
0001
2000
0000
3020
0000
0000
0000
,
0130
0000
0001
0010
0001
1000
0001
0010
,
0001
1000
0001
0200
0320
2030
3002
0023
,
0230
2300
3001
1000
0010
1000
0001
1000
,
0010
1000
0001
1000
0010
1000
0001
1000
,
0010
1000
0001
0100
0010
0100
1000
0100
,
0010
0100
1000
0100
0010
0100
1000
0100
,
0010
0100
1000
1100
0100
0101
0001
0011
,
0010
0110
0100
1100
1000
1001
1001
0000
,
0110
0000
2002
0000
0000
3003
0220
0000
,
0000
0000
0330
2002
0000
0000
0000
0000
,
0000
0000
0000
0000
,
0000
0000
0000
3003
0000
0000
0000
0000
;

//---------------dance-single - ----------------
#NOTES:
     dance-single:
     :
     Easy:
     5:
     0.296353,0.446145,0.071533,0.314747,0.000000,290.000000,280.000000,10.000000,44.000000,0.000000,0.000000,0.296353,0.446145,0.071533,0.314747,0.000000,290.000000,280.000000,10.000000,44.000000,0.000000,0.000000:
0000
0000
0000
0000
0001
0000
0000
1000
,
0000
0000
0001
0000
1000
0000
0000
0010
,
0000
0000
0100
0000
0001
0000
0000
1000
,
0000
0010
0020
0000
,
0130
0000
0001
1000
,
0100
0000
0010
0001
,
1000
0010
0100
0001
,
1000
0000
0100
0010
,
0001
0100
0010
0000
,
0100
0001
1000
1001
,
0000
0010
0100
0000
,
0001
0100
0001
1000
,
0010
0000
0100
0000
0001
0000
0000
1000
,
2000
0000
3001
0010
,
0100
1000
2000
0000
,
3020
0000
0130
0001
,
1000
0010
0020
0000
,
0230
0000
0301
1001
,
0000
1000
0010
0100
,
0001
0100
0000
0100
0000
0010
0000
0010
,
0000
1000
0000
0010
0010
0000
0000
0100
,
0200
0000
0301
0001
,
1000
0000
0010
0000
0200
0000
0000
0301
,
0002
0003
0100
0001
,
1000
0000
0010
0000
0100
0010
0100
0010
,
0100
0010
0100
0010
0100
0010
0100
0010
,
0100
0020
0000
0000
1030
0001
1000
0001
,
1000
0001
1000
0001
1000
0001
1000
0001
,
1000
0002
0000
0000
0013
0000
0100
0000
,
1000
0010
0100
0110
,
0000
1000
0002
0000
,
1003
0000
0020
0000
,
0030
1000
0000
0000
0000
0010
0000
0000
,
0000
1000
0000
0000
0200
0000
0300
0010
,
0000
1000
0000
0001
0000
0000
0000
0001
,
0000
0010
0000
1000
0200
0000
0300
0001
,
0000
0020
0000
0030
0000
1000
0000
0001
,
0000
0001
0000
1010
0000
0000
1000
0001
,
0000
0100
0000
1000
0000
0000
0002
0000
,
0003
2000
3000
0020
,
0030
1000
0000
0001
0000
1000
0000
0001
,
0000
1000
0000
0001
0000
1000
0001
1000
,
0001
1000
0000
0010
0000
0100
0000
0010
,
0000
0100
0000
0010
0000
0100
0010
0100
,
0010
0100
0000
0001
0000
1000
0000
0001
,
1000
0001
0000
1001
0000
0000
0000
0000
,
1000
1000
0000
0000
0001
0001
0000
0000
,
1000
1000
0000
0010
0000
0110
0000
0001
,
0000
1000
0001
1000
0001
1000
0001
0100
,
0010
0100
0010
1000
0100
1000
0100
0010
,
0001
2000
0000
3020
0000
0230
0000
0320
,
0000
2030
0000
3200
0000
0320
0000
0230
,
0000
2300
0000
3002
0000
0203
0000
0320
,
0000
2030
0000
3002
0000
0023
0000
0230
,
1300
0001
1000
0001
,
1000
0000
0010
0100
0010
0100
0020
0000
,
0000
0030
1001
0000
0110
0000
1001
0001
,
0000
1000
0001
1000
0001
1000
0001
1000
,
0001
1000
0001
0000
1000
0000
0010
0000
,
0000
0010
0100
0002
,
1003
0010
0100
0010
,
0100
0002
2003
0000
,
3010
1000
0001
1000
,
0001
2000
0000
0000
,
0000
3001
0100
0001
,
0100
0001
0100
0001
,
1000
0001
1000
0000
0100
0000
1000
0000
,
0100
0000
1000
0000
0100
0000
1000
0001
,
1000
0001
1000
0010
,
0100
0010
1000
0001
,
1000
0002
0000
2003
,
0000
0000
3000
2002
0000
0000
0000
0000
,
0000
0000
0000
0000
,
0000
0000
0000
3003
0000
0000
0000
0000
;

//---------------dance-single - ----------------
#NOTES:
     dance-single:
     :
     Beginner:
     3:
     0.180877,0.288682,0.035767,0.214600,0.000000,177.000000,172.000000,5.000000,30.000000,0.000000,0.000000,0.180877,0.288682,0.035767,0.214600,0.000000,177.000000,172.000000,5.000000,30.000000,0.000000,0.000000:
// measure 0
0000
0000
0000
0000
1000
0000
0000
1000
,  // measure 1
0000
0000
0001
0000
0001
0000
0000
0100
,  // measure 2
0000
0000
0010
0000
0010
0000
0000
1000
,  // measure 3
0000
0100
0200
0000
,  // measure 4
0310
0000
1000
0000
,  // measure 5
0010
0000
0100
0000
,  // measure 6
0001
0000
0010
0000
,  // measure 7
0001
0000
0010
0000
,  // measure 8
1000
0000
0100
0000
,  // measure 9
0010
0010
0000
1001
,  // measure 10
0000
0100
0010
0000
,  // measure 11
1000
0000
1000
0000
,  // measure 12
0100
0000
1000
0000
,  // measure 13
0002
0000
1003
0000
,  // measure 14
0010
0000
0002
0000
,  // measure 15
0203
0000
0310
0000
,  // measure 16
0001
0000
0200
0000
,  // measure 17
0320
0000
1030
1000
,  // measure 18
0000
0001
0000
0010
,  // measure 19
0000
0010
0000
0000
0000
0100
0000
0000
,  // measure 20
0000
0001
0000
0000
0100
0000
0000
0000
,  // measure 21
0020
0000
1030
0000
,  // measure 22
0001
0000
0000
0000
0020
0000
0000
0030
,  // measure 23
2000
3000
0010
0000
,  // measure 24
0001
0000
0010
0000
,  // measure 25
0100
0000
0010
0000
,  // measure 26
0100
0000
0001
1000
,  // measure 27
0001
1000
0001
1000
,  // measure 28
0001
0000
0100
0000
,  // measure 29
0001
0000
0010
0010
,  // measure 30
0000
0001
2000
0000
,  // measure 31
3001
0000
0200
0000
,  // measure 32
0300
0001
0000
0000
0000
0100
0000
0000
,  // measure 33
0000
0001
0000
0000
0020
0000
0030
0100
,  // measure 34
0000
0000
0000
1000
0000
0000
0000
1000
,  // measure 35
0000
0000
0000
0000
0020
0000
0030
1000
,  // measure 36
0000
0200
0000
0300
0000
0001
0000
0000
,  // measure 37
0000
1000
0000
0001
0000
0000
0000
1000
,  // measure 38
0000
0000
0000
0001
0000
0000
2000
0000
,  // measure 39
3000
0002
0003
0200
,  // measure 40
0300
0001
0000
0000
0000
1000
0000
0000
,  // measure 41
0000
0001
0000
0000
0000
1000
0000
0000
,  // measure 42
0000
0001
0000
0000
0000
0010
0000
0000
,  // measure 43
0000
0001
0000
0000
0000
0010
0000
0000
,  // measure 44
0000
0001
0000
0000
0000
0001
0000
0000
,  // measure 45
0000
1000
0000
0001
0000
0000
0000
0000
,  // measure 46
0000
0001
0000
0000
0000
1000
0000
0000
,  // measure 47
0000
0001
0000
0100
0000
0100
0000
0000
,  // measure 48
0000
0001
0000
1000
0000
0001
0000
0010
,  // measure 49
0000
0001
0000
0100
0000
0010
0000
0100
,  // measure 50
0000
0010
0000
0100
0000
0010
0000
0100
,  // measure 51
0000
0001
0000
0010
0000
0100
0000
0010
,  // measure 52
0000
0002
0000
2003
0000
3020
0000
0230
,  // measure 53
0000
0302
0000
2003
0000
3200
0000
0320
,  // measure 54
0031
1000
0001
1000
,  // measure 55
0001
0200
0000
0310
,  // measure 56
0000
1001
1001
1001
,  // measure 57
0000
1000
0001
1000
,  // measure 58
0001
1000
0000
0100
,  // measure 59
0000
0100
0000
0010
,  // measure 60
0000
0100
0000
0100
,  // measure 61
0000
0001
0002
0000
,  // measure 62
1003
0000
0010
0000
,  // measure 63
1000
0002
0000
0000
,  // measure 64
0000
1003
0000
0100
,  // measure 65
0000
0010
0000
0001
,  // measure 66
0000
0100
0000
0010
,  // measure 67
0000
1000
0000
0100
,  // measure 68
0000
1000
0000
0010
,  // measure 69
0000
0100
0000
0010
,  // measure 70
0000
1000
0000
0001
,  // measure 71
0000
0000
0000
2002
0000
0000
0000
0000
,  // measure 72
0000
0000
0000
0000
,  // measure 73
0000
0000
0000
3003
0000
0000
0000
0000
;
