#TITLE:BabeL ~Next Story~;
#SUBTITLE:;
#ARTIST:Power Of Nature;
#TITLETRANSLIT:;
#SUBTITLETRANSLIT:;
#ARTISTTRANSLIT:;
#GENRE:;
#CREDIT:;
#BANNER:BabeL ~Next Story~-bn.png;
#BACKGROUND:BabeL ~Next Story~-bg.png;
#LYRICSPATH:;
#CDTITLE:;
#MUSIC:BabeL ~Next Story~.mp3;
#OFFSET:-0.200000;
#SAMPLESTART:27.899921;
#SAMPLELENGTH:12.000000;
#SELECTABLE:YES;
#BPMS:0.000000=140.000000
,12.000000=148.000000
,18.500000=155.000000
,22.500000=134.000000
,23.500000=118.000000
,25.500000=100.000000
,26.500000=173.000000
;
#STOPS:134.166672=0.140000,
135.833328=0.240000,
139.500000=0.180000,
184.666672=0.340000,
195.000000=0.140000,
199.666672=0.120000,
203.333328=0.070000,
203.666672=0.120000,
204.000000=0.120000,
204.333328=0.120000,
204.666672=0.120000,
205.000000=0.120000,
205.333328=0.120000,
205.666672=0.120000,
206.000000=0.120000,
206.333328=0.120000,
206.666672=0.120000,
207.000000=0.055000,
266.250000=1.020000,
301.500000=0.340000,
303.166656=0.360000,
313.500000=0.120000,
318.166656=0.110000
;
#BGCHANGES:;
#KEYSOUNDS:;
#ATTACKS:;

//---------------dance-single - ----------------
#NOTES:
     dance-single:
     :
     Medium:
     12:
     0.589616,0.591196,0.148803,0.281942,0.305437,472.000000,19.000000,36.000000,0.000000,0.000000,0.000000,0.589616,0.591196,0.148803,0.281942,0.305437,472.000000,19.000000,36.000000,0.000000,0.000000,0.000000:
// measure 0
0000
1000
0001
1000
0000
1000
0010
0100
,  // measure 1
0000
0100
0001
0010
0000
0010
0001
1000
,  // measure 2
0000
1000
0001
0100
0000
0100
0010
1000
,  // measure 3
0000
0001
1000
0001
0000
1001
0000
0100
,  // measure 4
0001
1000
0000
0001
1000
0020
0000
0000
,  // measure 5
0130
0002
0000
0000
1003
0002
0000
2000
,  // measure 6
0000
0000
0000
3003
1001
0000
0001
1000
,  // measure 7
0100
0000
1000
0001
0100
0000
0010
1000
,  // measure 8
0010
0000
0100
0000
0010
0000
0001
1000
,  // measure 9
0100
0000
0010
0001
0100
0000
1000
0001
,  // measure 10
0000
0000
0001
0010
0100
1000
0000
0001
,  // measure 11
0100
0000
1000
0001
0100
0000
0001
0100
,  // measure 12
0001
0000
1000
0000
0010
0000
0100
0001
,  // measure 13
0000
1000
0001
0010
0000
1000
0100
0010
,  // measure 14
0000
0000
0001
0000
0010
0000
0001
0000
1000
0000
0010
0000
0000
0010
0000
0000
,  // measure 15
1000
0000
0001
0000
0100
0000
0100
0000
0000
0000
0010
0000
0000
1000
0000
0000
,  // measure 16
0001
0010
0001
2000
0000
3001
0000
1100
,  // measure 17
0000
0002
0000
1003
0000
0101
0000
0001
,  // measure 18
1000
0010
0100
0010
0000
0010
0100
0000
,  // measure 19
0001
1000
0010
0000
0100
0001
0100
0000
,  // measure 20
0010
0000
1000
0000
0001
0000
0000
0000
1000
0000
0010
0000
0000
0010
0000
0000
,  // measure 21
0000
0000
0100
0000
0000
0100
0000
0000
0000
0000
0001
0000
0000
0001
0000
0000
,  // measure 22
1000
0010
0100
0001
0000
1000
0010
0000
,  // measure 23
0001
0000
1000
0000
0001
1000
0001
0000
,  // measure 24
1000
0010
0100
0000
0001
0010
0000
0100
,  // measure 25
1000
0100
0000
0010
0001
0100
0000
0010
,  // measure 26
1000
0000
0010
0000
0100
0000
0001
0000
0000
1000
0000
0000
0001
0000
0100
0000
,  // measure 27
0010
0000
0010
0000
0000
0000
1000
0000
0000
0001
0000
0000
1000
0000
0001
0000
,  // measure 28
0100
0002
0000
0013
0000
0101
0000
0020
,  // measure 29
0000
1030
0000
1100
0000
0001
1000
0001
,  // measure 30
0000
1001
0000
0001
0100
0001
0000
1010
,  // measure 31
0000
0000
0000
0010
0000
0000
1000
0000
0000
0010
0000
0000
0100
0000
0000
0001
0000
0000
0000
0001
0000
0000
0000
1000
,  // measure 32
0000
1000
0001
0010
0100
0010
0001
1000
,  // measure 33
0100
0010
0100
1000
0001
0000
0100
0010
,  // measure 34
0000
2000
0000
3002
0000
0203
0000
0320
,  // measure 35
0000
0000
0000
0000
0130
0000
0000
0100
0010
0000
0000
0000
0001
0000
0000
0000
,  // measure 36
1000
0000
0010
0000
0100
0000
0001
1000
,  // measure 37
0001
1000
0100
0000
0010
0000
0001
0000
,  // measure 38
0010
0100
1000
0001
,  // measure 39
0100
0000
0000
0000
0001
0000
0100
0000
1000
0000
0100
0000
0001
0000
0000
0001
,  // measure 40
0100
0010
0100
0001
,  // measure 41
1000
0100
0001
0100
1000
0000
0001
0100
,  // measure 42
0001
0000
0110
0000
1000
0001
1000
0000
,  // measure 43
0001
0000
0101
0000
1000
0001
0000
0000
,  // measure 44
0000
0000
0000
0000
1000
0001
0000
0000
,  // measure 45
0001
0000
0000
0010
0000
0000
0100
0000
0000
1000
0000
0000
0010
0000
0000
0000
0010
0000
0000
0000
1000
0000
0000
0000
,  // measure 46
2000
0000
3001
0100
0000
0010
0000
1000
0000
0001
0000
0100
,  // measure 47
0000
0001
0000
1000
0000
0100
0000
0010
0000
0001
0000
0010
,  // measure 48
0000
0001
0000
1000
0000
0010
0000
0100
0000
0002
1003
0000
,  // measure 49
0010
0000
0100
0000
0001
0000
0010
0000
0100
0000
1000
0200
,  // measure 50
0300
0010
0000
0001
0000
0100
0000
0010
0000
1000
0001
0001
,  // measure 51
1000
0000
1000
0000
0010
0000
0010
0000
0100
0000
0100
0000
0001
0000
0001
0000
1000
0000
1000
0000
0000
0010
0000
0000
,  // measure 52
0100
0001
0020
0000
0230
0000
2300
0000
,  // measure 53
3001
0000
1001
0000
1000
0001
0100
0010
,  // measure 54
0100
0001
1000
0000
0100
0010
0001
0000
,  // measure 55
0100
0000
0010
0000
0000
1000
0000
0000
0001
0000
1000
0000
0001
0000
1000
0000
,  // measure 56
0010
0100
0020
0000
2030
0000
3002
0000
,  // measure 57
0013
0000
0011
0000
0001
0010
0100
1000
,  // measure 58
1000
0001
0001
0000
1000
0100
0020
0000
,  // measure 59
0130
1000
0000
0001
0100
0001
0000
1000
,  // measure 60
0010
0000
0100
0010
0100
0001
0000
1000
,  // measure 61
0000
0010
0000
0100
0001
0100
0010
1000
,  // measure 62
0010
0100
0001
0100
0010
0010
0000
1001
,  // measure 63
0000
1001
0000
0110
0000
0100
0002
0000
,  // measure 64
1003
0000
0010
0200
0000
0301
0000
1000
,  // measure 65
0020
0000
0130
0001
1000
0000
0010
0100
,  // measure 66
0001
0000
0000
0000
0010
0000
1000
0000
0000
0220
0330
0000
0000
0100
0000
0000
,  // measure 67
0001
0000
1000
0000
0000
1000
0000
0000
0000
0000
0001
0000
0000
0001
0000
0000
,  // measure 68
0000
0000
0100
0000
0000
0100
0000
0000
0001
0000
1000
0000
0001
0000
1000
0000
,  // measure 69
0000
0001
0100
0000
1000
0010
1000
0000
,  // measure 70
0001
0000
0100
0000
1000
0001
0010
0000
,  // measure 71
0100
1000
0000
0001
0010
0100
0000
1000
,  // measure 72
0100
1000
0001
0000
0100
0010
0100
0010
,  // measure 73
0000
0000
1000
0001
0100
0100
0000
0010
,  // measure 74
0000
1000
0000
0000
0100
0000
0010
0000
0001
0000
0001
0000
0000
0010
0000
0000
,  // measure 75
0100
0000
0000
1000
0000
0000
0001
0000
0000
2002
0000
0000
3003
0000
0000
0020
0000
0000
0000
0130
0000
0001
0000
0000
,  // measure 76
0000
1000
0000
0000
0000
0001
0000
0000
0000
0100
0000
0000
0000
0001
0000
0000
0000
1000
0000
0000
0000
0100
0000
0000
,  // measure 77
0000
0001
0000
0000
0000
0100
0000
0000
0000
1000
0000
0000
0000
0010
0000
0000
0000
0100
0000
0000
0000
0010
0000
0000
,  // measure 78
0000
0100
0000
0000
0000
0001
0000
0000
0000
2000
0000
3001
0000
0000
0000
0100
0000
0000
0000
1000
0000
0000
0000
0100
,  // measure 79
0000
0000
0000
0001
0000
0000
0000
0010
0000
0000
0000
0100
0000
2000
0000
3001
0000
0000
0000
0100
0000
0000
0000
0001
,  // measure 80
0000
0000
0000
0200
0000
0000
0000
0000
0000
0310
0000
0000
0000
0000
0000
0000
0000
1001
0000
0000
0000
0000
0000
0002
,  // measure 81
0000
0000
0000
0000
0000
0103
0000
0000
0000
0000
0000
0110
0000
0000
0000
0000
0000
0020
0000
0000
0000
0000
0000
1030
,  // measure 82
0000
0000
0000
0000
0000
0000
0000
1000
0000
0001
0000
1000
0000
0001
0000
1000
0000
0200
0000
0000
0000
0000
0000
0000
,  // measure 83
0000
0000
0000
0000
0000
0000
0000
0310
;

//---------------dance-single - ----------------
#NOTES:
     dance-single:
     :
     Challenge:
     17:
     0.935330,1.000000,0.563883,0.078317,1.000000,754.000000,72.000000,10.000000,0.000000,0.000000,0.000000,0.935330,1.000000,0.563883,0.078317,1.000000,754.000000,72.000000,10.000000,0.000000,0.000000,0.000000:
0000
0001
0010
0001
1000
0100
1000
0010
,
0100
0010
0100
0001
0010
1000
0010
0001
,
1000
0001
0100
1000
0100
0010
1000
0001
,
1000
0000
0000
0001
0000
0100
0000
0010
0000
0100
0000
0000
0000
0000
0000
0101
0000
0000
0000
0000
0000
0001
0000
0010
,
0000
0000
0100
0000
0000
0000
1000
0000
0000
0000
0000
0000
0000
0000
0010
0000
0000
0000
1000
0000
0000
0000
0001
0000
0000
0000
0100
0000
0000
0000
0001
0000
0000
0000
0000
0000
0000
0000
0000
0010
0000
0000
0000
0000
0000
0000
0000
0000
,
0100
0000
0000
0000
0000
0000
1000
0000
0000
0000
0000
0000
0000
0000
0000
0010
0000
0000
0000
0000
0000
0000
0000
0000
0100
0000
0000
0000
0000
0000
0001
0000
0000
0000
0010
0000
0000
0000
0001
0000
0000
0000
1000
0000
0000
0100
0000
0000
,
0010
0000
0001
0000
0010
0000
0100
0000
0000
0000
0000
0000
1000
0000
0000
0000
0000
0000
1000
0000
0000
0000
0000
0000
1001
0000
0000
0000
0000
0000
0000
0000
0000
0000
0000
0000
0010
0000
0000
0000
0000
0000
1000
0000
0000
0001
0000
0000
,
1000
0001
0000
0000
0100
0010
0000
1000
0000
1100
0000
0000
0100
0000
0010
0001
,
0010
0001
0000
0000
1000
0001
0000
0010
0000
0110
0000
0000
0100
0000
1000
0000
,
0000
1001
0000
0000
0001
0000
0100
0000
0000
0101
0000
0000
0001
0000
1000
0000
,
0000
1001
0000
1000
0010
1000
0010
0100
0001
0010
0100
1000
0000
0000
0001
0010
,
0001
1000
0000
0000
1000
0100
0000
0010
0000
0011
0000
0000
0001
0000
1000
0010
,
1000
0100
0000
0000
0100
1000
0000
0010
0000
0110
0000
0100
0001
1000
0001
1000
,
0000
0010
0000
0100
0010
1000
0010
0100
0000
0001
0010
0100
1000
0100
0010
0001
,
0100
0001
0000
1000
0010
1000
0001
0100
0001
0000
1001
0000
0000
1010
0000
0000
,
0100
0000
0001
0000
0100
0000
0101
0000
0000
0000
0011
0000
0000
0010
0000
0000
,
0100
0000
0000
1000
0000
0000
0001
0000
0000
0010
0000
0100
0000
1000
0000
0100
0000
1000
0000
0001
0000
1000
0000
0000
,
0000
0000
0000
0000
0000
0000
1000
0000
0000
0000
0010
0000
0000
0000
0100
0000
0000
0000
0010
0000
0000
0000
1000
0000
0000
0000
0100
0000
0000
0000
0010
0000
0000
0000
0001
0000
0000
0000
0010
0000
0000
0000
0001
0000
0000
1000
0000
0000
,
0100
1000
0010
0100
0001
0010
0100
0000
1000
0000
0001
0100
0001
0010
0000
0000
,
0010
0001
0000
1000
0000
1100
0000
0000
0100
0000
0010
0100
0010
0001
0000
0000
,
0001
1000
0000
0010
0000
0110
0000
0000
0100
0000
0001
0000
0000
1001
0000
0000
,
1000
0000
0010
0000
0000
0110
0000
0000
0100
0000
0001
0000
0000
0101
0000
0100
,
0010
1000
0010
1000
0001
0100
0001
0100
0000
0000
0001
1000
0001
0100
0000
0000
,
0100
0010
0000
1000
0000
1001
0000
0000
0001
0000
1000
0100
1000
0001
0000
0000
,
0001
0010
0000
0100
0000
1100
0000
1000
0001
0100
0001
1000
0000
0100
0000
0010
,
0001
0010
0001
0100
0000
0010
1000
0001
0100
0001
0010
0100
1000
0010
0000
1000
,
0001
1000
0100
0010
0001
0010
0100
0000
0000
1000
0000
0000
0010
0000
0100
0000
,
0010
0000
1010
0000
0000
0000
1001
0000
0000
0001
0000
0000
0100
0000
0010
0000
,
1000
0000
0000
0010
0000
0100
0000
0001
0000
0100
0000
0010
0000
1000
0000
0001
0000
0000
0000
0001
0000
1000
0000
0010
,
0000
1000
0000
0100
0000
0010
0000
0001
0000
1000
0000
0001
0000
1000
0000
0100
0000
1000
0000
0010
0000
0000
0000
0010
,
0000
1000
0000
0001
0000
1000
0000
0010
0000
0100
0000
0001
0000
1000
0000
0010
0000
0000
0000
0010
0000
1000
0000
0010
,
0000
0001
0000
0010
0000
1000
0000
0001
0000
0010
0000
0100
0000
1000
0000
1010
0000
0000
0000
0110
0000
0000
0000
0101
,
0000
0000
0000
1010
0000
0000
0000
0010
0000
0100
0000
0001
0000
0010
0000
0001
0000
1000
0000
0001
0000
1000
0000
0010
,
0000
1000
0000
0010
0000
0100
0000
0001
0000
0100
0000
0010
0000
1000
0000
0000
0000
0000
0000
0001
0000
1000
0000
0001
,
0000
0000
0000
0100
0000
0010
0000
1000
0000
0001
0000
1000
0000
0010
0000
0100
0000
0001
0000
0100
0000
0020
0000
0000
,
0000
0000
0000
0000
0130
0000
0000
0001
0100
0000
0000
0100
0010
0000
0000
0010
,
1000
0000
0000
1000
0100
0000
0000
0100
0010
0000
0000
0010
0001
1000
0001
1000
,
0010
0100
0010
0100
0001
0000
0000
0100
0001
0000
0000
0001
0100
0000
0000
0100
,
0010
0000
0000
0010
1000
0000
0000
1000
0010
0000
0000
0010
1000
0000
0000
1000
,
0001
0000
0000
0000
0000
0000
0000
0000
0000
0001
0000
0000
1000
0000
0000
0000
0010
0000
0000
0000
1000
0000
0000
0000
0001
0000
0000
0000
0100
0000
0000
0000
0001
0000
0000
0000
1000
0000
0000
0000
0000
0000
0000
0000
0000
0010
0000
0000
,
0100
0000
0000
0100
0010
0000
0000
0010
1000
0000
0000
1000
0001
0000
0000
0001
,
1000
0000
0000
0000
0100
0000
0000
0000
0010
0000
0000
0000
0100
0000
0000
0000
1000
0000
0000
0000
0010
0000
0000
0000
0100
0000
0000
0000
0000
0000
0000
0000
0000
0000
0000
0000
0001
0000
0000
0100
0000
0000
0001
0000
0000
0100
0000
0000
,
0010
0000
1000
0010
1000
0000
0001
0000
0100
0010
0100
0001
0010
0000
0000
0100
,
1000
0000
0000
0000
0000
0000
0000
0000
0000
1000
0000
0000
0100
0000
0000
0000
0000
0000
0000
0000
0000
0000
0000
0000
0010
0000
0000
0000
0001
0000
0000
0000
0010
0000
0000
0000
0000
0000
0000
0000
0000
0000
0000
0000
0000
0000
0000
0000
,
0100
0000
0000
0000
1000
0010
0100
0001
1000
0000
0000
0000
,
0001
0000
0000
0010
0000
0000
0100
0000
0000
1000
0000
0000
0100
0000
0000
0010
0000
0000
0001
0000
0000
0000
0000
0000
0100
0000
0000
0000
0000
0000
0000
0000
0110
0000
0000
0000
0000
0000
0000
0000
1001
0000
0000
0000
0000
0000
0000
0000
,
1000
0001
1000
0001
0010
0001
1000
0001
0010
0100
1000
0010
,
0100
0010
1000
0001
0010
0001
1000
0010
1000
0100
0010
0100
,
1000
0010
0100
1000
0100
0001
0010
0100
1000
0001
1000
0010
,
0100
0001
1000
0010
0100
0001
0010
0001
1000
0100
1000
0010
,
0100
0001
0010
0100
1000
0010
0100
0001
1000
0001
0100
1010
,
1100
0000
0110
0000
0011
0000
0110
0000
1010
0000
1100
0000
0011
0000
0110
0000
0001
0000
1000
0000
0000
0010
0000
0000
,
1000
0001
0011
0000
0101
0000
0110
0000
,
1010
0000
0101
0000
0001
0010
0100
1000
,
0010
1000
1001
0000
1000
0010
0110
0000
,
0010
0000
1000
0000
0000
0001
0000
0000
0001
0000
0010
0000
0100
0000
1000
0000
,
0100
0010
0011
0000
1001
0000
1010
0000
,
0101
0000
0110
0000
0010
1000
0001
1001
,
1000
0100
0110
0000
0010
0001
0200
0000
,
0301
1000
0010
0010
0100
0001
1000
1000
,
1000
0000
0010
0000
0100
0000
0001
1000
0001
0000
0100
0000
0100
0000
0010
0000
,
1000
0000
0001
0000
0010
0000
0100
1000
0010
1000
0100
0000
0010
0000
0001
0000
,
0100
0010
0100
0000
0010
0000
0010
0000
2000
0000
0002
0000
3003
0000
1001
0000
,
0000
1100
0000
0110
0000
0010
0001
0000
,
0101
0000
0100
0110
0000
1010
0000
1000
,
0020
0000
0000
0000
0130
0000
0001
0000
1000
0000
0010
0000
0010
0000
1000
0001
,
1000
0001
0000
0000
1000
0100
0000
0010
0000
0022
0000
0033
0000
0101
0000
0000
,
0100
0000
0001
0000
0000
1001
0000
0000
1000
0000
0010
0000
0000
1010
0000
0000
,
1000
0000
0001
0000
0000
1001
0000
0001
0100
0001
0100
0010
1000
0100
0010
0001
,
0000
0000
1000
0100
1000
0001
0000
0000
0001
0010
0000
0100
0000
1100
0000
0000
,
1000
0000
0001
0100
0001
0010
0000
0000
0010
0001
0000
0100
0000
0110
0000
0010
,
1000
0001
1000
0001
0000
0100
0000
0010
0100
0001
0100
0010
0000
1000
0100
0010
,
0001
0010
0100
1000
0010
1000
0000
0001
0100
0001
1000
0010
1000
0000
1001
0000
,
0000
0101
0000
0000
1000
0000
0010
0000
0100
0000
0101
0000
0000
0000
0011
0000
,
0000
0010
0000
0000
0100
0000
1000
0000
0100
0000
1100
0000
0000
1000
0000
0000
,
0010
0000
0000
1000
0000
0000
0001
0000
0000
2002
0000
0000
3003
0000
0000
0001
0000
1000
0000
0010
0000
0100
0000
0001
,
0000
0010
0000
1000
0000
0010
0000
0001
0000
0100
0000
1000
0000
0100
0000
0001
0000
0010
0000
0100
0000
0001
0000
0100
,
0000
1000
0000
0010
0000
0001
0000
1000
0000
0100
0000
0010
0000
1000
0000
0001
0000
0010
0000
1000
0000
0001
0000
0100
,
0000
1000
0000
0100
0000
0001
0000
0100
0000
1000
0000
0001
0000
0100
0000
1000
0000
0001
0000
0010
0000
0100
0000
0001
,
0000
0010
0000
1000
0000
0010
0000
0100
0000
1000
0000
0001
0000
1000
0000
0001
0000
0010
0000
0001
0000
1000
0000
0100
,
0000
1000
0000
0010
0000
0100
0000
0001
0000
1000
0000
0001
0000
0000
0000
0000
0000
0110
0000
0000
0000
0000
0000
1000
,
0000
0001
0000
1000
0000
0100
0000
0000
0000
0000
0000
0011
0000
0000
0000
0000
0000
0001
0000
1000
0000
0100
0000
1000
,
0000
0000
0000
0000
0000
0000
0000
1000
0000
0001
0000
0010
0000
0100
0000
1000
0000
0002
0000
0000
0000
0000
0000
0000
,
0000
0000
0000
0000
0000
0000
0000
1003
;

//---------------dance-single - ----------------
#NOTES:
     dance-single:
     :
     Hard:
     14:
     0.827924,1.000000,0.203625,0.258447,1.000000,681.000000,26.000000,33.000000,0.000000,0.000000,0.000000,0.827924,1.000000,0.203625,0.258447,1.000000,681.000000,26.000000,33.000000,0.000000,0.000000,0.000000:
0000
0001
1000
0010
0100
0001
0100
0001
,
0010
0100
1000
0100
0010
0001
1000
0010
,
1000
0001
0100
0010
0100
1000
0100
0010
,
0100
0000
0000
0001
0000
1000
0000
0001
0000
1000
0000
0000
0000
0000
0000
1010
0000
0000
0000
0000
0000
0100
0000
0001
,
0000
0000
0100
0000
0000
0000
0001
0000
0000
0000
0000
0000
0000
0000
1000
0000
0000
0000
0010
0000
0000
0000
1000
0000
0000
0000
0001
0000
0000
0000
0100
0000
0000
0000
0000
0000
0000
0000
0000
0010
0000
0000
0000
0000
0000
0000
0000
0000
,
1000
0000
0001
0000
0000
0010
0000
0000
0100
0000
2000
0000
0000
0000
0002
0000
,
0000
0000
0000
0000
0000
0000
3003
0000
1001
0000
0000
0000
0010
0000
1000
0001
,
0100
0000
0000
0000
0001
1000
0000
0010
0000
1000
0000
0000
0100
0000
0010
0001
,
0010
0000
0000
0000
0100
1000
0000
0100
0000
0010
0000
0000
0001
0000
1000
0000
,
0000
1000
0000
0000
0010
0000
0100
0000
0000
0100
0000
0000
0001
0000
1000
0000
,
0000
1000
0000
0000
0001
0100
0001
0000
1000
0010
1000
0000
0000
0000
0001
0010
,
0100
0000
0000
0000
1000
0100
0000
0010
0000
0100
0000
0000
1000
0000
0001
0100
,
0001
0000
0000
0000
1000
0010
0000
1000
0000
0001
0000
0000
0100
0010
0100
0000
,
0000
0001
0000
0000
0010
0100
0010
0000
0000
0100
1000
0100
0000
1000
0010
1000
,
0000
0001
0000
0100
0010
1000
0000
0010
0100
0000
0100
0000
0000
0001
0000
0000
,
1000
0000
0001
0000
0100
0000
0110
0000
0000
0000
0001
0000
0000
1000
0000
0000
,
0001
0000
0000
0100
0000
0000
0001
0000
0000
0010
0000
0100
0000
0010
0000
0100
0000
0000
0000
0000
0000
1010
0000
0000
,
0000
0000
0000
0000
0000
0000
0001
0000
0000
0000
1000
0000
0000
0000
0001
0000
0000
0000
0100
0000
0000
0000
0000
0000
0000
0000
0000
0000
0000
0000
0110
0000
0000
0000
0000
0000
0000
0000
0000
0000
0000
0000
0001
0000
0000
1000
0000
0000
,
0001
1000
0010
0100
0010
0100
0010
0000
0100
0000
0001
1000
0010
0000
0000
0000
,
1000
0001
0000
0100
0000
0001
0000
0000
0010
0000
0100
1000
0100
0000
0000
0000
,
0010
0001
0000
0010
0000
0100
0000
0000
1000
0000
0001
0000
0000
0001
0000
0000
,
0100
0000
0010
0000
0000
0010
0000
0000
1000
0000
0001
0000
0000
0001
0000
0000
,
1000
0010
1000
0000
0001
0100
0001
0000
0000
0000
1000
0100
0010
0000
0000
0000
,
0001
0010
0000
0100
0000
0010
0000
0000
0001
0000
1000
0010
1000
0000
0000
0000
,
0001
0100
0000
0001
0000
1000
0000
0000
0010
0100
0010
0000
0000
1000
0000
0000
,
0100
0010
0100
0000
0000
0010
0001
0010
0000
0001
0100
0001
0000
1000
0000
0010
,
0100
0001
0000
0100
0010
0000
0010
0000
0000
1000
0000
0000
0001
0000
1000
0000
,
0010
0000
0110
0000
0000
0000
1000
0000
0000
0001
0000
0000
1000
0000
0010
0000
,
1000
0000
0000
0010
0000
0100
0000
0001
0000
0100
0000
0000
0000
0000
0000
0001
0000
0000
0000
0000
0000
1000
0000
0010
,
0000
1000
0000
0100
0000
0000
0000
0000
0000
1000
0000
0001
0000
1000
0000
0001
0000
0100
0000
0010
0000
0000
0000
0000
,
0000
0000
0000
0100
0000
0001
0000
0100
0000
0001
0000
0100
0000
0010
0000
0000
0000
0000
0000
0000
0000
1000
0000
0010
,
0000
0100
0000
0010
0000
1000
0000
0001
0000
0010
0000
0001
0000
0100
0000
0010
0000
0000
0000
0010
0000
0000
0000
1000
,
0000
0000
0000
1000
0000
0000
0000
0001
0000
0010
0000
0100
0000
1000
0000
0010
0000
0100
0000
0010
0000
1000
0000
0010
,
0000
0100
0000
0001
0000
0010
0000
0001
0000
1000
0000
0010
0000
1000
0000
0000
0000
0000
0000
0001
0000
0100
0000
0001
,
0000
0000
0000
1000
0000
0010
0000
1000
0000
0001
0000
0010
0000
0100
0000
0010
0000
0001
0000
1000
0000
0002
0000
0000
,
0000
0000
0000
0000
1003
0000
0000
0001
0010
0000
0000
0000
0001
0000
0000
0001
,
1000
0000
0000
1000
0010
0000
0000
0010
0100
0000
0000
0100
0001
0100
0001
0100
,
0010
1000
0010
1000
0010
0000
0000
0100
0001
0000
0000
0001
0010
0000
0000
0010
,
0100
0000
0000
0100
1000
0000
0000
1000
0100
0000
0000
0100
0010
0000
0000
0010
,
0001
0000
0000
0000
0000
0000
0000
0000
0000
0001
0000
0000
0010
0000
0000
0000
0100
0000
0000
0000
1000
0000
0000
0000
0100
0000
0000
0000
0010
0000
0000
0000
0100
0000
0000
0000
1000
0000
0000
0000
0000
0000
0000
0000
0000
0010
0000
0000
,
0100
0000
0000
0000
0001
0000
0000
0001
1000
0000
0000
1000
0010
0000
0000
0010
,
1000
0000
0000
0000
0001
0000
0000
0000
1000
0000
0000
0000
0010
0000
0000
0000
0100
0000
0000
0000
0001
0000
0000
0000
0010
0000
0000
0000
0000
0000
0000
0000
0000
0000
0000
0000
0001
0000
0000
0010
0000
0000
0100
0000
0000
0010
0000
0000
,
0001
0000
1000
0010
0100
0000
0001
0000
1000
0001
0100
0001
1000
0000
0000
0010
,
0100
0000
0000
0000
0000
0000
0000
0000
0000
0100
0000
0000
0001
0000
0000
0000
0000
0000
0000
0000
0000
0000
0000
0000
1000
0000
0000
0000
0001
0000
0000
0000
1000
0000
0000
0000
0000
0000
0000
0000
0000
0000
0000
0000
0000
0000
0000
0000
,
0010
0000
0000
0000
0100
0001
1000
0001
0100
0000
0000
0000
,
0001
0000
0000
1000
0000
0000
0001
0000
0000
1000
0000
0000
0010
0000
0000
0100
0000
0000
0010
0000
0000
0000
0000
0000
1000
0000
0000
0000
0000
0000
0000
0000
0010
0000
0000
0000
0000
0000
0000
0000
0010
0000
0000
0000
0000
0000
0000
0000
,
1000
0010
0100
0001
0010
0001
0010
0100
1000
0100
1000
0001
,
0100
0001
0100
0010
1000
0010
1000
0001
0010
0100
1000
0001
,
0010
0000
0100
0000
1000
0000
0010
0000
0100
0000
0001
0000
1000
0000
0010
0000
0100
0000
0002
0003
1000
0000
0001
0000
,
1000
0000
0001
0000
0100
0000
0010
0000
0100
0000
0010
0000
1000
0000
0100
0000
0010
0000
0001
0000
1000
0000
0002
0003
,
0010
0000
0100
0000
1000
0000
0001
0000
0100
0000
0001
0000
1000
0000
0010
0000
1000
0000
0001
0000
0200
0300
0020
0030
,
2000
3000
0200
0300
0020
0030
0002
0003
0020
0030
0200
0300
2000
3000
0020
0030
0200
0300
0001
0000
0000
1000
0000
0000
,
0010
1000
1020
0000
0230
0000
0302
0000
,
1003
0000
1100
0000
0100
1000
0001
0100
,
0001
0100
0110
0000
0100
0001
0101
0000
,
0100
0000
0010
0000
0000
1000
0000
0000
0001
0000
1000
0000
0001
0000
1000
0000
,
0010
0100
0102
0000
2003
0000
3020
0000
,
0130
0000
0101
0000
0001
0010
0100
1100
,
1000
0001
1001
0000
1000
0001
0020
0000
,
0130
1000
0001
0001
0100
0010
1000
1000
,
1000
0001
0100
0010
0010
1000
1000
0001
,
0100
0001
1000
0010
1000
0001
0010
0100
,
1000
1000
0001
0001
0200
0020
0330
1001
,
0000
1010
0000
0101
0000
0100
0001
0000
,
0011
0000
0010
0110
0000
1100
0000
1000
,
0002
0000
0000
0000
0103
0000
0001
0000
1000
0000
0000
0000
0010
0000
0100
0001
,
0100
0000
0000
0000
0010
1000
0000
0001
0000
0220
0000
0330
0000
0100
0000
0000
,
0001
0000
1000
0000
0000
1000
0000
0000
0010
0000
0100
0000
0000
0100
0000
0000
,
0001
0000
1000
0000
0000
1000
0000
0000
0001
0100
0001
0000
1000
0010
1000
0000
,
0000
0000
0001
0010
0100
0000
0000
0000
1000
0100
0000
0010
0000
0100
0000
0000
,
1000
0000
0001
0100
0001
0000
0000
0000
1000
0010
0000
1000
0000
0001
0000
0000
,
0100
0010
0100
0000
0000
0001
0000
0000
0010
0100
0010
0000
0000
0100
1000
0100
,
0000
1000
0010
1000
0000
0001
0000
0100
0010
1000
0000
0010
0100
0000
0100
0000
,
0000
0001
0000
0000
1000
0000
0001
0000
0100
0000
0110
0000
0000
0000
0010
0000
,
0000
1000
0000
0000
0100
0000
0010
0000
0001
0000
0011
0000
0000
0010
0000
0000
,
0100
0000
0000
1000
0000
0000
0010
0000
0000
2002
0000
0000
3003
0000
0000
0100
0000
0010
0000
0100
0000
0001
0000
0010
,
0000
0100
0000
1000
0000
0010
0000
0001
0000
0010
0000
1000
0000
0100
0000
0010
0000
0001
0000
0100
0000
1000
0000
0100
,
0000
0001
0000
0010
0000
0100
0000
1000
0000
0001
0000
0100
0000
1000
0000
0100
0000
0001
0000
0010
0000
0100
0000
1000
,
0000
0010
0000
0001
0000
0010
0000
1000
0000
0002
0003
1000
0000
0010
0000
0100
0000
0001
0000
0010
0000
0001
0000
1000
,
0000
0010
0000
0100
0000
0001
0000
0100
0000
1000
0000
0100
0000
0002
0003
0010
0000
1000
0000
0010
0000
0001
0000
0100
,
0000
1000
0000
0100
0000
0001
0000
0010
0000
0100
0000
1000
0000
0000
0000
0000
0000
1001
0000
0000
0000
0000
0000
0001
,
0000
1000
0000
0001
0000
0100
0000
0000
0000
0000
0000
0110
0000
0000
0000
0000
0000
0010
0000
1000
0000
0001
0000
0100
,
0000
0000
0000
0000
0000
0000
0000
0100
0000
0001
0000
1000
0000
0001
0000
0100
0000
0020
0000
0000
0000
0000
0000
0000
,
0000
0000
0000
0000
0000
0000
0000
0130
;

//---------------dance-single - ----------------
#NOTES:
     dance-single:
     :
     Easy:
     5:
     0.505705,0.525508,0.148803,0.219288,0.317184,405.000000,19.000000,28.000000,0.000000,0.000000,0.000000,0.505705,0.525508,0.148803,0.219288,0.317184,405.000000,19.000000,28.000000,0.000000,0.000000,0.000000:
0000
1000
0000
0001
0000
0100
0000
0100
,
0000
0001
0000
1000
0000
0010
0000
0010
,
0000
0100
0000
0010
0000
1000
0000
1000
,
0000
0001
0000
0100
0000
0110
0000
0010
,
0000
1000
0000
0002
0000
1003
0000
0000
,
1000
0010
0000
0000
0010
0200
0000
0020
,
0000
0000
0000
0330
1001
0000
0000
1000
,
0000
0100
0000
0000
0001
0000
1000
0000
0100
0000
0000
0000
0000
0000
0001
0000
,
0000
0010
0000
0000
0100
0000
1000
0000
0001
0000
0000
0000
0001
0000
1000
0000
,
0000
0000
1000
0100
0000
0000
0100
0010
,
0000
0000
0001
0010
0100
1000
0000
0001
,
0000
0100
0000
0000
0010
0000
0000
1000
0000
0010
0000
0000
0000
0000
0001
0000
,
0001
0000
0000
0000
1000
0000
0000
1000
0000
0001
0000
0000
0100
0000
0000
0000
,
0000
0001
0010
0100
0000
1000
0010
0100
,
0001
0000
1000
0010
0100
0100
0000
0000
,
1000
0001
0100
0100
0000
0001
0000
0000
,
1000
0001
1000
0020
0000
0130
0000
0101
,
0000
0002
0000
1003
0000
1100
0000
0001
,
1000
0000
0001
0000
1000
0000
0001
0000
0000
0000
0001
0000
0000
0010
0000
0000
,
1000
0000
0001
0000
0010
0000
0000
0000
0000
0000
1000
0000
0000
0100
0000
0000
,
0010
0001
1000
0000
1000
0001
0000
0000
,
0001
0010
0000
0000
0010
0100
0000
0000
,
1000
0000
0100
0000
0010
0000
0001
0000
0000
0000
1000
0000
0000
0010
0000
0000
,
0100
0000
0000
0001
0000
0100
0000
0000
0000
0000
1000
0000
1000
0000
0000
0000
,
0001
0000
0000
0001
0000
1000
0000
0000
0010
0000
0000
0000
0000
0000
1000
0000
,
0100
0010
0000
0001
0100
0010
1000
0000
,
0001
0100
0010
0010
0000
0000
0001
1000
,
0010
0010
0000
1000
0000
0000
0001
1000
,
0001
0200
0000
0000
0300
0110
0000
0002
,
0000
0000
0003
1001
0000
0001
0000
1000
,
0000
0100
0000
0010
0000
0001
0000
0010
,
0000
0000
0000
0100
0000
0000
0000
0000
0000
1000
0000
0000
0000
0000
0000
0001
0000
0000
0000
0001
0000
0000
0000
0100
,
0000
0100
0000
0010
0000
0010
0000
1000
,
0000
0000
0000
0001
0000
0000
0000
0000
0000
2000
0000
0000
0000
0000
3000
0000
0000
0000
0000
0001
0000
0000
0000
0000
,
0000
1000
0000
0001
0000
0100
0000
0020
,
0000
0130
0010
0000
,
1000
0000
0010
0000
0100
0000
0001
1000
,
0001
1000
0010
0000
0001
0000
0010
0000
,
0100
1000
0100
0010
,
0001
0000
0010
1000
0010
1000
0001
0000
,
0100
0000
1000
0010
,
1000
0001
1000
0001
0010
0000
0001
0100
,
0001
0000
1000
0000
0001
0100
0010
0000
,
0100
0000
0001
0000
1000
0001
0000
0000
,
0010
0000
0200
0000
0010
0310
0000
0000
,
0001
0000
0000
1000
0000
0000
0100
0000
0000
0010
0000
0000
0001
0000
0000
0000
0010
0000
0000
0000
0100
0000
0000
0000
,
1000
0000
0020
0130
0000
0001
0000
1000
0000
0010
0000
0100
,
0000
0010
0000
1000
0000
0001
0000
0100
0000
0010
0000
1000
,
0000
0100
0000
0010
0000
0001
0000
0010
0000
0002
1003
0000
,
0001
0000
0100
0000
0001
0000
1000
0000
0010
0000
1000
0200
,
0300
0000
1000
0000
0001
0000
0100
0000
0010
0000
0100
0100
,
0100
0100
0100
0100
0100
0100
0100
0100
0010
1000
0000
0000
,
0000
0001
2000
0000
3002
0000
0203
0000
,
0310
0000
0110
0000
0100
0000
0000
0100
,
0000
0100
0010
0000
0100
0001
1000
0000
,
0100
0010
0000
0000
0001
1000
0001
1000
,
0000
0002
0023
0230
,
1300
0000
1001
0000
0001
0000
0000
1100
,
0000
0000
1001
0000
0000
1000
0002
0000
,
1003
0001
0000
1000
0010
0000
0010
1000
,
0000
0001
0000
0100
0000
0001
0000
0010
,
0000
0100
1000
0100
0000
0001
0000
0010
,
0000
0001
0000
1000
0010
0100
0000
1001
,
0000
1001
0000
1001
0000
0100
0010
0000
,
0110
0000
0100
0001
0000
1001
0000
0000
,
0002
0000
1003
0001
1000
0000
0010
0100
,
0010
0000
0000
0000
0010
0000
1000
0000
0000
0020
0000
0000
1030
0000
0000
0000
,
1000
0001
0000
0000
0001
0010
0000
0000
,
0010
0100
0000
0000
1000
0100
0010
0001
,
0000
0000
1000
0000
0000
0010
0000
0000
0100
0000
0000
0001
0000
0100
0000
0000
,
0000
0000
1000
0000
1000
0000
0000
0000
0001
0000
0000
0001
0000
1000
0000
0000
,
0010
0000
0000
1000
0100
0010
0000
0001
,
0100
0010
1000
0000
0001
0100
0010
0010
,
0000
0000
1000
0001
0100
0100
0000
0100
,
0000
0000
0100
0000
0000
0011
0000
0000
,
0000
0000
1000
0000
0000
0000
2002
0000
3003
0000
0200
0000
0000
0300
0001
0000
,
0000
0100
0000
0000
0000
0010
0000
0000
0000
1000
0000
0000
0000
0001
0000
0000
0000
0100
0000
0000
0000
0100
0000
0000
,
0000
0010
0000
0000
0000
1000
0000
0000
0000
0001
0000
0000
0000
0100
0000
0000
0000
0001
0000
0000
0000
0010
0000
0000
,
0000
0100
0000
0000
0000
1000
0000
0000
0000
0200
0000
0310
0000
0000
0000
0001
0000
0000
0000
1000
0000
0000
0000
0010
,
0000
0000
0000
0100
0000
0000
0000
0001
0000
0000
0000
1000
0000
0200
0000
0300
0000
1000
0000
0000
0000
0010
0000
0000
,
0000
0100
0000
0000
0000
0001
0000
0000
0000
1000
0000
0000
0000
0000
0000
0000
0000
1001
0000
0000
0000
0000
0000
0001
,
0000
0000
0000
0000
0000
0100
0000
0000
0000
0000
0000
0110
0000
0000
0000
0000
0000
0010
0000
0000
0000
0000
0000
0100
,
0000
0000
0000
0000
0000
0000
0000
0010
0000
0000
0000
0000
0000
1000
0000
0000
0000
0020
0000
0000
0000
0000
0000
0000
,
0000
0000
0000
0000
0000
0000
0000
0130
;

//---------------dance-single - ----------------
#NOTES:
     dance-single:
     :
     Beginner:
     3:
     0.268516,0.328442,0.023495,0.140971,0.117476,219.000000,3.000000,18.000000,0.000000,0.000000,0.000000,0.268516,0.328442,0.023495,0.140971,0.117476,219.000000,3.000000,18.000000,0.000000,0.000000,0.000000:
0000
0001
0000
0000
0000
0010
0000
0000
,
0000
1000
0000
0000
0000
0100
0000
0000
,
0000
0010
0000
0000
0000
0001
0000
0000
,
0000
1000
0000
0000
0000
0110
0000
0100
,
0000
0000
0000
1000
0000
0001
0000
0000
,
0000
0100
0000
0000
0100
0010
0000
0200
,
0000
0000
0000
0300
0100
0000
0000
0001
,
0000
0000
1000
0001
0000
0000
0000
1000
,
0000
0000
0000
0001
1000
0000
0000
0001
,
0000
0001
0000
0010
,
0000
0000
1000
0000
0010
0000
0000
1000
,
0000
0000
0100
0000
0000
0000
0000
1000
,
0000
0001
0000
0010
,
0000
0000
0100
0000
0000
0001
0000
0010
,
0000
0001
0010
0000
,
0001
0000
1000
0000
0000
1000
0000
0000
,
0001
0000
0100
0010
0000
0000
0000
1000
,
0000
1000
0000
0001
0000
0001
0000
1000
,
0000
0000
0000
1000
0000
1000
0000
0000
,
0001
0000
0100
0000
0000
0001
0000
0000
,
0100
0001
0001
0000
,
1000
0000
0100
0000
,
0001
0000
0100
0000
0000
0001
0000
0000
,
0010
0000
0000
0000
0000
0001
0000
0000
,
1000
0000
0100
0000
,
0010
0000
0010
0001
,
1000
0100
0000
1000
,
0100
0000
0000
1000
,
0001
0100
0000
0000
0000
0010
0000
1000
,
0000
0000
0000
1001
0000
0000
0000
0001
,
0000
0000
0000
0100
0000
0000
0000
0100
,
0000
0000
0000
0001
0000
1000
0000
0000
,
0000
0010
0000
0000
0000
0100
0000
0000
,
0000
1000
0000
0002
0003
0000
0000
0000
,
0000
0001
0000
0000
0000
0010
0000
1000
,
0000
0010
0100
0000
,
0001
0000
0010
1000
,
0000
0100
0000
0100
,
0000
0001
0000
0100
,
0000
0100
0000
1000
,
0010
0000
0001
0000
,
0001
0000
0100
0000
,
1000
0001
0000
0100
,
0000
1000
0001
0000
,
0100
0010
0000
0000
,
1000
0000
0001
0000
,
0002
0000
0000
0003
0000
1000
0000
0000
0000
0100
0000
0000
,
0000
0000
0000
0001
0000
0000
0000
0010
0000
0000
0000
0001
,
0000
0000
0000
0100
0000
0000
0000
0000
0000
2000
3000
0000
,
0001
0000
0000
0000
1000
0000
0000
0000
0100
0000
0000
0020
,
0030
0000
0000
0000
1000
0000
0010
0000
0100
0000
0010
0020
,
0000
0000
0000
0000
0000
0000
0100
0100
0130
0100
0000
0000
,
0000
0002
0003
0020
,
0030
0100
0010
0000
,
0000
0100
0010
0001
,
0010
0000
1000
1000
,
0000
2000
3000
0020
,
0030
0000
0001
0000
1000
0000
0000
0001
,
0000
1000
0000
2000
,
3001
0000
0100
0100
,
0000
1000
0000
0000
0000
1000
0000
0000
,
0000
0010
0000
0000
0000
1000
0000
0000
,
0000
1000
0000
0000
0000
0010
0000
1000
,
0000
1000
0000
1001
0000
0000
0100
0000
,
0010
0000
0000
1000
0000
0001
0000
0000
,
2000
3001
0000
0100
,
0000
0000
0000
0000
0100
0000
0000
0000
0000
0200
0000
0000
0301
0000
0000
0000
,
0001
0000
1000
0000
,
0100
0000
0001
0100
,
0000
0001
0000
0000
0010
0000
0000
0000
,
0000
0001
1000
0000
,
0100
0000
0000
0001
0000
0100
0000
0000
,
0010
0000
0001
0000
0000
0010
0000
0000
,
0000
0000
0001
0000
0100
0000
0000
0010
,
0000
0000
0010
0000
0000
1000
0000
0000
,
0000
0000
0000
2000
3000
0002
0003
1000
,
0000
0000
0000
0000
0000
0100
0000
0000
0000
0000
0000
0000
0000
1000
0000
0000
0000
0000
0000
0000
0000
0010
0000
0000
,
0000
0000
0000
0000
0000
0001
0000
0000
0000
0000
0000
0000
0000
0010
0000
0000
0000
0000
0000
0000
0000
0100
0000
0000
,
0000
0000
0000
0000
0000
0001
0000
0000
0000
0020
0000
0030
0000
0000
0000
1000
0000
0000
0000
0000
0000
0000
0000
0100
,
0000
0000
0000
0000
0000
0000
0000
1000
0000
0000
0000
0000
0000
0020
0000
0030
0000
0001
0000
0000
0000
0000
0000
0000
,
0000
0010
0000
0000
0000
0000
0000
0000
0000
0001
0000
0000
0000
0000
0000
0000
0000
1000
0000
0000
0000
0000
0000
1000
,
0000
0000
0000
0000
0000
0010
0000
0000
0000
0000
0000
0010
0000
0000
0000
0000
0000
0000
0000
0000
0000
0000
0000
0010
,
0000
0000
0000
0000
0000
0000
0000
0100
0000
0000
0000
0000
0000
0000
0000
0000
0000
0200
0000
0000
0000
0000
0000
0000
,
0000
0000
0000
0000
0000
0000
0000
0300
;
