#VERSION:0.81;
#TITLE:BUBBLE RAVER;
#SUBTITLE:;
#ARTIST:P*Light;
#TITLETRANSLIT:;
#SUBTITLETRANSLIT:;
#ARTISTTRANSLIT:;
#GENRE:;
#ORIGIN:;
#CREDIT:;
#BANNER:;
#BACKGROUND:BUBBLE RAVER-bg.png;
#PREVIEWVID:;
#JACKET:BUBBLE RAVER-jacket.png;
#CDIMAGE:;
#DISCIMAGE:;
#LYRICSPATH:;
#CDTITLE:;
#MUSIC:BUBBLE RAVER.mp3;
#OFFSET:0.040000;
#SAMPLESTART:17.339874;
#SAMPLELENGTH:12.000000;
#SELECTABLE:YES;
#BPMS:0.000=174.000,
190.500=87.020,
192.500=174.000;
#STOPS:182.000=0.200,
225.000=0.180,
226.500=0.180;
#DELAYS:;
#WARPS:;
#TIMESIGNATURES:0.000=4=4;
#TICKCOUNTS:0.000=4;
#COMBOS:0.000=1;
#SPEEDS:0.000=1.000=0.000=0;
#SCROLLS:0.000=1.000;
#FAKES:;
#LABELS:0.000=Song Start;
#BGCHANGES:;
#KEYSOUNDS:;
#ATTACKS:
;

//---------------dance-single - ----------------
#NOTEDATA:;
#CHARTNAME:;
#STEPSTYPE:dance-single;
#DESCRIPTION:;
#CHARTSTYLE:;
#DIFFICULTY:Easy;
#METER:5;
#RADARVALUES:0.338719,0.348356,0.053083,0.291955,0.000000,229.000000,6.000000,33.000000,0.000000,0.000000,0.000000,0.000000,0.000000,0.338719,0.348356,0.053083,0.291955,0.000000,229.000000,6.000000,33.000000,0.000000,0.000000,0.000000,0.000000,0.000000;
#CREDIT:;
#NOTES:
0000
0000
0000
2000
,
0000
0000
0000
3002
,
0000
0103
0000
0200
,
0000
0000
0000
0302
,
0000
2003
0000
3010
,
0000
0010
0000
2000
,
0000
3002
0000
1003
,
0000
0010
0000
1000
,
0000
0200
0000
0301
,
0001
0001
0000
1000
,
1000
1000
0000
0020
,
0230
0320
0030
0100
,
0100
0001
0000
1000
,
1000
0001
0000
1000
,
0001
1000
0000
0001
,
1000
0001
0000
2002
,
0000
3003
0000
0000
0000
0000
0001
0000
,
0001
0100
0000
1000
,
1000
0010
0010
0100
,
0100
0010
0000
1000
,
0001
0100
0000
0001
,
1000
0010
0000
1000
,
1000
0010
0000
0100
,
0001
0001
0000
2002
,
0000
3003
0000
0000
0000
0000
0000
0001
,
0000
0001
0000
0001
0000
0001
0000
0001
,
0000
0001
0000
0001
0000
1000
0000
1000
,
0000
1000
0000
1000
0000
1000
0000
1000
,
0000
1000
0000
0010
0000
0000
1001
0000
,
0000
0100
0010
0000
0000
0100
0010
0000
,
0000
0100
0010
0000
0000
0000
0010
0000
,
0010
1000
1000
0001
,
0001
0100
0100
0010
,
1000
0001
0000
0100
,
0010
1000
0001
0000
,
0000
1000
1000
0001
,
0001
1000
0100
0010
,
0001
1000
1000
0001
,
0001
1000
1000
0000
,
0000
0010
0100
0010
,
1000
0001
0001
0020
,
0000
1030
0000
0200
,
0000
0302
1000
1003
,
0000
1000
0000
0010
,
0010
0100
0100
0002
,
0000
0000
0103
0000
0200
0000
0000
0310
,
0000
0010
0000
0020
0000
0130
0000
0100
,
0000
0001
0000
0100
0000
0200
0000
0000
,
0310
0100
0000
0100
0000
0100
0000
0000
,
0000
0001
0000
0100
0000
0001
0000
0000
,
0000
1000
0000
0010
0000
1000
0000
0000
,
0000
0010
0000
0010
0000
0010
0000
0000
,
0000
0100
0000
0010
0000
0100
0000
0010
,
0000
0100
0000
0010
0000
0200
0000
0320
,
0000
0130
0000
0100
0000
0001
0000
0001
,
0000
1000
0000
0001
0000
2000
0000
3010
,
0000
0100
0100
0000
0010
0010
0000
0200
,
0000
0310
0000
0200
0000
0000
0000
0301
,
0000
0001
0000
0100
0000
0000
0000
1000
,
0000
0010
0000
0100
0000
0000
0000
0010
,
0000
0100
0000
0100
0000
0000
0000
0001
,
0000
0001
0000
1000
0000
0000
0000
0001
,
0000
0100
0000
0001
0000
0000
0000
1000
,
0000
1000
0000
1000
0000
0000
0000
0001
,
0000
0100
0000
0001
0000
0000
0000
1000
,
0000
1000
0000
0100
0000
0000
0000
0010
,
0000
0001
0000
0010
0000
0000
0000
2002
,
0000
0000
3003
0000
0000
0000
0000
1000
,
0000
1000
0000
0010
0000
0000
0000
0100
,
0000
0100
0000
0001
0000
0000
0000
1000
,
0000
0010
0000
0100
0000
0000
0000
0001
,
0000
1000
0000
1000
0000
0000
0000
0001
,
0000
0001
0000
0100
0000
0000
0000
1000
,
0000
0010
0000
0010
0000
0000
0000
0100
,
0000
0100
0000
0001
0000
0000
0000
2002
,
0000
0000
3003
0000
0000
0000
0000
0010
,
0000
1000
0000
0010
0000
0100
0000
0000
,
0000
2002
0000
0000
0000
0000
0000
0000
,
0000
0000
0000
3003
;

//---------------dance-single - ----------------
#NOTEDATA:;
#CHARTNAME:;
#STEPSTYPE:dance-single;
#DESCRIPTION:;
#CHARTSTYLE:;
#DIFFICULTY:Challenge;
#METER:16;
#RADARVALUES:0.947907,0.941307,0.406968,0.141554,0.951067,688.000000,46.000000,16.000000,0.000000,0.000000,0.000000,0.000000,0.000000,0.947907,0.941307,0.406968,0.141554,0.951067,688.000000,46.000000,16.000000,0.000000,0.000000,0.000000,0.000000,0.000000;
#CREDIT:;
#NOTES:
0000
0000
0000
2001
,
0000
0000
0000
3002
,
0000
0203
0000
0320
,
0000
0000
0000
2030
,
0000
0000
3002
0000
0000
0000
1003
0100
,
1000
0000
0100
0000
0010
0001
0010
0001
1000
0000
0010
0000
0100
0010
0100
0000
,
1000
0000
0100
0000
0001
0100
0001
0100
0001
0100
0001
0100
0010
0000
1000
0000
,
0001
0000
0010
0000
0100
1000
0100
1000
0100
0000
0010
0000
0001
0000
0001
0000
,
1000
0000
1000
0000
0010
1000
0001
0010
0200
0000
0000
0000
1300
0000
0100
0000
,
0010
0001
1000
0001
0010
0000
0000
0100
0000
0000
1000
0000
0010
0000
0100
0000
,
0001
1000
0010
1000
0100
0000
0000
0010
0000
0000
0001
0000
1000
0000
0100
0000
,
0100
0000
0011
0000
0011
0000
0000
1001
0000
0000
1000
0010
1000
0000
0100
0000
,
0100
0000
0010
0000
0010
0000
0000
0011
0000
0000
1100
0000
0100
0000
0010
0000
,
0001
0010
0100
1000
0010
0000
0000
0100
0000
0000
0001
0000
0010
0000
0100
0000
,
1000
0100
1000
0010
0100
0000
0000
0001
0000
0000
0100
0000
0010
0000
1000
0000
,
1000
0000
0110
0000
0110
0000
0000
0101
0000
0000
0010
1000
0010
0000
0000
0010
,
0000
0000
0010
0000
0000
0100
0010
0100
0010
0100
0000
0000
0001
0000
1000
0000
,
0100
0010
0001
0010
0100
0000
0000
1000
0000
0000
0010
0000
0100
1000
0100
0010
,
0100
1000
0100
0010
0100
1000
0100
0010
0100
0000
0010
0000
1000
0000
0001
0000
,
0001
0000
1000
0000
1000
0000
0000
1010
0000
0000
0100
0001
0100
0000
0010
0000
,
0010
0000
1000
0000
1010
0000
0000
1100
0000
0000
0100
0000
0010
0000
0001
0000
,
1000
0010
0100
0010
1000
0000
0000
0001
0000
0000
1000
0000
0010
1000
0010
0100
,
0010
1000
0010
0100
0010
1000
0010
0100
0010
0000
1000
0000
0001
0000
0100
0000
,
0100
0000
0001
0000
0001
0000
0000
0110
0000
0000
0100
0010
1000
0000
0000
1000
,
0000
0000
1000
0000
0100
0010
0100
0010
0001
0000
0000
0000
1000
0000
0010
0000
,
0000
0100
0000
0000
0001
0000
0000
1000
0000
0000
0100
0000
0010
0000
0000
0001
,
0000
0000
1000
0000
0000
0100
0000
0000
0010
0000
0000
0000
0001
0000
1000
0000
,
0000
0010
0000
0000
0100
0000
0000
0010
0000
0000
1000
0000
0001
0000
0000
0100
,
0000
0000
0010
0000
0000
1000
0000
0000
0001
0000
0000
0000
1010
0000
0000
0110
,
0000
0000
0001
0000
0100
0000
0000
1001
0000
0000
0010
0000
0100
0000
0000
1001
,
0000
0000
0010
0000
0100
0010
0000
0010
0000
0000
1000
0000
0001
0010
0100
1000
,
0001
0010
0100
1000
0001
0010
0100
1000
0001
0010
0100
1000
0001
0000
1000
0000
,
0100
0000
0010
0000
0001
0100
0010
0100
0010
0000
0000
0000
1000
0000
0010
0000
,
1000
0000
0010
0000
0100
0001
0100
0001
0010
0000
0100
0000
1000
0010
1000
0010
,
0100
0000
0100
0000
0001
1000
0001
1000
0010
0000
0010
0000
0100
0000
0001
1000
,
0000
0100
0000
0000
0010
0001
0010
0001
0100
0000
0100
0000
0010
1000
0010
0000
,
0010
0100
0010
0000
0100
0001
0100
0010
1000
0010
0100
0000
0010
1000
0010
0100
,
0001
0010
0100
0000
1000
0001
1000
0001
0010
0000
0010
0000
0001
1000
0001
1000
,
0100
0000
0100
0000
0010
0001
0010
0001
1000
0000
1000
0000
0001
0000
1000
0010
,
0000
0100
0000
0000
0001
1000
0001
1000
0010
0000
0010
0000
1000
0100
0010
0001
,
0100
0010
0100
0001
1000
0100
1000
0001
0010
0001
0100
0010
0100
0000
0001
0000
,
1000
0000
0001
0000
0100
0010
0100
0010
1000
0000
1000
0000
0001
0100
0001
0100
,
0010
0000
0010
0000
1000
0010
1000
0010
0100
0000
0100
0000
0010
0000
1000
0001
,
0000
0100
0000
0000
0010
1000
0010
1000
0100
0000
0100
0000
0010
0001
0010
0000
,
0010
0100
0010
0000
0100
1000
0100
0010
0001
0010
0100
0000
1000
0000
0010
0000
,
1000
0001
0100
0010
0102
1003
0010
1000
,
0001
0010
0100
2000
0020
3030
0100
0001
,
0010
0000
0100
0000
1000
0000
0010
0000
0100
0000
0001
1000
0010
0100
0010
1000
,
0001
0010
0100
1000
0001
0000
0000
0000
0010
0000
0000
0000
0010
0000
0000
0000
1100
0000
0000
0000
1100
0000
0000
0000
0000
0000
1001
0000
0000
0000
0000
0000
,
0001
0100
0001
0000
0010
0000
0010
0000
0100
0000
0100
0000
0000
1100
0000
0000
,
0001
0000
0001
0000
0010
0000
0010
0000
1100
0000
1100
0000
0000
1001
0000
0000
,
1000
0010
1000
0000
0001
0000
0001
0000
0100
0000
0100
0000
0000
1010
0000
0000
,
0101
0000
0001
0000
0100
0000
0010
1000
0000
1000
0001
0000
0100
0000
0010
1000
,
0001
1000
0010
0000
0010
0000
0100
0000
0100
0000
0001
1000
0100
0010
0100
1000
,
0010
0100
0010
0100
0001
0000
1000
0000
0100
0000
0010
0001
0010
0001
0010
0000
,
0100
0000
1000
0000
1000
0000
0001
0000
0001
0000
0100
0001
1000
0100
0010
0000
,
0000
0101
0020
0030
1100
0020
0030
0101
,
0010
1100
0010
0001
0001
1000
1000
0001
,
0010
0000
0100
1000
0001
1000
0100
0000
0000
0010
0000
0000
0001
0000
0100
0000
,
0010
0000
1000
0001
0100
0001
0010
1000
0010
0001
0100
0000
0000
0000
0001
0000
,
0010
0000
0100
1000
0001
1000
0100
0000
0000
0010
0000
0000
0001
0000
0100
0000
,
0010
0000
1000
0001
0100
0001
0010
0000
0000
0100
0000
0000
1000
0000
0001
0000
,
0010
0000
0010
0000
1100
0000
1100
0000
0000
1001
0000
0000
0001
0100
0001
0000
,
0010
0000
0010
0000
0100
0000
0100
0000
0000
1100
0000
0000
0011
0000
0010
0000
,
0100
0000
1000
0100
0010
0001
0100
0000
0000
0010
0000
0000
1000
0000
0100
0000
,
0010
0000
0001
0010
0001
0100
0010
0000
0000
1000
0000
0000
0010
0000
0100
0000
,
0001
0000
0001
0000
0110
0000
0110
0000
0000
1010
0000
0000
0100
0001
0100
0000
,
0000
0100
0000
0000
0100
0000
0000
0010
0100
0010
0100
0010
0000
0000
1000
0000
,
0001
0000
0010
0100
1000
0100
0010
0000
0000
0001
0000
0000
0100
0000
0010
1000
,
0010
0001
0010
1000
0010
0001
0010
1000
0010
0001
0010
0000
0100
0000
0001
0000
,
1000
0000
1000
0000
0001
0000
0001
0000
0000
0101
0000
0000
0010
1000
0010
0000
,
0100
0000
0100
0000
0001
0000
0101
0000
0000
0011
0000
0000
0010
0000
0100
0000
,
1000
0000
0001
0100
0010
0100
0001
0000
0000
1000
0000
0000
0001
0000
0100
0001
,
0100
0010
0100
0001
0100
0010
0100
0001
0100
0010
0100
0000
0001
0000
1000
0000
,
0010
0000
0010
0000
1000
0000
1000
0000
0000
0110
0000
0000
0010
0000
0100
0000
,
0000
0100
0000
0000
0100
0000
0001
1000
0010
0100
0001
0000
0100
0000
0010
0000
,
0010
0000
1000
0001
0100
0001
0010
0000
0000
0011
0000
0000
2002
0000
0000
0000
,
3003
2002
0000
0000
0000
0000
0000
0000
,
0000
0000
0000
0000
0000
0000
0000
0000
0000
0003
3001
1000
0001
0100
0000
0000
;

//---------------dance-single - ----------------
#NOTEDATA:;
#CHARTNAME:;
#STEPSTYPE:dance-single;
#DESCRIPTION:;
#CHARTSTYLE:;
#DIFFICULTY:Hard;
#METER:14;
#RADARVALUES:0.778547,0.766383,0.185790,0.141554,0.508710,579.000000,21.000000,16.000000,0.000000,0.000000,0.000000,0.000000,0.000000,0.778547,0.766383,0.185790,0.141554,0.508710,579.000000,21.000000,16.000000,0.000000,0.000000,0.000000,0.000000,0.000000;
#CREDIT:;
#NOTES:
0000
0000
0000
0200
,
0000
0000
0000
0320
,
0000
2030
0000
3200
,
0000
0000
0000
0320
,
0000
0000
0032
0000
0000
0000
0103
0010
,
0100
0000
0001
0000
1000
0000
0100
0000
0010
0000
0001
0000
1000
0010
1000
0000
,
0100
0000
0010
0000
0001
1000
0001
1000
0001
1000
0001
1000
0010
0000
0100
0000
,
0001
0000
0010
0000
0100
1000
0100
1000
0100
0000
0010
0000
0001
0000
0001
0000
,
0010
0010
0100
1000
0002
0000
1003
0010
,
1000
0000
0001
0000
0010
0000
0000
0001
0000
0000
1000
0000
0010
0000
1000
0000
,
0001
0000
1000
0000
0100
0000
0000
0010
0000
0000
0100
0000
1000
0000
0001
0000
,
0001
0000
0100
0000
0100
0000
0000
0110
0000
0000
0001
1000
0001
0000
1000
0000
,
1000
0000
0010
0000
0010
0000
0000
0110
0000
0000
0010
0000
0100
0000
0010
0000
,
1000
0000
0100
0000
0010
0000
0000
0001
0000
0000
1000
0000
0001
0000
1000
0000
,
0010
0000
0100
0000
0001
0000
0000
0100
0000
0000
0010
0000
1000
0000
0001
0000
,
0001
0000
0010
0000
0010
0000
0000
1001
0000
0000
0010
0100
0010
0000
0000
1000
,
0000
1000
0000
0000
0000
0000
0001
1000
,
0100
0000
0010
0000
0001
0000
0000
1000
0000
0000
0001
0000
0010
0000
0001
0000
,
0100
0010
1000
0100
0010
0100
1000
0001
,
0001
0000
0100
0000
0100
0000
0000
1010
0000
0000
0100
0001
0100
0000
0001
0000
,
0001
0000
0100
0000
0100
0000
0000
1001
0000
0000
0100
0000
0010
0000
1000
0000
,
0001
0000
0010
0000
0100
0000
0000
1000
0000
0000
0001
0000
1000
0000
0001
0000
,
0100
0010
0100
0001
0010
0001
1000
0010
,
0010
0000
1000
0000
1000
0000
0000
0101
0000
0000
1000
0001
1000
0000
0000
0010
,
0000
0000
0100
0000
0001
1000
0001
1000
0001
0000
0000
0000
0100
0000
0001
0000
,
0000
1000
0000
0000
0100
0000
0000
0010
0000
0000
0100
0000
1000
0000
0000
0010
,
0000
0000
0100
0000
0000
0010
0000
0000
1000
0000
0000
0000
0100
0000
0010
0000
,
0000
0001
0000
0000
0010
0000
0000
0100
0000
0000
0010
0000
0001
0000
0000
1000
,
0000
0000
0001
0000
0000
0100
0000
0000
0010
0000
0000
0000
0100
0000
0000
0001
,
0000
0000
1000
0000
0010
0000
0000
0100
0000
0000
0001
0000
0010
0000
0000
0100
,
0000
0000
1000
0000
0001
0100
0000
0100
0000
0000
0001
0000
1000
0010
1000
0000
,
0001
0100
0001
0000
1000
0010
1000
0000
0001
0100
0001
0000
0100
0000
0010
0000
,
1000
0010
0200
0001
0301
0000
0100
0001
,
0010
0000
0100
0000
1000
0010
1000
0000
0001
0000
0100
0000
0010
0100
0010
0000
,
1000
0000
0010
0000
0100
0001
0100
0000
0001
0000
1000
0000
0010
0000
0100
0010
,
0000
0010
0000
0000
1000
0001
1000
0000
0100
0000
0010
0000
0001
0010
0001
0000
,
0100
0010
0100
0000
0001
0100
0001
0000
1000
0010
1000
0000
0010
0000
0100
0000
,
0001
0000
0010
0000
0100
1000
0100
0000
0010
0000
0001
0000
1000
0100
1000
0000
,
0100
0000
0010
0000
0001
0010
0001
0000
0010
0000
0100
0000
1000
0000
0010
0100
,
0000
0100
0000
0000
0001
1000
0001
0000
0100
0000
0010
0000
1000
0100
1000
0000
,
0001
0100
0001
0000
0100
0010
0100
0000
0001
0010
0001
0000
0100
0000
0001
0000
,
0010
0000
0001
0000
1000
0010
1000
0000
0001
0000
0010
0000
0100
1000
0100
0000
,
0010
0000
0001
0000
0100
0010
0100
0000
0010
0000
1000
0000
0001
0000
0100
0010
,
0000
0010
0000
0000
1000
0010
1000
0000
0001
0000
0100
0000
0001
0100
0001
0000
,
1000
0010
1000
0000
0100
0010
0100
0000
0010
0001
0010
0000
0001
0000
0010
0000
,
0100
1000
0100
0010
0002
0013
0100
0010
,
0001
1000
0001
0200
0000
0301
0100
0001
,
1000
0010
0100
0001
0010
0100
0100
0100
,
0010
0100
0010
0100
0010
0000
0000
0000
0001
0000
0000
0000
0010
0000
0000
0000
0100
0000
0000
0000
0100
0000
0000
0000
0000
0000
1100
0000
0000
0000
0000
0000
,
0100
0010
0100
0000
0010
0000
0010
0000
0001
0000
0001
0000
0000
0011
0000
0000
,
0001
0000
1000
0000
0010
0000
0010
0000
0100
0000
0100
0000
0000
1001
0000
0000
,
0100
0010
0100
0000
0001
0000
0001
0000
1000
0000
1000
0000
0000
1010
0000
0000
,
1000
0000
0001
0000
0010
0000
0100
1000
0000
1000
0100
0000
0010
0000
0001
0010
,
0000
0010
0100
0000
1000
0000
0100
0000
0010
0000
0001
1000
0100
0000
0010
0001
,
0010
0000
0100
1000
0001
0000
0010
0000
0100
0000
1000
0001
1000
0001
1000
0000
,
0010
0000
0100
0000
0100
0000
0010
0000
0010
0000
1000
0010
1000
0010
0100
0000
,
0000
0001
0200
0300
0010
2000
3000
0110
,
0000
1001
0000
0010
0010
0100
0100
0001
,
0010
0000
0001
0000
1000
0000
0010
0000
0000
1000
0000
0000
0010
0000
0100
0000
,
0001
1000
0100
0010
0010
0001
0000
0001
,
0010
0000
0100
0000
1000
0000
0100
0000
0000
0010
0000
0000
0001
0000
0100
0000
,
0010
0000
1000
0000
0100
0000
0010
0000
0000
0001
0000
0000
1000
0000
0010
0000
,
0100
0000
0100
0000
0010
0000
0010
0000
0000
1010
0000
0000
0100
0001
0100
0000
,
0010
0000
0010
0000
0100
0000
0100
0000
0000
0110
0000
0000
0010
0000
1000
0000
,
0010
0000
0100
0000
0001
0000
0100
0000
0000
0010
0000
0000
1000
0000
0100
0000
,
0010
0000
0001
0000
1000
0000
0010
0000
0000
0100
0000
0000
0001
0000
0010
0000
,
0100
0000
0100
0000
1000
0000
1000
0000
0000
1100
0000
0000
0100
0010
0100
0000
,
0000
0010
0000
0000
0010
0000
0000
0000
0000
0000
0000
0000
0000
0000
0001
0000
,
1000
0000
0001
0000
0010
0000
0100
0000
0000
0010
0000
0000
0001
0000
1000
0000
,
0100
1000
0001
0010
0001
1000
0100
0010
,
0001
0000
0001
0000
0100
0000
0100
0000
0000
0101
0000
0000
0010
1000
0010
0000
,
0100
0000
0100
0000
0001
0000
0001
0000
0000
0011
0000
0000
0010
0000
0100
0000
,
1000
0000
0001
0000
0010
0000
0001
0000
0000
1000
0000
0000
0010
0000
1000
0000
,
0100
0010
0001
1000
0100
1000
0010
0100
,
0001
0000
0001
0000
0100
0000
0100
0000
0000
1010
0000
0000
0100
0000
0010
0000
,
0000
0010
0000
0000
0010
0000
1000
0001
1000
0001
1000
0000
0100
0000
0010
0000
,
0001
0000
1000
0000
0100
0000
0010
0000
0000
0011
0000
0000
0220
0000
0000
0000
,
0330
2002
0000
0000
0000
0000
0000
0000
,
0000
0000
0000
3003
;

//---------------dance-single - ----------------
#NOTEDATA:;
#CHARTNAME:;
#STEPSTYPE:dance-single;
#DESCRIPTION:;
#CHARTSTYLE:;
#DIFFICULTY:Medium;
#METER:12;
#RADARVALUES:0.605396,0.592205,0.026541,0.336191,0.199060,438.000000,3.000000,38.000000,0.000000,0.000000,0.000000,0.000000,0.000000,0.605396,0.592205,0.026541,0.336191,0.199060,438.000000,3.000000,38.000000,0.000000,0.000000,0.000000,0.000000,0.000000;
#CREDIT:;
#NOTES:
0000
0000
0000
0200
,
0000
0000
0000
0320
,
0000
2030
0000
3200
,
0000
0000
0000
0320
,
0000
0032
0000
0103
,
0010
0100
0001
2000
,
3002
0000
0203
0000
0302
0000
1003
0001
,
1000
0000
0010
0100
0010
0000
1000
1000
,
0001
0001
0100
0100
0020
0000
0130
0001
,
0100
0000
0000
0000
0010
0000
0000
0010
0000
0000
0010
0000
0100
0000
0010
0000
,
1000
0000
0000
0000
0001
0000
0000
0001
0000
0000
0001
0000
2000
0000
0000
0000
,
3020
0000
0000
0000
0130
0000
0000
0100
0000
0000
0010
0000
0010
0000
0100
0000
,
0100
0000
0001
0000
0001
0000
0000
0001
0000
0000
1000
0000
0010
0000
1000
0000
,
0010
0000
0000
0000
0100
0000
0000
0100
0000
0000
0100
0000
0001
0000
1000
0000
,
0010
0000
0000
0000
1000
0000
0000
1000
0000
0000
1000
0000
1000
0000
0001
0000
,
0001
0000
0010
0000
0010
0000
0000
0010
0000
0000
0001
0000
0010
0000
0000
0100
,
0000
1000
0000
0000
0000
0000
0001
1000
,
0001
0000
0000
0000
0100
0000
0000
0100
0000
0000
0100
0000
0001
0000
0100
0000
,
0001
0000
1000
0010
1000
0000
0001
0100
,
0100
0000
0010
0000
0010
0000
0000
0010
0000
0000
0010
0000
1000
0000
0010
0000
,
0100
0000
0000
0000
0001
0000
0000
0001
0000
0000
0001
0000
1000
0000
0010
0000
,
1000
0000
0000
0000
0010
0000
0000
0010
0000
0000
0010
0000
1000
0000
0010
0000
,
1000
0000
0100
0010
0001
0000
1000
0001
,
0001
0000
0100
0000
0100
0000
0000
0100
0000
0000
0100
0000
0001
0000
0000
0001
,
0000
0001
1000
0100
1000
0000
0100
0020
,
0000
0032
0000
2003
0000
3020
0000
0230
,
0000
0302
0000
2003
0000
3200
0000
0320
,
0000
0032
0000
0023
0000
0230
0000
2300
,
0000
0000
3020
0000
0000
0000
0230
0000
0000
0000
0310
0000
0010
0000
0000
1000
,
0000
0000
0010
0000
0010
0000
0000
0100
0000
0000
0010
0000
0010
0000
0000
1000
,
0000
0000
0010
0000
0010
0100
0000
0100
0000
0000
0000
0000
0010
0000
0100
0000
,
0001
0000
1000
0010
0100
0000
0001
0010
,
0100
1000
0100
0010
0001
0000
1000
0001
,
0100
0000
0010
1000
0001
0000
0100
0001
,
0010
0000
0000
0000
0100
0000
1000
0000
0100
0000
0000
0000
0010
0000
0001
1000
,
0000
1000
0000
0000
1000
0000
0001
0000
1000
0000
0000
0000
0001
0000
0100
0000
,
0001
0000
1000
0010
0100
0000
0001
0010
,
0100
0000
1000
0100
0010
0000
0001
0100
,
0010
0000
0000
0000
1000
0000
0010
0000
0100
0000
0000
0000
0001
0000
0010
0100
,
0000
0100
0000
0000
1000
0000
0001
0000
0100
0000
0000
0000
0010
0000
1000
0000
,
0010
0000
0100
0001
1000
0000
0010
0100
,
0010
0000
1000
0001
0010
0000
0100
1000
,
0100
0000
0000
0000
0010
0000
0001
0000
0100
0000
0000
0000
0010
0000
1000
0001
,
0000
0001
0000
0000
1000
0000
0001
0000
0100
0000
0000
0000
0010
0000
1000
0000
,
0010
0000
0100
0001
0100
0000
0001
1000
,
0100
0000
0010
0001
0200
0310
1000
0010
,
0100
0001
0100
0020
0000
1030
0010
0100
,
0010
1000
0010
0100
0001
2000
0000
0000
,
3010
0000
0100
0000
0001
0000
0100
0000
0000
0000
0010
0000
0000
0010
0000
0000
,
0010
0000
1000
0000
0001
0000
0100
0000
0000
0000
0001
0000
0000
0001
0000
0000
,
0001
0000
1000
0000
0010
0000
1000
0000
0000
0000
0100
0000
0000
0100
0000
0000
,
0100
0000
0010
0000
0001
0000
1000
0000
0000
0000
0010
0000
0000
0010
0000
0000
,
0010
0100
0010
1000
0010
0100
0010
1000
,
0001
0100
0010
0100
0001
2000
0000
3002
,
0000
0103
0010
1000
0000
0001
0100
0001
,
0000
1000
0001
0100
0000
0010
1000
0010
,
0000
0010
1000
0000
1000
0010
0000
0110
,
0000
1001
0000
0001
0001
1000
1000
0001
,
0100
0000
0001
0000
0000
0000
0100
0000
0000
0100
0000
0000
0100
0000
0001
0000
,
0100
0010
0000
1000
0010
1000
0000
0010
,
1000
0000
0010
0000
0000
0000
0100
0000
0000
0100
0000
0000
0100
0000
0010
0000
,
0100
0000
0001
0000
0000
0000
1000
0000
0000
1000
0000
0000
1000
0000
0002
0000
,
0000
0000
0203
0000
0000
0000
0310
0000
0000
0010
0000
0000
0100
0000
0100
0000
,
0010
0000
0010
0000
1000
0000
1000
0000
0000
1000
0000
0000
0001
0000
0100
0000
,
0001
0000
0100
0000
0000
0000
0010
0000
0000
0010
0000
0000
0010
0000
1000
0000
,
0001
0000
0100
0000
0000
0000
0001
0000
0000
0001
0000
0000
0001
0000
0001
0000
,
1000
0000
1000
0000
0100
0000
0100
0000
0000
0100
0000
0000
1000
0000
0100
0000
,
0000
0010
0000
0000
0001
0000
0000
0000
0000
0000
0000
0000
0000
0000
1000
0000
,
0001
0000
1000
0000
0000
0000
0010
0000
0000
0010
0000
0000
0010
0000
1000
0000
,
0010
1000
0000
0001
0100
0001
0000
1000
,
0010
0000
0010
0000
0100
0000
0100
0000
0000
0100
0000
0000
0100
0000
0001
0000
,
0100
0000
0010
0000
0000
0000
1000
0000
0000
1000
0000
0000
1000
0000
0001
0000
,
0100
0000
0001
0000
0000
0000
0100
0000
0000
0100
0000
0000
0100
0000
0001
0000
,
0100
0001
0000
0010
0100
1000
0000
0001
,
1000
0000
1000
0000
0010
0000
0010
0000
0000
0010
0000
0000
0010
0000
1000
0000
,
0000
1000
0000
0000
0010
0000
0100
0000
0001
0000
1000
0000
0000
0000
0010
0000
,
0100
0000
0010
0000
0000
0000
0100
0000
0000
0010
0000
0000
0200
0000
0000
0000
,
0300
2002
0000
0000
0000
0000
0000
0000
,
0000
0000
0000
3003
;

//---------------dance-single - ----------------
#NOTEDATA:;
#CHARTNAME:;
#STEPSTYPE:dance-single;
#DESCRIPTION:;
#CHARTSTYLE:;
#DIFFICULTY:Beginner;
#METER:3;
#RADARVALUES:0.222442,0.278685,0.053083,0.212331,0.000000,146.000000,6.000000,24.000000,0.000000,0.000000,0.000000,0.000000,0.000000,0.222442,0.278685,0.053083,0.212331,0.000000,146.000000,6.000000,24.000000,0.000000,0.000000,0.000000,0.000000,0.000000;
#CREDIT:;
#NOTES:
// measure 0
0000
0000
0000
0002
,  // measure 1
0000
0000
0000
1003
,  // measure 2
0000
1000
0000
2000
,  // measure 3
0000
0000
0000
3001
,  // measure 4
0000
0002
0000
0103
,  // measure 5
0000
0000
0000
0020
,  // measure 6
0000
0230
0000
0301
,  // measure 7
0000
0100
0000
0001
,  // measure 8
0000
0020
0000
1030
,  // measure 9
0000
1000
0000
0001
,  // measure 10
0000
0001
0000
0200
,  // measure 11
0300
0200
0300
0010
,  // measure 12
0000
1000
0000
0001
,  // measure 13
0000
1000
0000
0001
,  // measure 14
0000
0001
0000
1000
,  // measure 15
0000
1000
0000
0020
,  // measure 16
0000
0030
0000
1000
,  // measure 17
0000
0010
0000
0001
,  // measure 18
0000
0100
0000
0010
,  // measure 19
0000
0100
0000
0001
,  // measure 20
0000
0010
0000
1000
,  // measure 21
0000
0100
0000
0001
,  // measure 22
0000
0100
0000
0010
,  // measure 23
0000
1000
0000
0200
,  // measure 24
0000
0000
0300
0000
0000
0000
0000
1000
,  // measure 25
0000
0000
0000
1000
0000
0000
0000
1000
,  // measure 26
0000
0000
0000
1000
0000
0000
0000
0001
,  // measure 27
0000
0000
0000
0001
0000
0000
0000
0001
,  // measure 28
0000
0000
0000
0100
0000
0000
1001
0000
,  // measure 29
0000
0110
0000
1001
,  // measure 30
0000
0110
0000
0100
,  // measure 31
0000
0001
0000
1000
,  // measure 32
0000
0010
0000
0100
,  // measure 33
0000
1000
0000
0010
,  // measure 34
0000
0001
1000
0000
,  // measure 35
0000
0001
0000
1000
,  // measure 36
0000
0001
0000
0100
,  // measure 37
0000
0001
0000
1000
,  // measure 38
0000
0001
0000
0000
,  // measure 39
0000
0100
0000
0100
,  // measure 40
0000
1000
0000
0020
,  // measure 41
0000
0030
0000
0020
,  // measure 42
0000
2030
0000
3000
,  // measure 43
0000
0001
0000
0100
,  // measure 44
0000
0010
0000
2000
,  // measure 45
0000
0000
3000
0000
1001
0000
0000
0010
,  // measure 46
0000
0000
0000
0200
0000
0300
0000
0010
,  // measure 47
0000
0000
0000
0010
0000
0100
0000
0010
,  // measure 48
0000
0100
0000
0000
0000
0010
0000
0000
,  // measure 49
0000
1000
0000
0000
0000
1000
0000
0000
,  // measure 50
0000
0001
0000
0000
0000
0001
0000
0000
,  // measure 51
0000
0100
0000
0000
0000
0100
0000
0000
,  // measure 52
0000
0010
0000
0000
0000
0010
0000
0000
,  // measure 53
0000
0010
0000
0000
0000
0200
0000
0300
,  // measure 54
0000
0010
0000
0000
0000
1000
0000
0000
,  // measure 55
0000
0001
0000
0000
0000
0020
0000
0130
,  // measure 56
0000
0020
0030
0000
0200
0300
0000
0010
,  // measure 57
0000
0000
0000
0020
0000
0000
0000
1030
,  // measure 58
0000
0000
0000
0010
0000
0000
0000
0001
,  // measure 59
0000
0000
0000
0010
0000
0000
0000
0100
,  // measure 60
0000
0000
0000
0010
0000
0000
0000
1000
,  // measure 61
0000
0000
0000
0001
0000
0000
0000
1000
,  // measure 62
0000
0000
0000
1000
0000
0000
0000
0001
,  // measure 63
0000
0000
0000
0001
0000
0000
0000
1000
,  // measure 64
0000
0000
0000
1000
0000
0000
0000
0001
,  // measure 65
0000
0000
0000
0010
0000
0000
0000
0100
,  // measure 66
0000
0000
0000
0100
0000
0000
0000
0020
,  // measure 67
0000
0000
0000
0030
0000
0000
0000
0001
,  // measure 68
0000
0000
0000
0100
0000
0000
0000
0010
,  // measure 69
0000
0000
0000
1000
0000
0000
0000
0001
,  // measure 70
0000
0000
0000
0010
0000
0000
0000
1000
,  // measure 71
0000
0000
0000
0001
0000
0000
0000
1000
,  // measure 72
0000
0000
0000
0010
0000
0000
0000
0001
,  // measure 73
0000
0000
0000
0100
0000
0000
0000
0010
,  // measure 74
0000
0000
0000
1000
0000
0000
0000
0020
,  // measure 75
0000
0000
0000
0030
0000
0000
0000
0100
,  // measure 76
0000
0000
0000
0100
0000
0000
0000
0000
,  // measure 77
0000
2002
0000
0000
0000
0000
0000
0000
,  // measure 78
0000
0000
0000
3003
;
