#VERSION:0.83;
#TITLE:BLACK or WHITE;
#SUBTITLE:;
#ARTIST:BlackYooh vs. siromaru;
#TITLETRANSLIT:;
#SUBTITLETRANSLIT:;
#ARTISTTRANSLIT:;
#GENRE:;
#ORIGIN:;
#CREDIT:;
#BANNER:;
#BACKGROUND:;
#PREVIEWVID:;
#JACKET:BLACK or WHITE-jacket.png;
#CDIMAGE:;
#DISCIMAGE:;
#LYRICSPATH:;
#CDTITLE:;
#MUSIC:BLACK or WHITE.mp3;
#OFFSET:0.100000;
#SAMPLESTART:52.580074;
#SAMPLELENGTH:12.000000;
#SELECTABLE:YES;
#BPMS:0.000=185.020;
#STOPS:58.000=0.160,
59.500=0.160,
353.000=0.240;
#DELAYS:;
#WARPS:;
#TIMESIGNATURES:0.000=4=4;
#TICKCOUNTS:0.000=4;
#COMBOS:0.000=1;
#SPEEDS:0.000=1.000=0.000=0;
#SCROLLS:0.000=1.000;
#FAKES:;
#LABELS:0.000=Song Start;
#BGCHANGES:;
#KEYSOUNDS:;
#ATTACKS:
;

//---------------dance-single - ----------------
#NOTEDATA:;
#CHARTNAME:;
#STEPSTYPE:dance-single;
#DESCRIPTION:;
#CHARTSTYLE:;
#DIFFICULTY:Hard;
#METER:18;
#RADARVALUES:1.019287,1.216961,0.713501,0.593248,0.958016,890.000000,801.000000,89.000000,74.000000,0.000000,0.000000,0.000000,0.000000,0.000000,1.019287,1.216961,0.713501,0.593248,0.958016,890.000000,801.000000,89.000000,74.000000,0.000000,0.000000,0.000000,0.000000,0.000000;
#CREDIT:;
#NOTES:
// measure 0
0000
0000
0000
0000
0000
0000
0000
0000
0001
1000
0001
0010
0100
1000
0010
0100
,  // measure 1
0001
0010
0001
0010
0100
1000
0010
0100
0001
0100
0001
0010
0100
1000
0010
0100
,  // measure 2
0001
1000
0001
0010
0100
1000
0010
0100
0001
1000
0001
0010
0100
1000
0010
0100
,  // measure 3
0001
1000
0001
0010
0100
1000
0010
0100
0001
0010
0001
0010
0100
1000
0010
0100
,  // measure 4
0001
0100
0001
0010
0100
1000
0010
0100
0001
1000
0001
0010
0100
1000
0010
0100
,  // measure 5
0001
1000
0001
0010
0100
1000
0010
0100
0001
0100
0001
0010
0100
1000
0010
0100
,  // measure 6
0001
0100
0001
1000
0010
1000
0001
0000
1001
0000
1010
0000
0101
0000
1010
0000
,  // measure 7
1001
0000
1100
0000
0110
0000
1001
0000
0202
0000
0303
0000
0001
1000
0001
1000
,  // measure 8
0001
0000
0000
1000
0000
0000
0001
0000
0000
1000
0000
0000
0001
0000
0010
0000
0100
0000
1000
0000
0100
0000
0010
0000
0001
0000
0000
0000
0000
0000
0000
0000
0000
0000
0000
0000
2000
0000
0000
0000
0000
0000
3001
0000
0000
0000
0000
0000
,  // measure 9
0020
0031
0200
0301
2000
3001
0020
0031
,  // measure 10
0200
0000
0301
0000
0010
0001
1000
0001
0200
0000
0310
0000
2000
0000
3010
0000
,  // measure 11
0200
0310
0002
0013
0200
0310
2000
3010
,  // measure 12
1000
0010
0100
0010
1000
0001
0100
0010
0200
0000
0000
0000
0302
0000
1003
0000
,  // measure 13
0020
1030
0200
1300
0002
1003
0020
1030
,  // measure 14
0200
0000
1300
0000
0001
1000
0001
0010
0100
0000
1000
0010
0100
0010
0100
0000
,  // measure 15
0001
0010
0001
0010
0100
1000
0100
1000
0001
0100
0001
0100
0010
1000
0001
0100
,  // measure 16
0010
1000
0001
1000
0000
0000
0010
0000
0000
1000
0000
0000
1002
0000
0000
0000
0000
0000
0103
0000
0000
0010
0000
0000
,  // measure 17
2010
0000
3001
0100
0120
0000
1030
0001
,  // measure 18
0201
0000
0310
1000
1002
0000
1003
0100
,  // measure 19
0120
0000
0000
0000
0000
0000
0031
0000
0000
1000
0000
0000
1010
0000
0000
0010
0000
0000
1000
0000
0010
0000
0100
0000
,  // measure 20
0001
0000
0010
0000
0100
0000
1002
0000
0000
0103
0000
0000
2010
0000
0000
3001
0000
0000
0201
0000
0000
0310
0000
0000
,  // measure 21
2010
3100
0210
1300
1002
0013
2100
3001
,  // measure 22
0201
0310
2010
3001
0021
0130
2100
3001
,  // measure 23
1020
0000
0130
0000
0010
0100
1000
0100
0001
0010
0001
1000
0010
1000
0001
0010
,  // measure 24
0001
0100
0010
0100
0020
0000
0000
0000
2030
0000
0000
0000
3002
0000
0000
0000
,  // measure 25
1003
0010
1000
0001
0100
0000
0010
0000
,  // measure 26
1000
0001
0010
0001
0100
0000
0010
0000
,  // measure 27
1000
0100
0010
0000
0001
0000
1000
0000
,  // measure 28
0010
0100
0001
0100
0010
0000
1000
0010
,  // measure 29
1000
0001
0100
0000
0010
0000
0100
1000
,  // measure 30
0100
0001
0010
0000
0100
0000
1000
0100
,  // measure 31
0010
0001
1000
0001
2000
0000
3002
0000
,  // measure 32
0103
0000
0000
0000
0010
0100
0001
0100
0001
1000
0010
1000
0010
0100
0010
1000
,  // measure 33
0001
1000
0000
0000
0001
0100
0001
0100
0010
1000
0000
0000
1000
0001
1000
0100
,  // measure 34
0010
0001
0000
0000
0100
0010
1000
0100
0010
0100
1000
0010
0100
0010
0100
0001
,  // measure 35
1000
0100
0000
0000
0010
0001
1000
0001
0010
0100
0010
0001
1000
0100
0010
0100
,  // measure 36
1000
0001
0000
0000
1000
0010
0100
0001
1000
0010
0100
0001
0010
0100
0010
0001
,  // measure 37
0100
0010
0000
0000
1000
0010
1000
0001
0100
0010
0000
0000
0100
0001
0010
0100
,  // measure 38
1000
0001
0000
0000
0100
0010
0100
0010
1000
0001
0010
0001
1000
0100
1000
0010
,  // measure 39
0100
0001
0000
0000
1000
0000
0010
0000
0010
0000
1000
0000
0100
0000
0100
0000
,  // measure 40
1000
0010
0100
0001
0100
0000
0000
0000
0010
1000
0001
0000
0100
0000
0100
0000
,  // measure 41
0010
1000
1010
0000
1100
0000
0101
0000
,  // measure 42
0011
0000
0000
0000
1010
0000
0010
0100
0010
0100
0001
0000
1000
0000
1000
0000
,  // measure 43
0010
0100
0101
0000
1100
0000
1010
0000
,  // measure 44
0011
0000
0000
0000
0101
0000
0100
0001
0100
0001
1000
0000
0010
0000
0010
0000
,  // measure 45
0100
0001
0101
0000
0011
0000
1010
0000
,  // measure 46
1100
0000
0000
0000
0101
0000
0010
0001
0010
0001
1000
0000
0001
0000
0001
0000
,  // measure 47
0100
0010
1010
0000
0011
0000
0101
0000
,  // measure 48
1100
0000
0000
0000
1010
0000
0100
0001
0100
0001
1000
0000
0010
0000
0100
0000
,  // measure 49
0100
0001
1001
0000
0101
0000
1010
0000
,  // measure 50
0110
0000
2010
0000
3001
0001
0001
1000
,  // measure 51
1020
0000
0000
0000
0130
0000
0000
0010
0000
0000
1000
0000
0000
0001
0000
0000
,  // measure 52
0100
0010
0100
0010
0100
0000
0000
0000
0001
1000
0001
1000
0001
0000
0000
0000
,  // measure 53
0100
0010
0100
0010
1000
0000
0000
0000
0001
0100
0001
0100
0010
0000
0000
0000
,  // measure 54
1000
0001
1000
0001
0100
0000
0000
0000
0010
0000
1000
0000
0001
0000
1000
0000
,  // measure 55
0001
0010
0100
1000
0001
0000
0000
0000
1001
0000
0000
0000
1000
0010
0100
0001
,  // measure 56
0010
0001
1000
0100
2000
0000
0020
0000
0000
0000
0000
0000
0000
0000
0000
0000
,  // measure 57
0030
0000
3020
0200
0000
0000
0000
0000
,  // measure 58
0300
0000
0230
0002
0000
0000
0000
0000
,  // measure 59
0003
0000
0302
0020
0000
0000
0000
0000
,  // measure 60
0030
0000
0023
0200
0000
0000
0000
0000
,  // measure 61
0300
0000
0230
2000
0000
0000
0000
0000
,  // measure 62
3000
0000
2300
0002
0000
0000
0000
0000
,  // measure 63
0003
0000
0000
0000
3001
0010
0100
0000
0010
0100
1000
0000
0001
0010
0100
0000
,  // measure 64
0010
0100
1000
0000
0001
0000
0010
0000
1100
0000
0000
0000
1000
0000
0010
0000
,  // measure 65
0102
1000
0010
0100
,  // measure 66
0013
0000
0100
0001
1010
0000
1000
0100
,  // measure 67
0011
0000
0000
0000
0000
0000
0001
0000
0000
0000
0000
0000
1000
0000
0000
0100
0000
0000
1000
0000
0000
0001
0000
0000
0010
0000
0000
0001
0000
0000
0100
0000
0000
0010
0000
0000
0100
0000
0000
0000
0001
0000
0000
0000
1000
0000
0000
0000
,  // measure 68
0001
0000
0010
0000
0100
0000
1000
0000
0000
1000
0000
0000
0101
0000
0000
0010
0000
0000
0100
0000
0000
0100
0000
0000
,  // measure 69
1010
0001
0010
0010
1001
0100
1000
1000
,  // measure 70
0011
0000
0100
0000
0001
0000
0001
0000
1100
0000
0010
1000
0010
0100
0001
0010
,  // measure 71
0100
1000
0010
0000
0110
0000
1010
0000
0110
0000
0101
0000
1001
0000
1100
0000
,  // measure 72
0001
1000
0001
1000
0010
0000
0100
0000
0010
1000
0001
1000
0010
0000
0100
0001
,  // measure 73
0000
0100
0010
0000
2000
0000
0000
3001
0100
0000
0100
0010
1000
0000
0000
0101
,  // measure 74
0000
0000
0010
0000
0100
0001
0100
0010
1000
0010
0100
0001
0010
0001
1000
0100
,  // measure 75
1000
0000
0000
0010
0000
0000
0100
0000
0000
0010
0000
0000
1000
0000
0000
0000
0100
0000
0000
0000
1000
0000
0000
0000
0001
0000
0000
0000
0010
0000
0000
0000
0001
0000
0000
0000
1000
0000
0000
0000
0010
0000
0000
0000
1000
0000
0000
0000
,  // measure 76
0001
0000
0000
0000
0100
0000
0000
0000
0001
0000
0000
0000
0020
0000
0000
0000
0000
0000
0000
0000
0000
0000
0000
0000
0130
0000
0000
1000
0000
0000
0100
0000
0000
1000
0000
0000
0001
0000
0000
0000
0000
0000
1000
0000
0000
0000
0000
0000
,  // measure 77
1010
0000
0110
0000
0100
0001
1000
0100
1000
0001
0010
0100
0010
0001
0100
0010
,  // measure 78
0100
0001
0010
0001
2000
0000
0000
0000
3010
0000
1000
0000
0001
0000
1000
0000
,  // measure 79
0100
0000
0010
0000
0001
0010
0100
1000
0010
0100
0010
1000
0001
0100
0000
0010
,  // measure 80
1000
0000
0010
1000
0002
0000
0003
0000
1001
0000
0010
1000
0001
0000
0100
0000
,  // measure 81
0010
0000
1000
0000
1020
0000
0030
0000
0101
0000
0010
1000
0100
0000
0110
0000
,  // measure 82
0011
1001
1020
0000
0230
0000
0302
0000
,  // measure 83
0023
0000
0130
1000
0100
0010
1002
0000
,  // measure 84
2003
0000
0000
0000
3010
0000
1010
0000
1000
0001
0100
0000
0110
0000
1010
0000
,  // measure 85
1000
0001
0010
0000
0011
0000
0101
0000
0100
0001
1000
0000
1010
0000
0110
0000
,  // measure 86
0100
0001
1000
0000
0001
0010
0100
0010
0001
1000
0100
1000
0010
0100
1000
0100
,  // measure 87
0001
0010
0001
1000
0010
0000
0010
0000
0010
0000
0010
0000
1000
0100
0010
0001
,  // measure 88
1000
0010
0100
0010
0100
0000
2002
0000
0000
0000
0000
0000
0000
0000
0000
0000
,  // measure 89
0000
0000
0000
0000
,  // measure 90
0000
0000
0000
0000
,  // measure 91
0000
0000
0000
0000
,  // measure 92
3003
0000
0000
0000
;

//---------------dance-single - ----------------
#NOTEDATA:;
#CHARTNAME:;
#STEPSTYPE:dance-single;
#DESCRIPTION:;
#CHARTSTYLE:;
#DIFFICULTY:Medium;
#METER:14;
#RADARVALUES:0.707775,0.958817,0.448945,0.328692,0.188396,618.000000,562.000000,56.000000,41.000000,0.000000,0.000000,0.000000,0.000000,0.000000,0.707775,0.958817,0.448945,0.328692,0.188396,618.000000,562.000000,56.000000,41.000000,0.000000,0.000000,0.000000,0.000000,0.000000;
#CREDIT:;
#NOTES:
0000
0000
0000
0000
0001
0010
0100
1000
,
0001
0010
0100
1000
0001
0010
0100
1000
,
0001
0010
0100
1000
0001
1000
0100
0010
,
0001
1000
0100
0010
0001
1000
0100
0010
,
0001
1000
0100
0010
0001
1000
0100
0010
,
0001
0010
0100
1000
0100
0010
0001
1000
,
0100
0010
0001
0100
0001
0001
1000
1000
,
0010
0010
0100
0100
0002
0000
0013
0100
,
1000
0000
0010
0000
1000
0001
1000
0001
1000
0000
0000
0000
1001
0000
0000
0000
,
0101
0110
1010
0101
,
1001
0000
0000
0000
1000
0001
1000
0001
0100
0000
0000
0000
1010
0000
0000
0000
,
0101
0011
1100
1001
,
0001
0010
0100
1000
0001
0010
0100
1000
0001
0000
0000
0000
1010
0000
0000
0000
,
0110
0101
1001
1100
,
0110
0000
0000
0000
0001
1000
0001
1000
0010
0000
1000
0010
1000
0010
0100
0000
,
0001
0100
0001
0000
1000
0010
0100
0000
0100
0000
0100
0000
0001
0010
0001
0010
,
0100
1000
0001
0000
0010
0000
0100
0000
1002
0000
0000
0000
0103
0000
0010
0000
,
2000
0000
3001
0100
0020
0000
2030
0000
,
3002
0000
0103
0010
2000
0000
3100
0010
,
0002
0000
0000
0000
0000
0000
0013
0000
0000
0100
0000
0000
1000
0000
0000
0010
0000
0000
1000
0000
0001
0000
1000
0000
,
0001
1000
0001
0100
0000
0000
0110
0000
0000
1001
0000
0000
,
1100
0110
0011
1100
,
1001
0101
0011
1100
,
1010
0000
1000
0000
0010
0100
0010
0000
1000
0001
1000
0000
0010
0100
0010
0000
,
1000
0100
1000
0000
0002
0000
0000
0000
2003
0000
0000
0000
3002
0000
0000
0000
,
1003
0010
1000
0000
0001
0000
0010
0000
,
0100
1000
0100
0000
0010
0000
0001
0000
,
1000
0001
1000
0000
0010
0000
0100
0000
,
0010
0100
0010
0000
1000
0000
0001
0000
,
0100
0001
0100
0000
0010
0000
1000
0000
,
0100
0010
0100
0000
0010
0000
0001
0000
,
1000
0001
1000
0000
0020
0000
2030
0000
,
3001
0000
0010
0001
0010
0100
1000
0010
,
0100
0000
0001
1000
0001
0000
1000
0010
,
0100
0000
0001
1000
0010
1000
0100
0010
,
0001
0000
0100
0010
1000
0001
0100
0001
,
0010
0000
0100
1000
0100
0010
0001
1000
,
0010
0000
1000
0001
0100
0000
0010
1000
,
0001
0000
0100
0010
1000
0001
1000
0010
,
0100
0000
0001
1000
1000
0010
0100
0100
,
0001
1000
0001
1000
0010
0000
0000
0000
0100
0000
0010
0000
1000
0000
0001
0000
,
1000
0001
0101
0000
0011
0000
1010
0000
,
1100
0000
0101
0000
0001
0100
0010
1000
,
0001
1000
1010
0000
0011
0000
0101
0000
,
1100
0000
1010
0000
1000
0001
0100
0001
,
1000
0010
1010
0000
1100
0000
0101
0000
,
0011
0000
1010
0000
1000
0010
0100
0001
,
1000
0001
0101
0000
1100
0000
1010
0000
,
0011
0000
0101
0000
1000
0010
0100
0010
,
1000
0001
1001
0000
1010
0000
0101
0000
,
0110
0000
2010
0000
3001
0001
0001
1000
,
2000
0000
0000
0000
3001
0000
0000
0010
0000
0000
0100
0000
0000
1000
0000
0000
,
0100
0010
0100
0000
0010
0000
0000
0000
0001
1000
0001
0000
0100
0000
0000
0000
,
0001
1000
0001
0000
0010
0000
0000
0000
0100
1000
0100
0000
0010
0000
0000
0000
,
0001
0010
0001
0000
1000
0000
0000
0000
0001
0000
1000
0000
0100
0000
0010
0000
,
0001
1000
0001
0000
0100
0000
0000
0000
0010
0000
0000
0000
1000
0000
0001
0000
,
0100
0001
1000
0020
0000
0000
0000
0000
,
0000
0000
0130
0002
0000
0000
0000
0000
,
0000
0000
0013
0200
0000
0000
0000
0000
,
0000
0000
1300
0002
0000
0000
0000
0000
,
0000
0000
0103
0020
0000
0000
0000
0000
,
0000
0000
1030
0200
0000
0000
0000
0000
,
0000
0000
0310
0002
0000
0000
0000
0000
,
0000
0000
1003
0100
0010
0100
1000
0100
,
0010
0001
0010
0100
2000
0000
3010
0100
,
0002
0100
1000
0100
,
1003
0000
0010
0100
0001
0000
1000
0100
,
0010
0000
0000
0001
0000
0000
1000
0000
0000
1000
0000
0000
0010
0000
0000
0010
0000
0000
0100
0000
0001
0000
0100
0000
,
0001
0000
0100
0000
0001
0000
0100
0000
0000
0010
0000
0000
1000
0000
0000
1000
0000
0000
0001
0000
0000
0010
0000
0000
,
0100
0100
1000
0100
0010
0010
0001
0010
,
0100
0100
1000
0001
0100
0010
1000
0010
,
0100
0001
2000
0010
0010
0010
0010
3010
,
1000
0000
0001
0000
1000
0000
0000
0000
0010
0000
0100
0000
0001
0000
1000
0001
,
0000
1000
0001
0000
0100
0000
0000
0001
0100
0000
0010
0000
1000
0000
0000
0001
,
0000
0010
0100
1000
0100
0010
0001
1000
,
0001
1000
0020
0000
0230
0000
0302
0000
,
2003
0000
3020
0000
0130
0100
0001
1000
,
0010
0010
0100
0001
0100
0010
1000
0100
,
0010
0001
2000
0000
3010
1000
0001
0100
,
0001
1000
0100
1000
0010
0100
0010
0000
,
1000
0000
0001
0000
1001
0000
1000
0100
,
0010
0001
0010
0000
0100
0000
1000
0010
,
0100
0001
0200
0000
0320
0000
2030
0000
,
3200
0320
0032
0023
,
0230
0000
0000
0000
1300
0000
0010
0000
0100
0001
1000
0000
0001
0000
0010
0000
,
0100
1000
0001
0000
0100
0000
0010
0000
1000
0001
0100
0000
0010
0000
1000
0000
,
0001
1000
0010
0000
0100
0000
0001
0000
0010
0000
0100
0000
0010
0000
0001
0000
,
1000
0010
0100
0100
0100
0100
0001
1000
,
0010
0100
0010
2002
0000
0000
0000
0000
,
0000
0000
0000
0000
,
0000
0000
0000
0000
,
0000
0000
0000
0000
,
3003
0000
0000
0000
;

//---------------dance-single - ----------------
#NOTEDATA:;
#CHARTNAME:;
#STEPSTYPE:dance-single;
#DESCRIPTION:;
#CHARTSTYLE:;
#DIFFICULTY:Easy;
#METER:5;
#RADARVALUES:0.446654,0.663797,0.352742,0.280590,0.000000,390.000000,346.000000,44.000000,35.000000,0.000000,0.000000,0.000000,0.000000,0.000000,0.446654,0.663797,0.352742,0.280590,0.000000,390.000000,346.000000,44.000000,35.000000,0.000000,0.000000,0.000000,0.000000,0.000000;
#CREDIT:;
#NOTES:
0000
0000
0001
1000
,
0001
1000
0001
1000
,
0001
1000
0001
1000
,
0001
1000
0001
1000
,
0001
1000
0001
1000
,
0001
1000
0001
1000
,
0010
0000
0100
0000
0010
0010
0010
0010
,
0010
0010
0010
0010
0200
0000
0320
0000
,
0000
0000
1030
1001
,
0100
0110
1000
0101
,
0001
0000
1000
0010
0100
0000
1010
0000
,
0100
0011
1000
1001
,
0001
0010
0100
1000
0001
0000
1010
0000
,
0100
0101
0001
1100
,
0010
0000
0002
0000
1003
0020
0000
0130
,
0001
0000
1000
0001
1000
0001
1000
0001
,
1000
0010
0200
0301
,
0020
0130
2000
3200
,
0320
0031
2000
3010
,
0200
0000
0310
1000
0010
1000
0020
0000
,
0000
0130
1001
1001
,
0110
0110
1100
1100
,
0011
0011
1001
1001
,
0110
0010
1000
0001
,
0100
0002
0000
1003
,
0001
0100
0001
0000
0000
0000
1000
0000
,
0010
1000
0010
0000
0000
0000
0100
0000
,
0001
1000
0001
0000
0000
0000
0100
0000
,
0010
0100
0010
0000
0000
0000
1000
0000
,
0100
1000
0100
0000
0000
0000
0010
0000
,
0001
0010
0001
0000
0000
0000
1000
0000
,
0010
0100
0010
0000
0000
0000
2000
0000
,
3001
0010
0100
1000
,
0010
0100
0001
1000
,
0010
1000
0001
0100
,
0001
0100
0010
1000
,
0100
1000
0100
0010
,
0001
1000
0010
1000
,
0001
0100
0001
1000
,
0010
0000
0100
0001
0001
1000
0010
0010
,
0200
0310
0100
0001
,
1000
0101
0001
1010
,
0100
0101
0001
1000
,
0100
1010
0001
0101
,
1000
1010
0100
0001
,
1000
1010
1000
0101
,
0010
1010
0100
0001
,
1000
0101
1000
1010
,
0001
0101
0010
0100
,
1000
1001
0010
0101
,
0100
0000
0000
0000
0001
0001
0001
1000
,
1000
0001
1000
0010
,
0200
0310
2000
3100
,
0020
0031
0200
0310
,
2000
3001
1000
0010
,
1000
0001
1000
0000
0010
0000
1000
0000
,
0001
1000
0002
0000
0000
0000
0000
0000
,
0000
0203
0000
0000
,
0000
0320
0000
0000
,
0000
2030
0000
0000
,
0000
3200
0000
0000
,
0000
0320
0000
0000
,
0000
0032
0000
0000
,
0000
1003
0001
1000
,
0010
0000
0100
0000
0002
0000
1003
1000
,
1000
0110
0110
1001
,
1001
0000
0010
0100
0000
0000
0010
1000
,
0000
0000
0001
1000
0001
1000
0020
0000
,
0000
0130
0001
1000
,
0010
1000
0010
0100
,
0001
0010
0001
1000
,
0010
0200
0000
0000
,
0310
1000
0010
0001
,
1000
0010
0100
0001
,
0000
0100
0100
0010
,
0010
2000
0000
0000
,
0000
0000
3020
0000
0130
0100
0000
0000
,
0001
0001
1000
0000
0010
0000
0100
0000
,
0001
2000
3010
0100
,
0001
0100
0010
1000
,
0001
0010
0110
0100
,
0010
0001
0010
0100
,
1000
1001
0010
1010
,
0100
0101
1000
0110
,
0001
0000
1000
0010
0000
0000
0001
0010
,
0000
0000
0100
0010
0000
0000
0010
1000
,
0000
0000
0100
0001
0000
0000
1000
0010
,
0000
0000
1000
1000
1000
1000
0001
0000
,
0100
0000
0010
2002
0000
0000
0000
0000
,
0000
0000
0000
0000
,
0000
0000
0000
0000
,
0000
0000
0000
0000
,
3003
0000
0000
0000
;

//---------------dance-single - ----------------
#NOTEDATA:;
#CHARTNAME:;
#STEPSTYPE:dance-single;
#DESCRIPTION:;
#CHARTSTYLE:;
#DIFFICULTY:Beginner;
#METER:3;
#RADARVALUES:0.202712,0.368776,0.072152,0.208439,0.000000,177.000000,168.000000,9.000000,26.000000,0.000000,0.000000,0.000000,0.000000,0.000000,0.202712,0.368776,0.072152,0.208439,0.000000,177.000000,168.000000,9.000000,26.000000,0.000000,0.000000,0.000000,0.000000,0.000000;
#CREDIT:;
#NOTES:
0000
0000
0000
0000
,
0000
0000
0000
0000
,
0000
0000
0000
0000
,
0000
0000
0000
0000
,
0000
0000
0000
0000
,
0000
0000
0000
0000
,
0100
0010
0100
0100
,
0100
0100
0020
0230
,
0000
0000
0301
0000
,
0010
0000
0001
0000
,
1000
0000
0010
0000
,
0010
0000
0001
0000
,
1000
0000
1000
0000
,
0010
0000
1000
0000
,
0100
0000
0000
0000
0001
0000
0000
0010
,
1000
0000
0001
0000
,
0001
0000
0020
0030
,
0200
0300
0002
0003
,
0200
0300
0002
0003
,
0020
0130
0000
0200
,
0000
0310
0000
1001
,
0000
0110
0000
0011
,
0000
1100
0000
1001
,
0000
0100
0000
1000
,
0000
2000
0000
3001
,
0000
1000
0000
0001
,
0000
0100
0000
0010
,
0000
1000
0000
0010
,
0000
0100
0000
0001
,
0000
0010
0000
0100
,
0000
1000
0000
0001
,
0000
0100
0000
0001
,
1000
0000
0010
0000
,
0100
0000
1000
0000
,
0100
0000
1000
0000
,
1000
0000
0100
0000
,
0010
0000
0010
0000
,
1000
0000
0100
0000
,
1000
0000
1000
0000
,
0100
0000
0010
0000
1000
0000
0000
0100
,
0020
0130
0000
1000
,
0001
0000
1000
0000
,
0010
0000
1000
0000
,
0010
0000
1000
0000
,
0001
0000
0010
0000
,
0001
0000
0001
0000
,
0100
0000
0010
0000
,
0001
0000
0001
0000
,
1000
0000
0100
0000
,
0001
0000
0100
0000
,
0010
0000
1000
0001
,
0000
1000
0000
0100
,
0000
0100
0000
0010
,
0000
1000
0000
0100
,
0000
1000
0001
0000
,
0001
0000
0100
0000
,
0001
2000
0000
0000
,
0000
3020
0000
0000
,
0000
0230
0000
0000
,
0000
0302
0000
0000
,
0000
0023
0000
0000
,
0000
0230
0000
0000
,
0000
2300
0000
0000
,
0000
3001
0000
0001
,
0000
0010
2000
3000
,
0001
0010
0000
1000
,
0000
0100
0000
0100
,
0000
1000
0000
0200
,
0000
0310
0000
0001
,
0000
0001
0000
0010
,
0000
0100
0000
0001
,
0000
0020
0000
0000
,
0130
0000
0100
0000
,
0001
0000
0010
0000
,
0000
0010
0000
0100
,
0000
0002
0000
0000
,
0000
0203
0310
0000
,
1000
0000
0100
0000
,
1000
0002
0003
0010
,
0000
0010
0000
0001
,
0000
0100
0000
0010
,
0000
1000
0000
0010
,
0000
1001
0000
0101
,
0000
1010
0000
0110
,
0000
0001
0000
1000
,
0000
0010
0000
0100
,
0000
0010
0000
0001
,
0000
0000
0002
0000
0000
0003
1000
0000
,
0000
0000
0000
2000
0000
0000
0000
0000
,
0000
0000
0000
0000
,
0000
0000
0000
0000
,
0000
0000
0000
0000
,
3000
0000
0000
0000
;
