#TITLE:Ausretious#1-まどろみ、或いは嘆色の夢-;
#SUBTITLE:;
#ARTIST:EOOZ;
#TITLETRANSLIT:Ausretious 1-madoromi, arui wa tanshoku no yume-;
#SUBTITLETRANSLIT:;
#ARTISTTRANSLIT:;
#GENRE:;
#CREDIT:;
#BANNER:;
#BACKGROUND:;
#LYRICSPATH:;
#CDTITLE:;
#MUSIC:Ausretious 1-madoromi, arui wa tanshoku no yume-.mp3;
#OFFSET:0.800000;
#SAMPLESTART:87.179947;
#SAMPLELENGTH:12.000000;
#SELECTABLE:YES;
#BPMS:0.000000=168.100006
,72.500000=84.050003
,93.000000=168.100006
;
#STOPS:72.500000=1.300000
;
#BGCHANGES:;
#KEYSOUNDS:;
#ATTACKS:;

//---------------dance-single - ----------------
#NOTES:
     dance-single:
     :
     Hard:
     14:
     0.692607,0.903478,0.224753,0.232780,0.425426,604.000000,576.000000,28.000000,29.000000,0.000000,0.000000,0.692607,0.903478,0.224753,0.232780,0.425426,604.000000,576.000000,28.000000,29.000000,0.000000,0.000000:
0000
0000
0000
0000
,
0000
0000
0000
0000
,
0000
0000
0000
0000
,
0000
0000
0000
0000
,
0000
0000
0000
0000
,
0000
0000
0000
0000
,
0000
0000
1001
0000
0100
0010
0000
1000
,
0001
0010
1100
0000
1000
0001
0000
0100
,
0010
0000
1000
0001
1000
0000
0000
0000
0100
0000
1000
0000
0000
0000
0001
0000
,
0010
0000
0001
0000
0101
0000
0100
0000
0000
0010
0000
0000
1000
0000
0000
0100
,
0000
0010
0001
1000
0001
0100
0010
1000
,
0100
0000
1000
0000
1001
0000
0001
0000
0100
0001
0010
0001
1000
0000
0010
0000
,
0100
0010
1000
0001
1000
0000
0000
0000
0001
0000
0100
0000
0000
0000
0010
0000
,
1000
0000
0100
0000
0010
0001
1000
0001
0100
0000
0001
0010
0100
1000
0100
0010
,
0001
0010
0100
0000
1000
0000
0001
0000
0101
0000
0100
0000
0010
0000
1000
0000
,
1010
0010
0100
0001
0101
0100
0010
0100
,
0110
0010
1000
0001
1001
1000
0100
0010
,
0110
0100
1000
0001
0101
0100
1001
1100
,
0101
0000
0000
0000
0022
0033
0000
0000
0200
0000
0000
0000
0000
0000
0000
0000
1300
0000
0000
0000
0010
0000
0000
0000
0100
0000
0000
0000
0002
0000
0000
0000
,
0000
0000
1003
0001
0010
0000
0000
0100
2000
0000
0000
0000
3100
0000
0010
0001
,
1000
0000
0002
0000
0000
0000
1003
0010
0200
0000
0000
0301
0020
0000
0000
0000
,
0130
0000
1000
0100
0010
0000
0002
0000
0000
0000
0103
0001
2000
0000
0000
3100
,
0010
0000
0000
0000
0001
0000
0000
0000
0010
0000
0000
0000
0100
0000
1000
0000
0010
0000
0000
0000
0100
0000
0001
1000
0001
0000
0100
0010
0100
0000
0001
1000
,
0010
0000
1000
0010
0100
0000
0001
0010
0100
0000
0000
0000
1000
0000
0000
0000
0100
0000
0000
0000
0010
0000
0000
0000
0001
0000
0000
0000
1000
0000
0000
0000
,
0010
0100
0001
1000
0001
0010
0100
0010
,
0001
1000
0100
1000
0010
0010
0010
0100
,
0001
1000
0010
0100
1000
0100
0001
0010
,
0100
1000
0010
0100
0010
1000
0100
0010
,
0001
0001
0001
0100
0010
0001
0010
1000
,
0001
0100
1000
0001
0010
1000
0001
0100
,
1000
0100
0010
1000
0100
0100
0100
0010
,
0001
0010
0100
1000
0010
0100
1000
0100
,
0010
0100
0001
0010
0001
1000
0010
0001
,
0010
0000
0000
0100
0000
0000
0001
0000
1000
0000
0001
0000
1000
0000
0000
0000
0000
0000
1010
0000
0000
0000
0000
0000
,
0110
0000
0001
1000
0000
0000
0100
0000
0010
0002
0000
0000
,
0010
0000
0000
1003
0000
0000
0110
0000
0010
2000
0000
0000
,
0001
0000
0000
3010
0000
0000
0110
0000
0000
0100
0000
0001
,
1000
0000
1000
0001
0000
0000
0100
0000
0010
1000
0000
0000
,
0200
0000
0000
0010
0000
0000
1300
0000
0000
1001
0000
1000
,
0010
0000
0000
0110
0000
0100
0001
0000
0000
0101
0000
0100
,
0001
0000
0001
1000
0000
0000
0010
0000
0000
1001
0000
0000
,
2002
0000
0000
3003
0002
0000
2000
0003
,
0020
0000
0000
0000
0000
3000
0200
0000
,
0000
0000
0000
0030
0301
1000
0001
0100
,
0010
0000
1000
0000
0001
0000
0100
0010
1000
0000
0010
0100
0001
0000
1000
0100
,
0010
0000
0000
0000
0000
0000
0001
0000
0000
1000
0000
0000
0100
0000
0000
0000
0010
0000
0000
0000
0001
0000
0000
0000
1000
0000
0000
0000
0000
0000
0010
0000
0000
0100
0000
0000
0001
0000
0000
0000
0000
0000
0100
0000
0000
0010
0000
0000
,
1000
0000
0001
0010
0100
0000
1000
0001
0010
0000
0001
0010
0100
0000
1000
0010
,
0100
0000
0000
0000
0000
0000
0001
0000
0000
1000
0000
0000
0010
0000
0000
0000
0100
0000
0000
0000
0001
0000
0000
0000
1000
0000
0000
0000
0000
0000
1100
0000
0000
0000
0000
0000
0100
0000
0000
0000
0000
0000
0010
0000
0000
0001
0000
0000
,
0100
0000
0010
1000
0002
0000
0000
0000
1000
0000
0000
0000
0010
0000
0000
0000
,
0103
0000
0110
0000
0010
0000
1000
0001
0100
0000
0001
1000
0200
0000
0000
0000
,
0010
0000
0000
0000
1000
0000
1000
0000
1300
0000
1001
0000
0001
0000
0100
0010
,
1000
0000
0000
0000
0000
0000
0001
0000
0000
0100
0000
0000
0010
0000
0000
0000
0000
0000
1000
0000
0000
0100
0000
0000
0010
0000
0000
0000
0001
0000
0000
0000
0010
0000
0000
0000
0100
0000
0000
0000
0000
0000
1000
0000
0000
0010
0000
0000
,
0100
0000
0000
0000
0000
0000
0010
0000
0000
0100
0000
0000
0001
0000
0000
0000
0000
0000
0010
0000
0000
0100
0000
0000
1000
0000
0000
0000
0001
0000
0000
0000
1000
0000
0000
0000
0010
0000
0000
0000
0000
0000
1000
0000
0000
0001
0000
0000
,
0100
0000
0010
1000
0100
0000
0010
0001
0100
0000
0010
1000
0001
0000
0010
0100
,
1000
0000
0010
0100
1000
0000
0100
0010
1000
0000
0001
0010
0100
0000
1000
0000
,
0010
0000
0100
0000
0001
0000
0010
0000
1000
0000
0010
0000
0001
0010
0100
1000
,
0100
0010
0001
1000
0010
1000
0001
0010
0100
1000
0100
0010
0001
0000
0000
0000
,
0100
0010
0000
0100
0001
1000
0001
0010
,
0100
1000
0000
0001
0100
0010
1000
0000
,
0001
1000
0000
0001
0100
0010
1000
0100
,
0010
0000
0001
0000
1000
0000
0001
0000
0010
0000
0100
1000
0100
0000
0000
0000
,
0100
1000
0000
0010
1000
0001
1000
0100
,
0010
0001
0000
1000
0010
0100
0001
0000
,
1000
0001
0000
1000
0010
0100
0001
0010
,
0100
0000
1000
0000
0001
0000
1000
0000
0100
0000
0010
0001
0010
0000
0000
0000
,
0100
1000
0010
1000
1002
0000
0200
0003
,
2000
0300
0020
3000
0002
0030
0200
0003
,
0310
0000
1000
0000
0000
0000
1000
0000
0001
0000
0000
0000
0001
0010
0100
1000
,
0001
0010
0100
1000
0001
0010
0100
1000
0010
0000
0100
0000
0001
0000
1000
0000
,
0001
0100
0010
1000
0100
0001
0100
1000
,
0010
0001
0010
0100
0001
1000
0010
1000
,
0100
0000
0010
0000
0001
0000
0100
0000
0010
0000
1000
0000
0001
0000
0100
0010
,
0100
0010
1000
0001
1000
0001
0010
0100
0010
0100
1000
0001
1000
0000
0010
0000
,
1000
0010
0100
0001
0010
0001
1000
0100
,
1000
0000
0010
0000
0100
0000
0001
0000
1000
0000
0100
1000
0001
0000
0100
0000
,
0010
0000
1000
0000
0100
0000
0010
0000
0001
0000
0010
0100
1000
0000
0010
0000
,
0100
0001
1000
0010
2000
0000
0002
0000
,
0000
0000
0000
0000
0003
3001
0000
0000
;

//---------------dance-single - ----------------
#NOTES:
     dance-single:
     :
     Medium:
     12:
     0.503402,0.591934,0.088296,0.224753,0.044148,439.000000,428.000000,11.000000,28.000000,0.000000,0.000000,0.503402,0.591934,0.088296,0.224753,0.044148,439.000000,428.000000,11.000000,28.000000,0.000000,0.000000:
0000
0000
0000
0000
,
0000
0000
0000
0000
,
0000
0000
0000
0000
,
0000
0000
0000
0000
,
0000
0000
0000
0000
,
0000
0000
0000
0000
,
0000
0000
1001
0000
0001
1000
0000
1000
,
0001
0000
0101
0000
0100
0010
0000
0010
,
1000
0000
1010
0000
0010
1000
0000
1000
,
0100
0110
0000
0000
,
0000
0000
0010
0001
0010
0100
1000
0100
,
0010
0001
0000
1000
0010
1000
0001
0100
,
0001
1000
0100
0000
0010
0001
0000
0100
,
0010
1000
0001
0100
0010
1000
0001
0010
,
0100
1000
0010
0100
0001
0000
1000
0010
,
1000
0001
0010
0001
1000
0100
1000
0010
,
0100
0010
1000
0001
1000
0010
0100
0001
,
1000
0010
1000
0001
0100
0001
0010
0100
,
1000
0000
2010
3000
0002
0000
0000
0000
0103
0000
0010
0000
1000
0000
0200
0000
,
0000
0310
0001
0000
0020
0000
0031
1000
,
0010
0200
0000
0301
2000
0000
3002
0000
,
0013
0100
1000
0020
0000
0130
0002
0000
,
1003
0010
1000
0001
0010
0100
1000
1000
,
0001
0001
0100
0000
0010
0000
1000
0000
,
0010
0100
0001
0010
,
0100
0000
1000
0000
0001
0010
0001
0000
,
0100
0010
1000
0001
,
1000
0100
0010
0001
,
1000
0100
1000
0000
0010
0000
0100
0000
,
0001
0010
0100
0010
,
0001
0000
1000
0000
0010
0100
0010
0000
,
1000
0001
0100
0010
,
1000
0100
0010
0001
,
0010
0000
0000
0100
1000
0100
1000
0000
0000
0100
0000
0000
,
0110
0010
0001
2000
,
0010
3001
0100
0020
,
1000
0130
0010
1000
,
0001
0010
0001
1000
,
0002
0100
1003
1001
,
0010
0110
0001
1010
,
0001
0101
0010
0100
,
2002
0000
0000
3003
0020
0000
0230
0000
,
0302
0000
0000
2000
,
0000
0000
0000
3003
0001
0010
0001
0010
,
0100
1000
0010
1000
0001
0100
0010
0100
,
0001
0000
0000
1000
0000
0000
0010
0000
0100
0000
0010
0000
0100
0000
0000
0001
0000
0000
0010
0000
0000
0001
0000
0000
,
1000
0100
1000
0010
0100
0001
1000
0010
,
1000
0000
0000
0001
0000
0000
0100
0000
0001
0000
0100
0000
0001
0000
0000
1000
0000
0000
0000
0000
0000
0000
0000
0000
,
0010
0200
0001
0010
,
0301
0001
0000
0000
1000
0000
0020
0000
,
0000
0000
1030
1000
0001
0001
1000
0010
,
0100
0000
0000
0001
0000
0000
0010
0000
0000
0001
0000
0000
0100
0000
0001
0000
0100
0000
0001
0000
0000
0010
0000
0000
,
0100
0000
0000
1000
0000
0000
0010
0000
0000
0100
0000
0000
0001
0000
1000
0000
0001
0000
1000
0000
0000
0010
0000
0000
,
1000
0010
0100
0010
0100
0010
1000
0001
,
1000
0001
0100
0010
0100
0010
1000
0100
,
0010
0001
0010
0100
1000
0010
0100
0001
,
0010
0001
1000
0100
1000
0100
0010
0000
,
0001
1000
0000
0010
0100
0001
1000
0100
,
1000
0010
0000
0100
0001
0100
0010
0000
,
1000
0001
0000
1000
0100
0010
0001
0100
,
0001
1000
0010
0100
0001
1000
0100
0000
,
0010
0001
0000
0100
0010
1000
0001
0100
,
0010
1000
0000
0010
0100
0001
0100
0000
,
0010
1000
0000
0001
0010
0001
1000
0100
,
1000
0010
0100
0001
1000
0010
0100
0000
,
0001
1000
0001
0100
0002
0000
2003
0000
,
3020
0230
0302
0023
,
0130
1000
0000
0100
0010
0000
0001
0010
,
0100
0010
0001
1000
0100
0010
0100
1000
,
0001
0010
0100
0010
0001
1000
0010
0100
,
0001
1000
0010
0100
0001
1000
0010
1000
,
0100
0010
0001
0100
0010
1000
0001
0100
,
0010
1000
0100
0010
1000
0001
0010
0001
,
0100
0010
1000
0010
0100
0001
0010
0001
,
1000
0000
0100
0000
1000
0000
0010
0000
0100
0000
0001
1000
0001
0000
1000
0000
,
0100
0010
0001
1000
0010
0100
0001
1000
,
0010
0100
0001
0100
0020
0000
2000
0000
,
0000
0000
0000
0000
0000
3030
0000
0000
;

//---------------dance-single - ----------------
#NOTES:
     dance-single:
     :
     Easy:
     5:
     0.307316,0.342699,0.008027,0.208700,0.000000,268.000000,267.000000,1.000000,26.000000,0.000000,0.000000,0.307316,0.342699,0.008027,0.208700,0.000000,268.000000,267.000000,1.000000,26.000000,0.000000,0.000000:
0000
0000
0000
0000
,
0000
0000
0000
0000
,
0000
0000
0000
0000
,
0000
0000
0000
0000
,
0000
0000
0000
0000
,
0000
0000
0000
0000
,
0000
0000
0001
0000
1000
0001
0000
0000
,
1000
0000
0010
0000
0100
0010
0000
0000
,
0001
0000
0100
0000
0001
1000
0000
0000
,
0010
0110
0000
0000
,
0000
0100
0100
0001
,
0100
0000
0100
1000
,
1000
0010
0100
0000
,
0100
1000
0100
1000
,
0010
0100
1000
0001
,
0001
0100
0001
0001
,
0010
0001
0001
0010
,
0001
0001
0010
0100
,
0001
0000
0020
0030
2000
0000
0000
0000
3010
0000
0000
0000
0001
0000
0020
0000
,
0000
0030
1000
0000
0200
0000
1300
0000
,
0100
0020
0000
1030
0002
0000
2003
0000
,
3100
0000
0001
0200
0000
0310
2000
0000
,
3001
0001
0100
0001
,
1000
0010
0100
0001
,
0100
0010
1000
0100
,
0010
0000
0001
0000
1000
0100
1000
0000
,
0010
0100
0001
1000
,
0001
0010
0100
1000
,
0001
0010
0001
0000
0100
0000
0010
0000
,
1000
0100
0010
0100
,
1000
0000
0001
0000
0100
0010
0100
0000
,
0001
1000
0010
0100
,
0001
0010
0100
1000
,
0100
0010
0001
0010
,
0100
1000
0100
0002
,
0000
0103
0010
0200
,
0000
0310
0100
0001
,
1000
0100
1000
0001
,
2000
0000
3001
0100
,
0010
0100
0001
0100
,
1000
0010
0100
0010
,
2000
0000
3002
1003
,
2000
0000
0000
0002
,
0000
0000
0000
3003
1000
0000
1000
0000
,
0010
0100
1000
0100
,
1000
0100
0010
0100
,
0001
0001
0010
0001
,
0001
0100
1000
0000
,
0100
0020
0000
0000
,
1030
1000
0000
0000
0001
0000
0200
0000
,
0000
0000
0000
0000
1300
1000
0001
0000
,
0010
0100
0010
1000
,
0010
0100
1000
0001
,
0001
0010
0010
0001
,
0001
0010
0010
0001
,
0100
0100
0001
0010
,
0100
0001
0001
0100
,
1000
0000
0010
0001
,
0001
0000
1000
0100
,
0001
0000
0010
1000
,
1000
0100
1000
0010
,
0100
0000
0100
1000
,
0100
0000
0010
0010
,
0100
0000
0100
0001
,
0001
0010
0001
0010
,
1000
1000
2000
3002
,
0203
0320
2030
3200
,
0310
0001
0000
0010
0100
0000
1000
0000
,
0010
1000
0010
0010
,
1000
0010
1000
0100
,
1000
0100
1000
0100
,
0010
1000
0100
1000
,
0100
0010
0001
0100
,
0010
0001
0010
0100
,
0001
0001
0010
1000
,
0010
1000
0100
1000
,
0100
1000
0200
0020
,
0000
0000
0000
0000
0000
0330
0000
0000
;

//---------------dance-single - ----------------
#NOTES:
     dance-single:
     :
     Beginner:
     3:
     0.169712,0.218081,0.008027,0.184619,0.000000,148.000000,147.000000,1.000000,23.000000,0.000000,0.000000,0.169712,0.218081,0.008027,0.184619,0.000000,148.000000,147.000000,1.000000,23.000000,0.000000,0.000000:
// measure 0
0000
0000
0000
0000
,  // measure 1
0000
0000
0000
0000
,  // measure 2
0000
0000
0000
0000
,  // measure 3
0000
0000
0000
0000
,  // measure 4
0000
0000
0000
0000
,  // measure 5
0000
0000
0000
0000
,  // measure 6
0000
0000
0001
0000
0000
0001
0000
0000
,  // measure 7
1000
0000
0010
0000
0000
0010
0000
0000
,  // measure 8
0001
0000
0100
0000
0000
1000
0000
0000
,  // measure 9
0010
0010
0010
0000
,  // measure 10
0000
0100
0000
0001
,  // measure 11
0000
0000
0100
0000
,  // measure 12
1000
0000
0100
0000
,  // measure 13
0100
0000
0100
0000
,  // measure 14
0010
0000
1000
0000
,  // measure 15
0001
0000
0001
0000
,  // measure 16
0010
0000
0001
0000
,  // measure 17
0001
0000
0010
0000
,  // measure 18
0001
0001
2000
0000
3000
0000
0000
0020
,  // measure 19
0000
0030
0000
0000
0200
0000
0300
0000
,  // measure 20
0000
0020
0000
0030
0002
0000
2003
0000
,  // measure 21
3000
0000
0000
0200
0000
0300
2000
0000
,  // measure 22
3001
0000
0100
0000
,  // measure 23
0020
0130
0000
0001
,  // measure 24
0000
0010
0000
0100
,  // measure 25
0000
0001
0000
1000
,  // measure 26
0000
0100
0000
1000
,  // measure 27
0000
0010
0000
1000
,  // measure 28
0000
0001
0000
0010
,  // measure 29
0000
0100
0000
0100
,  // measure 30
0000
0001
0000
0100
,  // measure 31
0000
1000
0000
0100
,  // measure 32
0000
0010
0000
1000
,  // measure 33
0000
0010
0000
0010
,  // measure 34
0000
1000
0000
0002
,  // measure 35
0000
0103
0000
0200
,  // measure 36
0000
0310
0000
0001
,  // measure 37
0000
0100
0000
0001
,  // measure 38
2000
0000
3001
0000
,  // measure 39
0010
0000
0001
0000
,  // measure 40
1000
0000
0100
0000
,  // measure 41
2000
0000
3002
0003
,  // measure 42
2000
0000
0000
0002
,  // measure 43
0000
0000
0000
3003
1000
0000
0000
0000
,  // measure 44
0010
0000
1000
0000
,  // measure 45
1000
0000
0010
0000
,  // measure 46
0001
0000
0010
0000
,  // measure 47
0001
0000
1000
0000
,  // measure 48
0100
0020
0000
0000
,  // measure 49
1030
0000
0001
0200
,  // measure 50
0000
0000
0310
0000
,  // measure 51
0010
0000
0010
0000
,  // measure 52
0010
0000
1000
0000
,  // measure 53
0001
0000
0010
0000
,  // measure 54
0001
0000
0010
0000
,  // measure 55
0100
0000
0001
0000
,  // measure 56
0100
0000
0001
0000
,  // measure 57
1000
0000
0010
0000
,  // measure 58
0001
0000
1000
0000
,  // measure 59
0001
0000
0010
0000
,  // measure 60
1000
0000
1000
0000
,  // measure 61
0100
0000
0100
0000
,  // measure 62
0100
0000
0010
0000
,  // measure 63
0100
0000
0100
0000
,  // measure 64
0001
0000
0001
0000
,  // measure 65
1000
0000
2000
3000
,  // measure 66
0200
0300
2000
3000
,  // measure 67
0010
0001
0000
0000
0100
0000
0000
0000
,  // measure 68
0010
0000
0010
0000
,  // measure 69
1000
0000
1000
0000
,  // measure 70
1000
0000
1000
0000
,  // measure 71
0010
0000
0100
0000
,  // measure 72
0100
0000
0001
0000
,  // measure 73
0010
0000
0010
0000
,  // measure 74
0001
0000
0010
0000
,  // measure 75
0010
0000
0100
0000
,  // measure 76
0100
0000
0220
0000
,  // measure 77
0000
0000
0000
0000
0000
0330
0000
0000
;
