#TITLE:Aublia;
#SUBTITLE:;
#ARTIST:onoken feat. ALIAKE;
#TITLETRANSLIT:;
#SUBTITLETRANSLIT:;
#ARTISTTRANSLIT:;
#GENRE:;
#CREDIT:;
#BANNER:;
#BACKGROUND:;
#LYRICSPATH:;
#CDTITLE:;
#MUSIC:Aublia.mp3;
#OFFSET:0.060000;
#SAMPLESTART:58.238556;
#SAMPLELENGTH:12.000000;
#SELECTABLE:YES;
#BPMS:0.000000=155.990005
;
#STOPS:29.500000=0.400000,
156.500000=0.400000,
160.500000=0.200000,
164.000000=0.200000,
167.000000=0.100000,
167.500000=0.100000,
168.000000=0.180000,
173.500000=0.200000,
174.500000=0.200000,
175.500000=0.200000,
185.000000=0.180000,
195.000000=0.180000,
195.500000=0.100000,
196.000000=0.100000,
205.500000=0.080000,
206.000000=0.080000,
206.500000=0.080000,
207.000000=0.080000,
207.500000=0.200000,
208.000000=0.100000,
208.500000=0.100000,
209.000000=0.100000,
209.500000=0.100000,
210.000000=0.180000,
285.000000=0.200000,
296.250000=0.100000,
296.750000=0.100000,
297.250000=0.100000
;
#BGCHANGES:3.000=Aublia.avi=1.000=1=0=1===CrossFade==,
99999=-nosongbg-=1.000=0=0=0 // don't automatically add -songbackground-
;
#KEYSOUNDS:;
#ATTACKS:;

//---------------dance-single - ----------------
#NOTES:
     dance-single:
     :
     Hard:
     15:
     0.713964,0.938723,0.221274,0.366247,0.595152,655.000000,626.000000,29.000000,48.000000,0.000000,0.000000,0.713964,0.938723,0.221274,0.366247,0.595152,655.000000,626.000000,29.000000,48.000000,0.000000,0.000000:
// measure 0
0000
0000
0000
0000
,  // measure 1
1000
0001
1000
0010
,  // measure 2
0100
0000
0001
0000
0010
0000
0100
0100
,  // measure 3
2000
0000
0000
0000
3000
2002
0000
0000
0000
0000
0000
0000
0000
0000
3003
0000
,  // measure 4
1000
0000
0010
0000
0100
0000
0001
0000
0010
0000
0000
0100
1000
0000
0000
0001
,  // measure 5
1000
0000
0000
0001
0100
0010
0100
0010
1000
0100
1000
0000
0001
0000
0100
0000
,  // measure 6
0010
0000
1000
0000
0001
0000
0100
0000
0001
0000
1000
0000
0000
0010
0100
0001
,  // measure 7
1000
0010
0100
0001
0010
0100
1000
0000
2002
0000
3003
0000
0001
0000
1000
0000
,  // measure 8
0100
0000
0010
0001
0000
0001
1000
0000
0100
0000
0010
0000
0100
0000
1000
0000
,  // measure 9
0001
0100
1000
0001
0010
1000
0001
0100
,  // measure 10
1000
0000
0100
0010
0000
0010
1000
0000
0100
0000
0010
0000
0001
0000
0010
0000
,  // measure 11
0100
0001
0100
1000
0010
0100
0001
0010
,  // measure 12
1000
0000
0010
0001
0000
0001
1000
0000
0100
0000
0001
0000
0100
0000
1000
0000
,  // measure 13
0010
0100
1000
0100
0010
1000
0100
0010
,  // measure 14
0001
0000
0010
0100
0000
0100
0010
0000
0001
0000
0100
0000
0010
0000
0001
0000
,  // measure 15
0010
0000
1000
0000
0010
0000
0100
0000
0001
0000
0010
0100
1000
0000
0000
0000
,  // measure 16
0100
0000
0010
0000
0001
0000
0100
0010
,  // measure 17
1000
0000
0001
0000
0000
0000
1000
0000
0000
1000
0000
0000
0001
0000
0010
0000
,  // measure 18
0100
0000
0000
0000
0000
0000
1000
0010
1000
0010
0100
0001
0100
0001
0010
0000
,  // measure 19
0000
0000
0001
0000
1000
0100
0010
0100
1000
0100
0010
0100
1000
0001
0010
0001
,  // measure 20
1000
0000
0010
0100
0001
0100
0010
0000
1000
0010
0100
0010
1000
0000
0001
1000
,  // measure 21
0010
1000
0001
0000
0000
0000
0100
0000
0000
0000
0010
0000
1000
0000
0000
0000
,  // measure 22
0001
0100
0000
0100
0001
1000
0001
0000
,  // measure 23
1000
0000
0000
0000
0110
0000
0100
0000
0010
0000
1000
0000
0001
0010
0000
0100
,  // measure 24
1000
0000
0010
0000
0100
0000
0001
0000
1000
0000
0100
0000
0010
0001
0000
1000
,  // measure 25
0100
0000
0010
0000
0001
0000
1000
0000
0010
0000
0100
0000
0010
0100
0000
0001
,  // measure 26
1000
0000
0001
0000
0100
0000
0010
0000
1000
0000
0100
0000
0010
0100
0000
1000
,  // measure 27
0100
0000
0010
0000
0001
0000
1000
0000
0010
0000
0100
0000
0001
0010
0000
0001
,  // measure 28
1000
0000
0010
0000
0100
0000
1000
0000
0100
0000
0001
0000
0010
0100
0000
1000
,  // measure 29
0001
0000
0010
0000
0100
0000
0000
1000
0000
0000
0001
0000
2000
0000
0000
0000
,  // measure 30
3010
1000
0001
0100
0001
0000
0010
0000
0100
0000
1000
0000
0010
0000
0000
0000
,  // measure 31
0100
0000
0001
1000
0020
0000
0000
0000
0230
0000
0000
0000
0301
1000
0000
0100
,  // measure 32
1000
0010
0100
0001
1000
0100
1000
0010
,  // measure 33
0100
0000
0000
0001
1000
0000
0010
0000
0100
0000
0001
0000
1000
0000
0001
0100
,  // measure 34
0000
0010
0200
0000
0000
0000
0310
0000
2000
0000
0002
0000
3003
0000
0100
0010
,  // measure 35
0000
0100
0000
0000
0001
1000
0000
1000
0010
0000
1000
0001
0200
0000
0000
0010
,  // measure 36
0000
1000
0000
0010
0000
0001
0000
0010
,  // measure 37
0001
0010
0001
0010
0001
0010
0001
0010
,  // measure 38
0001
0000
0010
0000
0001
0000
0310
0000
0000
0010
1000
0001
1000
0000
0010
1000
,  // measure 39
0001
1000
0110
0000
2001
0000
0000
0000
0020
0000
3000
0000
0200
0000
0030
0000
,  // measure 40
0301
1100
1000
0020
0000
0200
0030
0310
,  // measure 41
1001
0000
0202
0000
0303
0000
0010
1000
0002
0000
0003
0000
0100
0000
0010
0000
,  // measure 42
1000
0000
0001
0010
0100
0010
0001
1000
0100
0010
0001
1000
0100
0010
0001
1000
,  // measure 43
0001
0100
0110
0022
0033
2020
3030
0202
,  // measure 44
0303
0000
1000
0000
0001
0100
0000
0110
0000
0000
0010
1000
0000
1100
0000
0000
,  // measure 45
0100
0010
0000
0011
0000
0000
0001
1000
0000
0101
0010
1000
0001
0010
0001
1000
,  // measure 46
0100
1000
0010
0000
0100
0000
0020
0000
0000
0000
0130
0001
0000
0001
1000
0010
,  // measure 47
0100
0010
1000
0000
0010
0100
0001
0000
1000
0010
0100
0000
0001
0010
0100
1000
,  // measure 48
0001
0000
1000
0010
1000
0100
0010
0001
1000
0100
1000
0000
1001
0000
0001
0000
,  // measure 49
1000
0000
0001
0100
1000
0100
0010
1000
0001
0000
0010
0000
0100
0000
1000
0100
,  // measure 50
0001
0100
0010
0001
1000
0000
0001
0000
0100
0000
0010
0000
2000
0000
3010
0000
,  // measure 51
0100
0001
0100
0010
0000
0000
1010
0000
0110
0000
0011
0000
1100
0000
2002
3003
,  // measure 52
0011
0000
1100
0000
0110
0000
1001
0000
1010
0200
0000
0000
0000
0000
0000
0000
,  // measure 53
0000
0301
1000
0010
2000
3001
0100
0010
,  // measure 54
1000
0100
0010
0001
1000
0100
0010
0001
,  // measure 55
0010
0100
1000
0010
0200
0000
0301
2000
,  // measure 56
0000
0000
0000
0000
3100
0000
0020
0000
0000
0000
0000
0000
0000
0000
0031
0010
,  // measure 57
0100
1000
0010
0100
0001
0000
0010
0000
,  // measure 58
0100
1000
0100
0010
,  // measure 59
0001
1000
0001
1000
0010
0100
0010
0100
,  // measure 60
0001
0000
0010
0000
0001
0000
1000
0000
0010
0000
1000
0000
0010
1000
0010
1000
,  // measure 61
0001
0100
0001
0100
0010
1000
0010
0000
2001
0000
0001
0000
3010
0000
0100
0000
,  // measure 62
0002
0000
0013
0100
2000
0000
3001
1000
,  // measure 63
0010
0100
0010
0100
0001
1000
0001
1000
0200
0000
0010
0000
0310
0000
0001
0000
,  // measure 64
2000
0000
3010
0100
0002
0000
0103
0010
,  // measure 65
1000
0000
0001
0000
0010
0000
0001
0000
2000
0000
0100
0000
0100
0000
0000
0100
,  // measure 66
3001
0000
0001
0000
0020
0000
0000
0000
0000
0000
2030
0000
0000
0000
0000
3001
,  // measure 67
1000
1000
0002
0000
0103
0010
1000
0001
,  // measure 68
0010
0000
0100
0000
1000
0000
0010
0000
0100
0000
0001
0000
1000
0001
0010
0001
,  // measure 69
1000
0010
1000
0100
0010
0100
1000
0001
0100
0000
0000
0000
0000
0000
0010
0000
,  // measure 70
1000
0100
0010
0001
0010
0100
1000
0000
0001
0000
0100
0000
0100
0000
0100
0001
,  // measure 71
1000
0000
0001
0000
1001
0000
0100
0001
1000
0010
1000
0001
0100
0001
0010
0100
,  // measure 72
1000
0100
0010
1000
0001
1000
0010
0100
1000
0100
0010
0001
0100
0010
1000
0100
,  // measure 73
0010
0100
1000
0001
0100
0010
0000
0000
1000
0001
1000
0010
0000
0000
0100
0001
,  // measure 74
0100
0020
0000
2030
0000
3002
0000
0103
0000
0010
0000
0000
0000
0000
0000
0000
;

//---------------dance-single - ----------------
#NOTES:
     dance-single:
     :
     Medium:
     13:
     0.489420,0.682708,0.030521,0.343357,0.247980,449.000000,445.000000,4.000000,45.000000,0.000000,0.000000,0.489420,0.682708,0.030521,0.343357,0.247980,449.000000,445.000000,4.000000,45.000000,0.000000,0.000000:
0000
0000
0000
0000
,
0010
0100
1000
0010
,
0100
0000
0001
0000
0010
0000
0100
1000
,
0000
0000
0000
0000
0000
0202
0000
0000
0000
0000
0000
0000
0000
0000
0303
0000
,
0010
1000
0100
1000
0001
0010
0002
0000
,
0013
0000
0000
0100
1000
0000
0100
0000
0010
0001
0010
0000
0001
0000
1000
0000
,
0100
0000
1000
0000
0001
0000
0100
0000
0010
0000
0100
0000
0000
0001
1000
0000
,
0000
0100
0000
0000
1000
0000
0010
0000
0200
0000
0300
0000
0001
0000
0000
0000
,
0010
0000
0000
0100
0000
1000
0000
0000
0100
0000
0000
0000
0010
0000
0000
0000
,
0001
1000
0010
0100
,
1000
0000
0000
0001
0000
1000
0000
0000
0010
0000
0000
0000
1000
0000
0000
0000
,
0100
1000
0001
0010
,
0100
0000
0000
0010
0000
0001
0000
0000
0010
0000
0000
0000
0100
0000
0000
0000
,
1000
0010
0100
0010
,
1000
0000
0000
0001
0000
0010
0000
0000
0001
0000
0000
0000
1000
0000
0000
0000
,
0100
0000
0000
0000
1000
0000
0000
0000
0010
0000
1000
0001
1000
0000
0000
0000
,
0100
0000
1000
0000
0010
0000
1000
0100
,
0010
0000
0001
0000
0000
0000
0010
0000
0000
0100
0000
0000
0010
0000
0001
0000
,
1000
0000
0000
0010
0100
0010
1000
0001
,
0000
0000
1000
0000
0010
0000
1000
0000
0001
0000
0010
0000
0001
0000
0100
0010
,
0100
0000
0010
0000
1000
0001
1000
0000
0010
0000
0100
0001
0100
0000
0001
0000
,
0010
0100
0010
0000
0000
0000
0100
0000
0000
0000
1000
0000
0100
0000
0000
0000
,
0010
0001
0000
0010
0100
1000
0100
0000
,
0010
0000
0011
0001
0010
0100
1000
0000
,
0001
1000
0010
0100
,
0001
0000
1000
0100
1000
0010
0100
0000
,
0001
0100
0000
0010
1000
0000
0010
0000
,
1000
0100
0001
0100
,
1000
0000
0001
0000
0100
0010
1000
0000
,
0010
0100
0001
0000
0100
0001
1000
0000
,
0001
1000
0001
1000
0001
0000
0100
0000
0010
0000
1000
0000
0001
0000
0000
0000
,
1000
0001
0020
0000
0230
0000
1300
0100
,
1000
0001
0010
0001
0100
0010
0100
0001
,
0010
0100
1000
0010
0100
0001
0010
0000
,
0100
0000
2000
0000
0000
0000
3010
0000
0100
0000
0002
0000
0003
0000
1000
0100
,
0000
0000
0010
0000
0002
0000
0000
0000
1003
0000
0001
0000
0010
0000
0000
0200
,
0000
0000
0000
0000
,
0000
0000
0000
0000
,
0000
0000
0000
0000
1000
0000
1300
0000
0000
0001
1000
0000
0001
0000
0000
0000
,
1000
0010
0100
0000
0002
0000
0000
0000
0023
0000
0000
0000
0230
0000
0000
0000
,
1300
1000
1000
0002
0000
0203
0000
0310
,
0010
0000
0020
0000
0000
0000
1030
0001
1000
0000
0000
0000
0200
0000
0320
0000
,
0031
0010
0100
1000
0001
0010
0100
1000
,
0001
0100
0110
0020
0000
0230
0000
0302
,
0000
0000
1003
0000
0001
0000
0000
0100
0000
0000
0010
0000
0000
1000
0000
0000
,
0100
0000
0000
0010
0000
0000
0001
0000
1000
0000
0000
0010
0000
0000
1000
0000
,
0001
0000
0100
0000
0001
0000
0002
0000
0000
0000
0103
0010
0000
0000
0010
0100
,
0000
0000
0001
0000
0100
0010
0100
0000
0001
1000
0001
0000
1000
0010
1000
0010
,
1000
0000
0001
0100
0001
0100
0001
0000
1000
0000
0010
0000
0010
0000
0100
0000
,
0100
0000
0001
0010
0100
0000
1000
0000
0010
0000
0000
0000
0000
0000
1000
0010
,
0100
0001
0010
0000
0100
0000
0010
0000
,
0001
1000
0001
1000
0000
0000
1000
0000
0010
0000
0001
0000
0100
0000
2000
0000
,
3100
0000
0001
0000
0010
0000
1000
0000
0100
0020
0000
0000
0000
0000
0000
0000
,
0000
0031
1000
0001
0200
0000
0000
0000
,
0000
0320
0000
0000
,
0000
1030
0001
0010
0200
0000
1300
0002
,
0000
0000
0000
0000
0103
0000
0020
0000
0000
0000
0000
0000
0000
0000
1030
0001
,
0100
0010
1000
0100
0020
0000
0000
0000
,
0032
0000
0000
0203
0000
0000
0320
0000
,
0000
1030
0001
1000
0010
0100
0010
0100
,
0001
0010
0001
1000
0010
1000
0010
0100
,
0001
0000
0010
0001
0010
0000
0100
0000
2000
0000
0000
0000
3001
0000
0100
0000
,
0020
0000
1030
0001
0200
0000
0301
1000
,
0010
0100
0010
0000
1000
0001
1000
0000
0200
0000
0000
0000
1300
0000
0010
0000
,
2000
0000
3001
0100
0020
0000
0130
0010
,
1000
0000
0000
0001
0000
0000
0010
0000
0200
0000
0000
0000
0000
0000
2300
0000
,
0000
0000
3020
0000
0000
0230
0000
0000
,
0320
2030
3100
0010
,
0001
0000
0100
0000
0010
0000
1000
0010
,
0100
0000
0001
0000
0010
0100
1000
0100
0010
0000
0000
0000
0000
0000
0001
0000
,
1000
0010
1000
0000
0001
1000
0001
0000
0100
0000
0010
0000
0010
0000
1000
0001
,
0100
0000
0010
0000
1010
0000
1000
0000
0001
0000
1000
0000
0100
0000
0010
0100
,
1000
0000
0010
0100
0001
0000
1000
0000
0001
0000
0010
0000
0100
0000
1000
0100
,
0010
0000
0001
0010
0100
0000
0000
0000
1000
0001
0100
0001
0000
0000
0010
0100
,
0000
1000
0000
1000
0000
0010
0000
0010
0000
0100
0000
0000
0000
0000
0000
0000
;

//---------------dance-single - ----------------
#NOTES:
     dance-single:
     :
     Easy:
     5:
     0.315016,0.426692,0.015260,0.305206,0.022890,289.000000,287.000000,2.000000,40.000000,0.000000,0.000000,0.315016,0.426692,0.015260,0.305206,0.022890,289.000000,287.000000,2.000000,40.000000,0.000000,0.000000:
0000
0000
0000
0000
,
1000
0010
0100
0001
,
1000
0000
0001
0000
1000
0000
0001
0010
,
0000
0000
0000
0000
0000
0200
0000
0000
0000
0000
0000
0000
0000
0000
0300
0000
,
0010
0001
0010
0200
,
1300
0001
1000
0100
,
0010
0000
0001
0000
0010
0000
0100
1000
,
0000
0000
0100
0100
0020
0030
0001
0000
,
1000
0010
1000
0001
,
0100
0010
1000
0001
,
0010
0001
0010
0001
,
1000
0100
1000
0010
,
0100
0010
1000
0010
,
0100
0001
0100
1000
,
0100
0001
0010
0001
,
1000
0000
0100
0000
1000
0001
0100
0000
,
0010
1000
0001
0100
,
0010
1000
0000
0100
0000
0000
0010
0001
,
0100
0000
0000
0000
0010
0000
1000
0001
,
0000
0100
0010
1000
,
0000
0001
0000
0000
0100
0000
0000
0001
,
0000
0000
0000
0010
0000
0100
1000
0000
,
0100
0010
0000
0001
0000
1000
0100
0000
,
0010
0110
0100
1000
,
0001
1000
0010
0100
,
0001
0000
1000
0000
0001
0010
0100
0000
,
1000
0100
0000
0000
0010
0000
0001
0000
,
1000
0100
1000
0010
,
0100
0010
0001
0010
,
1000
0000
0001
0000
1000
0001
0100
0000
,
0020
0000
0030
1000
0001
0000
0010
0000
,
0000
0100
1000
0100
,
1000
0010
0100
0001
,
0010
0001
0100
0010
,
0000
2000
0000
3000
0001
0200
0000
0300
,
0000
0000
0010
0000
2000
0000
0000
0000
3001
0000
0000
0000
1000
0000
0000
0002
,
0000
0000
0000
0000
,
0000
0000
0000
0000
,
0000
0000
0000
1003
0000
0000
0010
0000
,
0100
0100
0001
0000
1000
0000
0020
0000
,
1030
1000
0000
0002
0000
0203
0000
0310
,
0010
0020
0000
0030
1000
0000
0100
0100
,
0100
0010
0001
0000
0100
0000
0010
0000
,
1000
0000
0001
0002
0000
2003
0000
3200
,
0000
0310
0001
0000
0000
0010
0000
0000
,
0100
0000
0000
1000
0000
0000
0010
0000
,
0100
0000
0001
0002
0000
0003
1000
0000
,
0010
0000
0001
0000
1000
0000
0100
0010
,
0100
0000
0001
0100
0001
0000
0010
0010
,
0010
0100
0000
1000
0010
0000
0000
0100
,
0000
0001
0010
0000
0100
0000
1000
0000
,
0010
0000
0000
1000
0000
0000
0002
0000
0000
0000
0000
0000
0000
0000
1003
0000
,
2000
0000
3000
0000
,
0000
0001
0000
1000
0002
0000
0000
0000
,
0000
2003
0000
0000
,
0000
3010
0000
0100
0200
0000
0300
0020
,
0000
0000
1030
0002
0000
0000
0000
0000
,
0013
0100
2000
0000
,
3200
0000
0000
0320
0000
0000
0032
0000
,
0003
1000
0100
0000
0010
0000
0001
0000
,
0100
0010
1000
0100
,
1000
0001
0200
0310
,
2000
3001
0020
0130
,
1000
0100
0020
0031
,
0200
0310
2000
3001
,
0100
0000
0000
0010
0200
0000
0000
2300
,
0000
0000
3020
0000
0000
0230
0000
0000
,
0320
2030
3100
0010
,
0001
0100
0010
1000
,
0100
0000
0010
0001
1000
0000
0000
0001
,
1000
0001
1000
0001
0000
0100
0100
0001
,
1000
0001
1001
1000
0000
0001
0000
1000
,
0010
1000
0000
0001
0000
0100
0000
0001
,
0100
0001
0000
0000
1000
0010
0000
0100
,
0000
0002
0000
0000
0000
0003
0000
0100
0000
0100
0000
0000
0000
0000
0000
0000
;

//---------------dance-single - ----------------
#NOTES:
     dance-single:
     :
     Beginner:
     3:
     0.172223,0.227569,0.000000,0.221274,0.011445,158.000000,158.000000,0.000000,29.000000,0.000000,0.000000,0.172223,0.227569,0.000000,0.221274,0.011445,158.000000,158.000000,0.000000,29.000000,0.000000,0.000000:
0000
0000
0000
0000
,
0001
0000
0010
0000
,
0001
0000
0001
1000
,
0000
0000
0000
0000
,
0100
0000
0100
0000
,
0001
0000
0001
0000
,
0100
0000
0000
0000
0100
0000
0000
0001
,
0000
0000
0010
0000
0200
0300
1000
0000
,
0000
0100
0000
1000
,
0000
0100
0000
1000
,
0000
1000
0000
1000
,
0000
0010
0000
0100
,
0000
0100
0000
0100
,
0000
1000
0000
0001
,
0000
1000
0000
1000
,
0000
0010
0000
1000
,
0000
0001
0000
0010
,
0000
0001
0000
0010
0000
0000
0100
0000
,
0010
0000
0100
0001
,
0000
0010
0000
0001
,
0000
1000
0000
0000
0010
0000
0000
1000
,
0000
0000
0000
0001
,
0000
0100
0000
0000
0000
0001
0000
0000
,
0100
0000
0010
0001
,
0000
0001
0000
0010
,
0000
0001
0000
0010
,
0000
0010
0000
1000
,
0000
0010
0000
0100
,
0000
0100
0000
0100
,
0000
1000
0000
0010
,
0200
0300
1000
0000
,
0000
0010
0000
0010
,
0000
0100
0000
1000
,
0000
1000
0000
0100
,
0000
0002
0000
0003
0000
0020
0000
0030
,
0000
0000
0000
0000
0002
0000
0000
0000
1003
0000
0000
0000
0000
0000
0000
2000
,
0000
0000
0000
0000
,
0000
0000
0000
0000
,
0000
0000
0000
3000
0000
0000
0100
0000
,
0000
0010
1000
0000
0000
0000
0200
0000
,
0300
0001
0000
2000
0000
3000
0000
0100
,
0000
0200
0000
0300
0001
0000
0010
0000
,
1000
0000
0010
0000
,
0000
0000
0000
1000
0000
0001
0000
1000
,
0000
0010
0000
0000
0000
0100
0000
0000
,
0010
0000
0000
0001
0000
0000
0100
0000
,
0000
0000
0000
2000
0000
3000
0001
0000
,
0000
1000
0000
0010
,
0000
1000
0000
0100
,
0100
0000
0000
0001
0000
0000
0000
0010
,
0000
1000
0000
0001
,
0100
0000
0000
2000
0000
0000
0000
3000
,
0020
0000
0030
0000
,
0000
1000
0000
0000
2000
0000
0000
0000
,
0000
3002
0000
0000
,
0000
0103
0000
0000
0020
0000
0030
0200
,
0000
0000
0300
2000
0000
0000
0000
0000
,
3100
0000
0002
0000
,
0023
0000
0000
0230
0000
0000
2300
0000
,
3000
0001
0000
0000
0100
0000
0000
0000
,
0010
0000
0001
0000
,
0001
0000
0020
0030
,
0002
0003
0200
0300
,
0001
0000
0200
0300
,
0020
0030
0002
0003
,
0010
0000
0000
0100
0000
0000
0000
0002
,
0000
0000
0003
0000
0000
0020
0000
0000
,
0030
1000
1000
0000
,
0000
0000
0000
0001
,
0010
0100
0000
0000
,
0001
0000
1000
0001
0000
0000
0100
0000
,
0001
0000
0001
1000
0000
0000
0000
0001
,
0000
0001
0000
1000
0000
0000
0000
1000
,
0000
1000
0000
0000
0001
0000
0000
0010
,
0000
0000
0000
0000
0000
0000
0000
0001
0000
1000
0000
0000
0000
0000
0000
0000
;
