#VERSION:0.83;
#TITLE:Ärche;
#SUBTITLE:;
#ARTIST:モリモリあつし vs. uma;
#TITLETRANSLIT:Arche;
#SUBTITLETRANSLIT:;
#ARTISTTRANSLIT:Atsushi Morimori vs. uma;
#GENRE:;
#ORIGIN:;
#CREDIT:;
#BANNER:;
#BACKGROUND:;
#PREVIEWVID:;
#JACKET:Arche-jacket.png;
#CDIMAGE:;
#DISCIMAGE:;
#LYRICSPATH:;
#CDTITLE:;
#MUSIC:Arche.mp3;
#OFFSET:-0.350000;
#SAMPLESTART:27.450020;
#SAMPLELENGTH:12.000000;
#SELECTABLE:YES;
#BPMS:0.000=195.000;
#STOPS:;
#DELAYS:;
#WARPS:;
#TIMESIGNATURES:0.000=4=4;
#TICKCOUNTS:0.000=4;
#COMBOS:0.000=1;
#SPEEDS:0.000=1.000=0.000=0;
#SCROLLS:0.000=1.000;
#FAKES:;
#LABELS:0.000=Song Start;
#BGCHANGES:;
#KEYSOUNDS:;
#ATTACKS:
;

//---------------dance-single - ----------------
#NOTEDATA:;
#CHARTNAME:;
#STEPSTYPE:dance-single;
#DESCRIPTION:;
#CHARTSTYLE:;
#DIFFICULTY:Hard;
#METER:16;
#RADARVALUES:0.734698,1.233226,0.344499,0.713606,0.500345,627.000000,585.000000,42.000000,87.000000,0.000000,0.000000,0.000000,0.000000,0.000000,0.734698,1.233226,0.344499,0.713606,0.500345,627.000000,585.000000,42.000000,87.000000,0.000000,0.000000,0.000000,0.000000,0.000000;
#CREDIT:;
#NOTES:
0000
0000
0000
0000
,
0010
1000
0001
0000
0000
0100
0001
0100
,
0010
0000
1000
0001
1000
0000
0100
0000
,
0010
0001
1000
0100
0010
0000
0001
0100
,
0010
1000
0200
0000
0000
0000
0320
0000
,
0032
0000
0000
1003
0010
1000
0100
0000
,
0010
0001
0100
0000
0020
0000
0000
0000
,
1030
0001
0210
0000
0002
0000
0000
0303
,
0102
0000
2000
0000
0000
3003
1001
0000
,
0110
0101
1010
1000
,
0001
0010
0001
0010
0100
0000
0000
0000
1000
0000
0000
0000
0010
0000
0000
0000
,
0100
0001
1000
0100
,
0010
0001
0010
0100
1000
0000
0001
0000
,
1000
0001
0200
0000
0000
0000
0001
0000
,
0302
1000
0010
0023
,
0001
0100
0130
1000
,
0100
0010
0001
0000
2000
0000
0001
0000
,
3001
0000
0100
0010
0100
0000
0101
0000
,
0001
1000
1100
0100
,
0010
0000
0001
0000
1001
0000
0000
0000
1000
0010
0100
0010
0100
0000
0001
0000
,
0010
0100
1000
0010
,
0100
0001
0100
0001
1000
0000
0010
0000
0100
0000
0000
0000
0101
0000
0000
0000
,
0001
1000
0100
0000
0010
0000
0001
0000
,
1001
1000
0010
0110
,
0001
0010
0100
1000
0001
0010
0100
1000
0001
0000
0000
0000
1000
0000
0000
0000
,
0010
1000
0002
0000
0010
0000
0100
0000
,
0203
0010
0001
0302
,
0010
0100
2003
0100
,
3010
0100
0002
0000
1000
0000
0010
0000
,
0023
0000
0031
1000
0200
0000
0320
0000
,
1000
0100
0032
1000
,
0103
0010
2000
0000
0100
0000
0010
0000
,
3020
1000
0100
0230
,
1000
0010
0302
0010
,
0103
0001
1000
0000
1100
0000
0110
0000
,
0011
1001
0110
0101
,
0001
0010
0001
1000
0100
1000
0010
0100
0010
0000
0000
0000
0220
0000
0000
0000
,
0000
0330
0010
0000
1000
0000
0100
0000
,
0010
0000
0000
0001
0000
0000
0100
0000
0100
0010
0000
0000
,
1000
0001
0100
0001
,
0010
2100
0010
3001
,
0102
0010
1003
0201
,
0010
1300
1020
0100
,
0031
0010
1000
0001
,
0010
0000
0000
0100
0000
0000
0010
0000
0010
0001
0000
0000
,
0010
0100
1000
0001
,
0100
2010
0100
3001
,
0102
0010
1003
2020
,
3030
0220
0000
0330
0202
0000
0303
2002
,
0000
0000
0000
3003
0000
0000
0002
0000
0013
0000
0100
0000
1000
0000
0010
0000
0100
0000
0001
0000
1000
0000
0010
0000
,
0100
0001
0010
0200
0310
0001
2000
3010
1000
0020
0230
0301
,
0010
0100
1000
0010
1000
0100
0010
0100
1000
0010
0100
1000
,
0100
0001
0010
0200
0310
0001
1000
0010
0001
1000
0100
0001
,
0020
0130
0010
0001
1000
0010
1000
0001
0100
0002
0013
0100
,
1000
0010
0100
1000
0001
0010
0200
0301
0010
0100
0001
0100
,
1000
0001
0100
2000
3001
0010
1000
0001
0010
1000
0010
0001
,
1000
0010
0100
2000
3100
0001
0020
0130
2000
3002
0103
0010
,
0001
0010
0100
0001
1000
0100
0010
1000
0001
0100
1000
0010
,
0100
0000
0001
0000
0100
0000
0020
0000
0000
0130
0000
0000
0001
0000
0000
1000
0000
0000
0100
0000
0000
0010
0000
0000
,
0200
0000
0310
0000
1000
0000
0010
0000
0001
0000
0100
0000
0002
0000
1003
0010
,
1000
0000
0001
0100
0001
0000
0100
0010
0200
0000
0000
0000
0310
0000
0000
0000
,
1000
0001
0100
0000
0010
0000
0010
0000
,
1000
0000
0100
0010
0001
0000
0010
0000
,
0100
1000
0010
0100
0001
0000
1000
0000
,
0001
0010
0100
0000
1000
0000
0001
0000
,
0100
0010
1000
0100
,
0010
0001
0010
0100
1000
0000
0010
0000
,
1000
0010
0100
0001
0001
0000
0010
0000
,
0100
1000
0010
0100
,
0001
1000
0100
0010
0100
0000
1000
0000
,
0100
1000
0001
0000
0100
0000
0010
0000
,
0100
0001
1000
0010
,
1000
0001
0010
0000
0100
0000
1000
0000
,
1001
0001
0100
0000
0001
0000
0001
0000
,
1000
0000
0001
0100
1000
0100
0001
0000
,
0010
0100
1000
0000
0100
0000
0010
0000
,
0001
0000
0000
0000
0000
0000
1000
0000
0000
0000
0000
0000
0001
0000
0000
0000
0100
0000
0000
0000
0001
0000
0000
0000
0010
0000
0000
0001
0000
0000
0010
0000
0000
0100
0000
0000
1000
0000
0000
0000
0001
0000
0000
0000
1000
0000
0000
0000
,
0001
0000
0000
0010
0000
0000
0001
0000
0000
0100
0000
0000
0010
0000
0000
0100
0000
0000
0001
0000
0000
1000
0000
0000
0001
0000
0000
0000
1000
0000
0000
0000
0010
0000
0000
0000
1000
0000
0000
0001
0000
0000
1000
0000
0000
0100
0000
0000
,
0010
0000
0000
0001
0000
0000
1000
0000
0000
0100
0000
0000
1000
0000
0000
0000
0010
0000
0000
0000
0100
0000
0000
0000
0001
0000
0000
0010
0000
0000
0100
0000
0000
1000
0000
0000
0100
0000
0000
0010
0000
0000
0001
0000
0000
0010
0000
0000
,
0100
1000
0010
0100
0002
0000
0000
0000
0010
0000
0000
0000
0100
0000
0003
0000
,
2000
0100
0010
3001
,
1000
0100
0001
0100
1000
0000
0001
0000
,
1000
0000
2002
3003
2002
3003
2002
3003
,
2002
3003
2002
3003
2002
3003
2002
3003
,
0000
0100
0010
0001
1000
0000
0000
0000
,
0000
0000
0000
0000
1002
0000
0000
0000
0103
0000
0100
0000
0001
1000
0010
0000
,
0200
0000
0301
1000
0020
0000
0230
0000
,
0310
0000
0010
0000
0100
0001
1000
0000
0200
0000
0000
0000
0310
0000
0001
0000
,
2000
0000
0000
0000
3200
0000
0000
0000
0310
0000
0010
0000
0100
1000
0001
0000
,
2000
0000
3001
0100
0002
0000
2000
0000
,
0000
0003
3001
0000
1010
0000
0101
0000
,
0110
0000
0100
0001
0010
0100
1000
0000
,
0100
0010
0001
1000
0010
0000
1000
0001
,
1000
0010
0100
0000
0001
1000
0100
0010
,
0001
0000
1000
0100
1000
0001
0010
0000
,
0100
0000
1000
0000
0001
1000
0001
1000
0001
1000
0001
1000
0001
0000
0000
0000
,
0000
1000
0001
2002
,
3003
0000
0000
0000
;

//---------------dance-single - ----------------
#NOTEDATA:;
#CHARTNAME:;
#STEPSTYPE:dance-single;
#DESCRIPTION:;
#CHARTSTYLE:;
#DIFFICULTY:Medium;
#METER:13;
#RADARVALUES:0.530810,0.795630,0.188654,0.533154,0.045113,453.000000,430.000000,23.000000,65.000000,0.000000,0.000000,0.000000,0.000000,0.000000,0.530810,0.795630,0.188654,0.533154,0.045113,453.000000,430.000000,23.000000,65.000000,0.000000,0.000000,0.000000,0.000000,0.000000;
#CREDIT:;
#NOTES:
0000
0000
0000
0000
,
0001
1000
0001
0000
0000
0000
1000
0010
,
1000
0001
0100
0001
,
0100
0000
0010
1000
0010
0000
0100
0000
,
0001
1000
0002
0000
0000
0000
0203
0000
,
0320
0000
1030
1000
,
0010
0100
0010
0000
0200
0000
0000
0000
,
0301
0000
2000
0000
0002
0000
0000
3000
,
0203
0000
0020
0000
0000
0330
1001
0000
,
1001
1001
0110
0100
,
0001
1000
0001
0000
1000
0000
0001
0000
,
0010
0001
1000
0100
,
1000
0000
0001
0100
0001
0000
0000
0000
,
0100
0001
2000
0000
0000
0000
3010
0000
,
0020
0000
1030
0002
,
0000
0010
0013
0000
,
0100
1000
0100
0000
0000
0000
0010
0000
,
0001
0000
1000
0010
1000
0000
0002
0000
,
0000
0003
2000
0000
,
3001
1000
0000
0001
,
0001
0000
1000
1000
,
0001
0100
0001
0000
1000
0000
0010
0000
,
0100
0001
1000
0000
0010
0000
1000
0000
,
0001
0100
0010
0100
,
0001
0010
0100
1000
0001
0000
1000
0000
,
0010
1000
0200
0000
0000
0000
0310
0000
,
0020
0000
0031
0002
,
0000
0000
0203
0000
,
0310
1000
0020
0000
0000
0000
0130
0000
,
0200
0000
0301
1000
0002
0000
2003
0000
,
0000
0000
3020
0000
,
1030
0001
0200
0000
0000
0000
0001
0000
,
0302
0000
1000
2003
,
0000
0000
3002
0000
,
0013
0100
1000
0000
1001
0000
1100
0000
,
0110
0011
0101
0110
,
1000
0010
0100
0001
0010
0000
0022
0000
,
0000
0033
0001
0000
0001
0000
1000
0000
,
0010
0000
0000
0010
0000
0000
0100
0000
0100
0010
0000
0000
,
1000
1000
0100
0010
,
0010
0001
1000
1000
,
0010
0100
0100
0001
,
0010
0010
0100
1000
,
1000
0010
1000
1000
,
0100
0000
0000
0010
0000
0000
0010
0000
0010
0001
0000
0000
,
0010
0010
1000
0001
,
0001
1000
0100
0100
,
0010
0001
0001
2000
,
0000
0020
3000
0000
0200
0030
0300
2002
,
0000
0000
0000
3003
0000
0000
0002
0000
0003
0000
0000
0000
0010
0000
0000
0000
0000
0000
0100
0000
0000
0000
0000
0000
,
1000
0000
0000
0020
0000
0000
2030
0000
3002
0203
0000
0000
,
0310
1000
0001
0010
,
0100
2000
3100
0010
,
0002
0103
0010
0200
,
0301
1000
0020
0130
,
0001
0020
0130
1000
,
0010
0000
0000
0200
0000
0000
0320
0000
2030
3002
0000
0000
,
0103
0001
0010
0100
,
1000
0000
0002
0100
0103
0010
1000
0100
,
0020
0000
0001
0000
0031
0000
1000
0000
0010
0000
1000
0000
0001
0000
0000
0001
,
0010
0000
0000
0010
0100
0000
0000
0100
2000
0000
0000
0000
3001
0000
0000
0000
,
0100
0001
1000
0000
0001
0000
0001
0000
,
0010
0000
0100
1000
0100
0000
0010
0000
,
0001
0000
0100
0010
0100
0000
0001
0000
,
1000
0001
1000
0000
0010
0000
0100
0000
,
0100
0001
1000
0100
,
0010
0000
0001
0010
0100
0000
1000
0000
,
0010
0100
0001
0100
0010
0000
1000
0000
,
0001
0010
0100
0010
,
0001
0000
1000
0100
1000
0000
0010
0000
,
0100
0010
0100
0000
0001
0000
1000
0000
,
0010
1000
0100
0010
,
0001
0010
0001
0000
0100
0000
0010
0000
,
0100
0001
1000
0000
0001
0000
0001
0000
,
0010
0000
1000
0001
1000
0100
0010
0000
,
0001
0100
0010
0000
1000
0000
0001
0000
,
0010
0000
0100
0000
1000
0001
1000
0000
0010
0000
0100
0000
0001
0000
1000
0000
,
0010
1000
0010
0000
0100
0000
0001
0000
0010
0000
0001
0000
0100
0010
0100
0000
,
0001
0000
1000
0000
0100
0000
1000
0000
0001
0100
0001
0000
0010
0000
0100
0000
,
1000
0001
0100
0000
0010
0000
0100
0000
,
0001
1000
0010
0100
,
0010
0100
0001
1000
0001
0000
0100
0000
,
0010
0110
0110
0110
,
0110
0110
0110
0110
,
0000
0010
1000
0001
0100
0000
0000
0000
,
0000
0000
0001
0000
0010
0000
0100
1000
,
0200
0320
0032
2003
,
3010
0000
0100
0001
0200
0000
0320
0000
,
2030
0000
3002
0000
0203
0000
0310
1000
,
0002
0203
0302
2000
,
0000
0003
3001
0000
1001
0000
1100
0000
,
0011
0000
0001
1000
0001
1000
0100
0000
,
0010
0001
0010
0001
0100
0000
0010
1000
,
0010
1000
0100
0000
0010
0100
0010
0100
,
1000
0000
0001
1000
0001
1000
0010
0000
,
0100
0010
0100
0010
1000
0001
0100
0000
,
0000
0010
0100
2002
,
3003
0000
0000
0000
;

//---------------dance-single - ----------------
#NOTEDATA:;
#CHARTNAME:;
#STEPSTYPE:dance-single;
#DESCRIPTION:;
#CHARTSTYLE:;
#DIFFICULTY:Easy;
#METER:6;
#RADARVALUES:0.380824,0.517159,0.024607,0.483940,0.008202,325.000000,322.000000,3.000000,59.000000,0.000000,0.000000,0.000000,0.000000,0.000000,0.380824,0.517159,0.024607,0.483940,0.008202,325.000000,322.000000,3.000000,59.000000,0.000000,0.000000,0.000000,0.000000,0.000000;
#CREDIT:;
#NOTES:
0000
0000
0000
0000
,
1000
1000
0000
0001
,
0001
0100
0010
0100
,
0000
0010
0100
0000
,
1000
0002
0000
1003
,
0200
0000
0310
0010
,
0000
0100
0020
0000
,
1030
0000
0002
0000
2000
0000
0000
0003
,
3010
0000
0200
0000
0000
0300
0002
0000
,
1000
1000
1003
0000
,
1000
1000
0001
1000
,
0100
1000
0001
0010
,
0000
0000
1000
0000
,
0001
0002
0000
0103
,
0200
0000
0310
0020
,
0000
1030
1000
0000
,
0001
0001
0000
1000
,
1000
0000
0001
0001
,
0000
0000
0200
0000
,
0310
0100
0000
1000
,
1000
0000
0001
0001
,
0000
0000
0100
0000
,
0010
0010
0000
0001
,
1000
0000
0100
0010
,
2000
0000
3001
0000
,
0010
0020
0000
0130
,
0200
0000
1300
2000
,
0000
0000
3020
0000
,
0130
0200
0000
0310
,
0020
0030
1000
0002
,
0000
0000
0203
0000
,
0310
0020
0000
1000
,
2030
0000
0001
3002
,
0000
0000
2003
0000
,
3001
0001
1000
1000
,
0010
0010
0100
0100
,
0000
0000
0001
0002
,
0000
1003
1000
0001
,
0100
0100
0010
0100
,
0001
0001
0000
0100
,
0100
0000
0001
0001
,
0000
0010
0010
0000
,
0100
0100
0000
0001
,
0001
0000
0001
0001
,
0000
0100
0100
0000
,
0100
0100
0000
1000
,
1000
0000
0010
0010
,
0000
1000
1000
0002
,
0000
2003
0000
0000
3200
0000
0000
0320
,
0000
0031
0100
0010
,
0001
0000
0000
0200
0000
0000
0302
0000
2003
3020
0000
0000
,
0130
0001
1000
0100
,
0010
0002
0003
0100
,
2000
3000
0100
0020
,
0030
0001
0200
0300
,
1000
0200
0310
0001
,
0100
0000
0000
0020
0000
0000
0230
0000
0302
2003
0000
0000
,
3010
1000
0100
0010
,
0001
0000
1000
0010
1000
0000
0001
0000
,
1000
0001
1000
0000
0100
0000
0010
0000
,
0001
0100
0002
1003
,
0000
0001
1000
0001
,
1000
0000
0010
0100
,
0000
0100
0010
1000
,
0001
0001
0100
0010
,
0010
1000
0001
0010
,
0100
1000
0010
0000
,
0000
1000
0100
0010
,
0001
0100
0010
0100
,
0000
0001
0001
0100
,
0010
0010
1000
0001
,
0100
0001
0010
0100
,
1000
1000
0010
0100
,
0001
1000
0001
0000
2000
0000
3200
0000
,
0320
0000
0030
0001
0001
0000
0100
0000
,
0000
0010
0010
0000
1000
0000
0000
0000
,
0001
0000
0100
0001
0100
0000
0010
0000
,
1000
0100
1000
0000
0100
0000
0010
0001
,
0010
0000
0100
0000
1000
0001
1000
0000
,
0001
0010
0100
1000
,
0100
0010
0001
1000
,
0000
0000
0001
1000
0001
0000
0100
0000
,
0200
0010
0010
0010
,
0010
0010
0010
0310
,
0000
0000
1000
0001
1000
0000
0000
0000
,
0000
0100
0010
0001
,
0020
0230
2300
3001
,
0100
0010
0020
0230
,
0302
1003
0010
1000
,
2000
3020
0230
0302
,
0000
1003
0001
1001
,
1001
0000
1000
0000
0001
1000
0001
0000
,
0100
0000
0010
0100
0010
0000
0100
0000
,
0010
1000
0010
0000
0100
0000
0001
0100
,
0001
0000
1000
0000
0001
1000
0001
0000
,
0100
0000
0010
0000
0100
0001
1000
0000
,
0000
0001
1000
2002
,
3003
0000
0000
0000
;

//---------------dance-single - ----------------
#NOTEDATA:;
#CHARTNAME:;
#STEPSTYPE:dance-single;
#DESCRIPTION:;
#CHARTSTYLE:;
#DIFFICULTY:Beginner;
#METER:4;
#RADARVALUES:0.270678,0.358033,0.016405,0.393714,0.000000,231.000000,229.000000,2.000000,48.000000,0.000000,0.000000,0.000000,0.000000,0.000000,0.270678,0.358033,0.016405,0.393714,0.000000,231.000000,229.000000,2.000000,48.000000,0.000000,0.000000,0.000000,0.000000,0.000000;
#CREDIT:;
#NOTES:
// measure 0
0000
0000
0000
0000
,  // measure 1
0000
0000
0000
0000
,  // measure 2
0000
0000
0000
0000
,  // measure 3
0000
0000
0000
0000
,  // measure 4
0000
0000
0000
0000
,  // measure 5
0000
0000
0000
0000
,  // measure 6
0000
0000
0000
0000
,  // measure 7
0000
0000
1000
0000
2002
0000
0000
3003
,  // measure 8
0100
0000
0020
0000
0000
0030
1000
0000
,  // measure 9
1000
0001
0001
0000
,  // measure 10
0000
0001
0000
1000
,  // measure 11
0000
0001
0000
0100
,  // measure 12
0000
0000
0001
0000
,  // measure 13
1000
2000
0000
3010
,  // measure 14
0020
0000
0130
0200
,  // measure 15
0000
0300
0100
0000
,  // measure 16
1000
1000
0000
0001
,  // measure 17
0001
0000
1000
1000
,  // measure 18
0000
0000
0020
0000
,  // measure 19
0130
0010
0000
0001
,  // measure 20
0001
0000
1000
1000
,  // measure 21
0000
0000
0010
0000
,  // measure 22
0100
0100
0000
1000
,  // measure 23
0001
0000
0010
0000
,  // measure 24
0002
0000
1003
0000
,  // measure 25
0100
0200
0000
0310
,  // measure 26
0020
0000
0031
0002
,  // measure 27
0000
0000
0203
0000
,  // measure 28
0310
0020
0000
0130
,  // measure 29
0200
0300
0001
2000
,  // measure 30
0000
0000
3020
0000
,  // measure 31
0130
0200
0000
0001
,  // measure 32
0302
0000
1000
2003
,  // measure 33
0000
0000
3002
0000
,  // measure 34
1003
1000
0000
0001
,  // measure 35
0000
0100
0000
0010
,  // measure 36
0000
0000
1000
2000
,  // measure 37
0000
3001
0000
1000
,  // measure 38
0000
0010
0000
0010
,  // measure 39
0000
1000
0000
0010
,  // measure 40
0010
0000
1000
1000
,  // measure 41
0000
0100
0100
0000
,  // measure 42
0010
0010
0000
1000
,  // measure 43
1000
0000
1000
1000
,  // measure 44
0000
0010
0010
0000
,  // measure 45
0010
0010
0000
0001
,  // measure 46
0001
0000
0100
0100
,  // measure 47
0000
0001
0001
2000
,  // measure 48
0000
3002
0000
0000
0023
0000
0000
0230
,  // measure 49
0000
2300
3000
0100
,  // measure 50
0000
0000
0000
0002
0000
0000
2003
0000
3000
0200
0000
0000
,  // measure 51
0310
1000
0000
0010
,  // measure 52
0000
2000
3000
0010
,  // measure 53
0002
0003
0010
0200
,  // measure 54
0300
1000
0020
0030
,  // measure 55
0001
0020
0030
0000
,  // measure 56
0010
0000
0000
0200
0000
0000
0320
0000
0030
0002
0000
0000
,  // measure 57
0103
0000
0010
0000
,  // measure 58
1000
0002
0003
0000
,  // measure 59
2000
3000
0000
0020
,  // measure 60
0030
0000
2000
3001
,  // measure 61
0000
1000
0000
0001
,  // measure 62
0001
0000
0100
0100
,  // measure 63
0000
0010
0010
0000
,  // measure 64
1000
0001
0000
0001
,  // measure 65
1000
0000
0100
0010
,  // measure 66
0000
0010
1000
0000
,  // measure 67
0000
0001
0010
0000
,  // measure 68
0100
1000
0000
0010
,  // measure 69
0000
1000
1000
0000
,  // measure 70
0001
0100
0000
1000
,  // measure 71
0010
0000
0100
0010
,  // measure 72
0000
0001
0100
0000
,  // measure 73
1000
0001
0002
0003
,  // measure 74
0200
0300
1000
0010
,  // measure 75
0000
0100
0001
0000
,  // measure 76
1000
0010
0000
0100
,  // measure 77
0001
0000
0010
0100
,  // measure 78
0000
0010
0001
0000
,  // measure 79
1000
0100
0000
0001
,  // measure 80
0010
0000
1000
0001
,  // measure 81
0000
1000
1000
0000
,  // measure 82
0002
1000
1000
1000
,  // measure 83
1000
1000
1000
1003
,  // measure 84
0000
0000
0000
0000
,  // measure 85
0000
0001
0001
0001
,  // measure 86
1000
1000
1000
0001
,  // measure 87
0001
0001
1000
1000
,  // measure 88
1000
0001
0001
0001
,  // measure 89
1000
1000
1000
0020
,  // measure 90
0000
0130
0100
2002
,  // measure 91
3003
0001
0000
1000
,  // measure 92
0010
0000
0100
0010
,  // measure 93
0000
0100
0010
0000
,  // measure 94
1000
0001
0000
1000
,  // measure 95
0010
0000
0100
0001
,  // measure 96
0000
1000
0001
2000
,  // measure 97
3000
0000
0000
0000
;
