#TITLE:Amnolys;
#SUBTITLE:;
#ARTIST:onoken;
#TITLETRANSLIT:;
#SUBTITLETRANSLIT:;
#ARTISTTRANSLIT:;
#GENRE:;
#CREDIT:;
#BANNER:Amnolys-bn.png;
#BACKGROUND:Amnolys-bg.png;
#LYRICSPATH:;
#CDTITLE:;
#MUSIC:Amnolys.mp3;
#OFFSET:1.160000;
#SAMPLESTART:67.679733;
#SAMPLELENGTH:12.000000;
#LASTBEATHINT:0.373333;
#SELECTABLE:YES;
#BPMS:0.000000=140.000000
,86.000000=180.000000
;
#STOPS:
;
#BGCHANGES:;
#KEYSOUNDS:;
#ATTACKS:;

//---------------dance-single - ----------------
#NOTES:
     dance-single:
     :
     Hard:
     15:
     0.800561,0.897861,0.424904,0.184392,0.589254,623.000000,53.000000,23.000000,0.000000,0.000000,0.000000,0.800561,0.897861,0.424904,0.184392,0.589254,623.000000,53.000000,23.000000,0.000000,0.000000,0.000000:
0000
0000
0000
0000
,
0001
1000
0001
0100
0100
0000
0010
0000
,
1000
0000
0101
0000
0010
1000
1000
0001
,
0001
0000
2000
0000
0002
0000
3003
0100
,
0010
0000
0100
0000
0100
0001
1000
0000
,
0100
0010
0001
1000
1000
0000
0001
0000
,
0100
0010
0100
0000
0010
1000
0001
1000
,
0010
0000
0200
0000
0020
0000
0000
0330
,
1000
0001
1000
0001
1000
0000
0010
0000
0000
0100
0000
0000
0010
0000
0000
1000
0000
0000
0001
0000
0000
0010
0000
0000
,
0001
0000
0000
0100
0000
0000
0010
1000
0010
1000
0010
0000
0100
0000
0000
1000
0000
0000
0100
0000
0000
0010
0000
0000
,
0101
0000
0000
0000
0000
0000
0010
0000
0000
1000
0000
0000
0001
0000
0000
1000
0010
1000
0010
1000
0000
0100
0000
0000
,
0010
0000
0001
0000
1000
0000
0001
0000
1000
0000
0010
0000
0100
0000
0000
0010
0000
0000
1000
0010
0100
0001
0000
0010
,
0000
0000
0100
1000
0010
1000
0100
1000
,
1010
0000
0000
0000
0000
0000
0001
1000
0001
0000
0000
0000
0100
0000
0000
0000
0000
0000
0010
1000
0010
0000
0000
0000
,
0100
0000
0000
0000
0000
0000
0000
0000
0000
0000
0000
0000
0010
0000
0000
0000
0000
0000
0100
0000
0000
0000
0000
0000
0001
0000
0000
0000
1000
0000
0000
0000
0010
0000
0000
0000
1000
0000
0000
0001
0000
0000
0000
0000
0000
0000
0000
0000
,
0100
0010
0100
0010
0100
0001
1000
0001
1000
0001
1000
0001
1000
0100
1000
0100
,
0010
0000
0000
0011
0000
0000
1001
0000
0000
0000
0001
0100
0001
0000
1000
0000
,
0001
0000
0000
1010
0000
0000
0101
0000
0000
0000
0001
0000
1010
0000
0100
0000
,
0100
0000
0000
0000
0000
0000
0000
0000
0000
0110
0000
0000
0000
0000
0000
0000
0000
0000
1001
0000
0000
0000
0000
0000
0000
0000
0000
0000
0000
0000
1000
0000
0010
0000
1000
0000
0000
0000
0000
0000
0000
0000
0001
0000
0000
0000
0000
0000
,
1000
0000
0000
0000
0000
0000
0000
0000
0000
0101
0000
0000
0000
0000
0000
0000
0000
0000
0110
0000
0000
0000
0000
0000
0000
0000
0000
0000
0000
0000
1000
0000
0000
0000
0000
0000
0001
0000
0010
0000
0001
0000
0010
0000
0001
0000
0000
0000
,
1000
0000
0000
1001
0000
0000
1100
0000
0000
0110
0000
0000
0011
0000
0000
1001
,
0000
0000
0100
0010
0100
0010
0000
0000
1000
0000
0010
0000
1000
0000
0001
0000
,
0100
0010
1000
0100
0010
0001
0010
0100
,
1000
0000
0000
0010
0000
0000
0100
0000
0000
0001
0000
0000
1000
0000
0010
0000
1000
0000
0010
0000
0100
0000
0001
0000
,
1000
0100
0010
0001
0010
0100
1000
0010
0100
0001
1000
0010
,
1000
0000
0000
0000
0001
1000
0000
0010
,
1000
0000
0001
0000
0100
0000
0001
1000
0001
1000
0010
0100
0010
0100
0001
0010
,
0100
1000
0100
0010
0001
0010
0001
1000
0010
1000
0010
0100
0001
0000
1000
0000
,
0010
0000
0100
0000
0000
0000
0101
0000
0000
0000
0010
1000
0010
1000
0010
0000
,
0000
0100
0000
0101
0000
0001
1100
0000
,
0000
0000
0100
0000
1000
0001
1000
0000
0010
0000
0010
0000
1000
0000
0010
0000
,
0000
0000
1000
0000
0001
0010
0100
1000
0100
0000
0000
0000
1000
0000
0001
0000
,
0100
0000
0010
0100
0010
0100
0010
0000
1000
0000
0100
0000
1000
0000
0001
0000
,
0100
0001
1000
0100
1000
0000
0001
0100
,
0001
0000
0100
0001
0100
0010
1000
0010
,
1000
0001
0100
0010
0100
0000
1010
0000
,
0100
0000
0000
0000
0101
0000
0000
0000
0001
0010
0100
1000
0100
0010
0001
1000
,
0010
1000
0010
0100
0001
1000
0001
0100
0010
0000
0000
0000
1001
0000
0000
0000
,
0001
1000
0010
1000
0000
0010
1000
0000
,
0010
0100
0100
0000
0010
1000
0001
0100
,
0001
0000
1000
0000
0100
0000
1000
0000
0010
0000
0100
0001
0100
0000
0001
0000
,
1000
0000
0100
0010
0100
0000
0010
0001
0010
0000
0001
0000
1000
0000
0010
0000
,
0100
0010
1000
0001
0010
0001
1000
0000
,
1001
0000
0110
0000
0010
1000
0001
0010
,
0001
0000
1000
0010
1000
0001
0100
0000
,
1010
0000
0101
0000
0001
1000
0010
0000
,
1100
0000
0101
0000
0110
0000
1000
0001
,
0001
0000
0100
0010
0100
0000
0010
0000
1000
0000
0000
0000
1010
0000
0000
0000
,
0001
0000
1000
0000
1000
0000
0000
0000
0010
0000
0100
0000
0001
0100
0001
0000
,
1000
0010
1000
0000
0001
0000
0000
0000
0100
0000
0010
0000
1000
0000
0000
0000
,
0101
0000
1010
0000
1001
0000
1000
0100
,
0100
0000
0010
0001
0010
0000
0100
0000
1000
0000
0000
0000
0001
0000
0000
0000
,
1000
0000
0010
0000
0100
0000
0100
0000
0010
0000
1000
0001
1000
0001
0010
0100
,
1000
0100
0010
0001
1000
0000
0000
0000
1000
0000
0001
0000
0100
0000
0000
0000
,
0011
0000
1010
0000
0110
0000
0001
1000
,
1000
0000
0010
0100
0010
0000
0100
0000
0001
0000
0000
0000
0101
0000
0000
0000
,
1000
0000
0001
0000
0001
0000
0000
0000
0100
0000
0000
0000
0010
1000
0010
0000
,
0100
0001
0100
0000
0110
0000
0000
0000
0001
1000
0000
0000
1000
0010
0000
0000
,
0010
1000
0000
0000
1000
0001
0000
0000
0001
0010
0000
0000
0010
0100
0000
0000
,
0100
1000
0010
0100
0001
1000
0010
0000
0000
0100
0000
0000
,
0010
0000
0100
0000
0010
2002
0000
0000
,
0000
0000
0000
3003
0001
1000
0000
0010
,
1000
0001
1000
0001
0010
0100
1000
0100
0010
0000
0001
0000
0100
0000
0000
0000
,
0000
0000
0010
0000
0110
0000
0000
0000
0100
0000
0000
0000
0010
1000
0001
1000
,
0001
0100
0001
0010
0100
0010
0001
1000
0100
0000
0010
0000
0001
0000
0000
0000
,
0000
1000
0102
0000
2003
0000
3001
1020
,
0000
0130
0010
0000
0010
0000
0110
0000
,
2002
0000
3003
0000
0000
0000
0000
0000
0010
1000
0010
1000
0001
0100
0001
0100
,
0001
0000
1001
0000
0002
0000
0200
0003
,
0020
0300
2000
0030
0002
3000
2000
3003
,
0110
0000
0000
0000
0000
0000
0000
0000
0010
0000
0000
1000
0000
0000
0001
0000
,
0100
0000
0110
0000
0010
1000
1010
0000
,
0100
0000
0000
0000
1001
0000
0010
0100
0010
0100
0010
0000
1001
0000
0000
0000
,
0100
0000
0100
0000
0002
0000
0000
0000
1003
0000
1000
0000
0000
0000
0010
1000
,
0010
0000
0100
0000
2001
0000
0000
0000
0010
0000
3010
0000
0000
0000
1000
0001
,
1000
0000
0020
0000
0000
0000
0100
0000
0130
0000
0000
0000
0001
0000
1000
0100
,
2000
0000
0001
0000
3001
0000
0100
0010
0100
0001
0100
0010
0100
0001
0100
0000
,
0010
0000
0010
0000
1000
0000
0010
0000
0100
0000
0001
0000
1000
0000
0010
1000
,
0100
0000
0100
0010
0001
0000
0001
0010
1000
0010
0001
0000
0100
0000
0000
0000
,
2002
0000
0000
0000
0000
3003
1000
0001
,
1000
0100
0010
0001
0100
0010
1000
0010
,
1000
0000
0000
0100
0000
0000
0010
0000
0000
0001
0000
0000
1000
0000
0000
0010
0000
0000
0100
0000
0001
0000
0100
0000
,
0010
0000
1000
0000
0001
0000
0100
0000
0010
0000
1000
0000
0100
0000
0010
0000
0001
0000
1000
0010
0000
0100
0000
0010
;

//---------------dance-single - ----------------
#NOTES:
     dance-single:
     :
     Medium:
     13:
     0.623040,0.565604,0.264563,0.296631,0.072154,474.000000,33.000000,37.000000,0.000000,0.000000,0.000000,0.623040,0.565604,0.264563,0.296631,0.072154,474.000000,33.000000,37.000000,0.000000,0.000000,0.000000:
0000
0000
0000
0000
,
1000
0001
1000
0001
0100
0000
0001
0000
,
1000
0000
0001
0000
1000
0010
1000
0001
,
1000
0000
0002
0000
2000
0000
3003
0001
,
1000
0000
0010
0000
1000
0001
1000
0000
,
0001
0100
0001
0100
0010
0000
1000
0000
,
0100
0000
0010
0000
0001
0010
0001
0010
,
0100
0000
2000
0000
0002
0000
0000
3003
,
0100
0100
0001
0100
0001
0010
0100
1000
,
0010
1000
0001
0001
1000
0010
1000
0001
,
1001
0000
0010
1000
0001
1000
1000
0000
,
0001
0000
0100
0000
0010
0010
1000
0001
,
1000
0000
0001
1000
0100
0000
1000
0001
,
0100
1002
0103
2001
,
3100
0000
0002
0000
1003
1000
0010
0000
,
0100
0010
0100
0001
1000
0010
1000
0001
,
0100
0000
0000
0001
0000
0000
1000
0000
0000
0000
0010
0000
0010
0000
1000
0000
,
0001
0000
0000
1000
0000
0000
0010
0000
0000
0000
0100
0000
0100
0000
0001
0000
,
0001
0000
0000
0100
0000
0000
0001
0000
0000
0000
1000
0000
1000
0000
0001
0000
,
0100
0000
0000
0001
0000
0000
1000
0000
0000
0000
0100
0000
0010
0000
0000
0000
,
0001
0000
0000
1000
0000
0000
0100
0000
0000
0010
0000
0000
0001
0000
0000
1001
,
0000
0000
0100
0001
0100
0001
0000
0000
1000
0000
0001
0000
1000
0000
0001
0000
,
0010
0001
0010
0001
1000
0100
1000
0100
,
1000
0010
0100
0010
2000
0000
3002
0000
,
0203
0320
2030
3200
,
0310
0000
0000
0000
0001
0010
0000
0100
,
0000
1000
0001
0000
0100
0000
0010
1000
,
0000
0001
0100
0000
0010
0100
0010
1000
,
0001
0000
1000
0000
0000
0000
1001
0000
0000
0000
0010
0100
0010
0100
0010
0000
,
0000
1000
0000
1001
0000
0010
0110
0000
,
0000
0000
0010
0000
1000
0001
1000
0000
0001
0000
0001
0000
0100
0000
0010
0000
,
0000
1000
0001
0000
0100
0000
1000
0001
,
1000
0001
0010
0001
0010
0100
1000
0001
,
0010
0100
1000
0001
0100
0000
0010
1000
,
0010
0000
1000
0001
1000
0010
0100
0001
,
0010
0001
1000
0100
0010
0000
1001
0000
,
0010
0000
0101
0000
1000
0010
0010
0100
,
0001
0001
1000
1000
0010
0000
1001
0000
,
0001
1000
0001
0100
0000
0001
0010
0000
,
0100
1000
1000
0000
0010
0100
1000
0100
,
0010
0000
0100
0000
0001
0000
0010
0000
0100
0000
0010
0001
0010
0000
0001
0000
,
1000
0100
0010
0001
0010
0100
1000
0001
,
0100
0001
1000
0000
0001
0100
0001
1000
,
0100
0000
0110
0000
0001
0010
0001
1000
,
0001
0000
1000
0010
1000
0100
1000
0000
,
0110
0000
1001
0000
0001
1000
0001
0000
,
0100
0000
0010
0000
0110
0000
1000
0001
,
0001
0100
0010
0100
0001
0000
1100
0000
,
0001
0100
0001
1000
0010
1000
0002
0000
,
2000
0000
3003
0000
1000
0001
1000
0000
,
0010
0000
0100
0000
1001
0000
1000
0001
,
0001
0100
0010
0100
0001
0000
1000
0000
,
0001
1000
0001
0100
0010
1000
1000
0001
,
0100
0001
0100
0000
0001
1000
0001
0000
,
0100
0000
0010
0000
0110
0000
1000
0001
,
0001
0100
0010
0010
1000
0000
0101
0000
,
1000
0010
1000
0001
0010
0000
0002
0000
,
2000
3003
1001
1010
,
0101
0110
1100
0101
,
1000
0001
1000
0001
1000
0001
0100
0000
0000
0000
0000
0000
,
0000
0000
0000
0000
1000
2002
0000
0000
,
0000
0000
0000
3003
0001
1000
0000
0010
,
1000
0010
1000
0100
0010
0001
1000
0000
,
0000
0001
0101
0000
0100
0000
0010
0000
,
0000
1000
0100
0000
0010
0000
0011
0000
,
0000
0100
0002
0000
0203
0000
0310
2000
,
0000
3001
0100
0000
0010
0000
1001
0000
,
0220
0330
0000
0000
0001
1000
0001
1000
,
0010
0000
1001
0000
0020
0000
0200
0030
,
0002
0300
0020
0003
0200
0030
2000
0300
,
3001
0000
0000
0000
0000
0000
0000
0000
1000
0000
0000
1000
0000
0000
0001
0000
,
0100
0000
1010
0000
0001
1000
0001
0000
,
0100
0000
0001
1000
0001
1000
1001
0000
,
0010
0100
0010
0000
1000
0001
0000
1000
,
1000
0010
0100
0000
0010
0010
0000
1000
,
0001
1000
0000
0010
0010
0000
1000
0001
,
1000
0001
1000
0100
0010
0100
0010
0100
,
0010
0001
0010
0100
1000
0010
0100
1000
,
0100
0001
0010
0100
1000
0001
0100
0000
,
2002
0000
0000
0000
0000
3003
0001
0010
,
0001
1000
0100
1000
0001
0100
0001
0100
,
0010
1000
0010
1000
0001
0100
0020
0000
,
2030
3002
2003
3020
,
0030
0000
0000
0000
;

//---------------dance-single - ----------------
#NOTES:
     dance-single:
     :
     Easy:
     5:
     0.413451,0.465791,0.152324,0.376802,0.032068,295.000000,19.000000,47.000000,0.000000,0.000000,0.000000,0.413451,0.465791,0.152324,0.376802,0.032068,295.000000,19.000000,47.000000,0.000000,0.000000,0.000000:
0000
0000
0000
0000
,
1000
0001
0100
0010
,
1000
0001
0100
0001
,
0010
0002
2000
3003
,
0010
0010
1000
1000
,
0001
0100
0001
1000
,
0010
1000
0001
0100
,
0001
0000
2000
0000
0002
0000
0000
3003
,
0010
0000
0000
1000
0001
0000
0000
0100
,
0010
0000
0000
1000
0001
0000
0100
0000
,
1001
0000
0010
0000
1000
0002
0000
0003
,
0001
0000
0100
0000
0010
0000
1000
0001
,
1000
0001
1000
0001
,
0100
2002
3003
0220
,
0330
0002
1003
1000
,
0100
0100
0010
0010
,
0001
0000
0000
0001
0000
0000
0001
0000
0000
0000
0000
0000
0000
0000
0000
0000
,
1000
0000
0000
1000
0000
0000
1000
0000
0000
0000
0000
0000
0000
0000
0000
0000
,
0100
0000
0000
0100
0000
0000
0100
0000
0000
0000
0000
0000
0000
0000
0000
0000
,
0010
0000
0000
0010
0000
0000
0010
0000
0000
0000
0000
0000
0000
0000
0000
0000
,
0001
0000
0000
0001
0000
0000
1000
0000
0000
1000
0000
0000
0010
0000
0000
0010
,
0000
0200
0000
0300
0001
0000
1000
0000
,
0001
0100
0010
0100
,
0001
1000
0002
0000
,
2003
0000
3020
0000
,
0130
0000
0000
0000
0001
1000
0000
0001
,
0000
1000
1000
0000
,
0000
0001
0100
0000
0010
0000
0010
0000
,
0010
0100
0000
0100
0000
0002
0000
0003
,
0000
1000
0000
1000
0000
0010
0010
0000
,
0000
0000
1000
0000
0001
0000
1000
0010
,
0000
0100
0001
0000
0100
0000
0100
0000
,
0100
0001
0000
0000
1000
0000
0001
0000
,
1000
0000
0010
0000
0100
0000
0000
0100
,
0010
0000
0000
0010
1000
0000
0010
0000
,
1000
0000
0001
0000
0100
0000
2002
3003
,
0000
0000
2002
3003
1000
0000
0010
0000
,
0100
0001
0010
0100
,
0000
1000
0001
1000
0000
0001
0010
0000
,
0100
1000
0010
1000
,
0010
0100
0002
1003
,
0010
0100
0010
1000
,
0000
1000
0000
0001
,
0000
0001
0000
0100
,
0000
0100
0000
0010
,
0000
1001
2000
3001
,
0100
0010
0110
1000
,
0001
0100
0001
0100
0001
0000
0100
0000
,
0010
0000
0000
1000
0100
0000
0020
0000
,
0002
0033
0200
0310
,
0001
1000
1001
0001
,
1000
0010
1000
0010
1000
0000
0001
0000
,
0001
0000
1000
0010
1000
0000
0000
0001
,
0200
0300
0002
1003
,
0100
0010
0110
0100
,
1000
0001
1000
0001
,
1000
0000
0000
0001
0010
0000
0002
0000
,
2000
3003
1001
1001
,
0110
0110
0101
0101
,
2000
3002
1003
0000
,
0000
0000
0000
0000
0000
2002
0000
0000
,
0000
0000
0000
3003
0001
0000
0010
0000
,
0000
0100
1000
0000
0001
0000
0100
0000
,
0000
0010
1000
0000
0001
0000
1000
0000
,
0000
0010
0100
0000
0001
0000
1000
0000
,
0000
0100
0010
0000
0002
0000
0000
2003
,
0000
3020
0230
0310
,
1001
0000
0001
1000
,
0001
1000
0002
2003
,
3200
0320
0032
2003
,
3001
0000
0000
0000
0000
0000
0000
0000
0001
0000
0000
0001
0000
0000
0001
0000
,
1000
1000
0010
0010
,
0100
0000
0000
0010
0000
0000
1001
0000
,
0010
0010
1000
0010
,
0010
0100
0010
0010
,
1000
0001
0001
1000
,
1000
0001
0001
0100
,
0100
0010
0010
1000
,
1000
0001
0100
0100
,
2002
0000
0000
0000
0000
3003
0001
0000
,
0000
1000
0000
0010
,
0000
0100
0000
0020
,
0000
2030
0000
0002
,
3003
0000
0000
0000
;

//---------------dance-single - ----------------
#NOTES:
     dance-single:
     :
     Beginner:
     3:
     0.239367,0.332708,0.072154,0.256546,0.000000,168.000000,9.000000,32.000000,0.000000,0.000000,0.000000,0.239367,0.332708,0.072154,0.256546,0.000000,168.000000,9.000000,32.000000,0.000000,0.000000,0.000000:
// measure 0
0000
0000
0000
0000
,  // measure 1
1000
0000
0100
0000
,  // measure 2
1000
0000
0100
0000
,  // measure 3
0010
0002
1003
0000
,  // measure 4
0010
0000
1000
0000
,  // measure 5
0001
0000
0001
0000
,  // measure 6
0010
0000
0001
0000
,  // measure 7
0001
2000
3001
0000
,  // measure 8
0010
0000
0001
0000
,  // measure 9
0010
0000
0001
0100
,  // measure 10
1001
0000
0000
0000
0010
0200
0000
0300
,  // measure 11
0001
0000
0010
0000
,  // measure 12
1000
0000
1000
0000
,  // measure 13
0000
2002
3003
2002
,  // measure 14
3003
0220
0330
1000
,  // measure 15
0000
0100
0000
0010
,  // measure 16
0001
0000
0000
0001
0000
0000
0000
0000
,  // measure 17
1000
0000
0000
1000
0000
0000
0000
0000
,  // measure 18
0100
0000
0000
0100
0000
0000
0000
0000
,  // measure 19
0010
0000
0000
0010
0000
0000
0000
0000
,  // measure 20
0001
0000
0000
1000
0000
0000
0010
0000
,  // measure 21
0000
0200
0000
0300
1000
0000
0000
0000
,  // measure 22
0000
0010
0000
0000
,  // measure 23
0100
0000
0002
0000
,  // measure 24
0000
0000
0000
0000
,  // measure 25
1003
0000
0001
0000
,  // measure 26
0000
1000
1000
0000
,  // measure 27
0000
0100
0010
0000
,  // measure 28
0000
0000
0000
0100
0000
0002
0000
0003
,  // measure 29
0000
0000
0000
0010
,  // measure 30
0000
1000
0000
1000
,  // measure 31
0000
0001
0100
0000
,  // measure 32
0100
0000
1000
0000
,  // measure 33
1000
0000
0100
0000
,  // measure 34
0010
0000
1000
0000
,  // measure 35
1000
0000
0000
0000
0000
0000
2002
3003
,  // measure 36
0000
0000
2002
3003
0000
0000
0010
0000
,  // measure 37
0000
0001
0000
0100
,  // measure 38
0000
0001
0000
0010
,  // measure 39
0000
1000
0000
1000
,  // measure 40
0000
0100
0002
0000
,  // measure 41
0003
0000
2000
0000
,  // measure 42
3000
0001
0000
0000
,  // measure 43
0001
0000
0100
0000
,  // measure 44
0000
0100
0000
0000
,  // measure 45
0010
0000
2000
3000
,  // measure 46
0100
0010
0100
0000
,  // measure 47
0001
0000
0001
0000
,  // measure 48
0100
0000
0000
0002
,  // measure 49
1003
0000
0100
0000
,  // measure 50
0001
1000
0001
0000
,  // measure 51
1000
0000
1000
0000
,  // measure 52
0001
0000
1000
0000
,  // measure 53
0200
0300
0002
0003
,  // measure 54
0100
0010
0100
0000
,  // measure 55
1000
0000
1000
0000
,  // measure 56
1000
0000
0000
0002
,  // measure 57
1003
0000
1000
1000
,  // measure 58
0010
0010
0100
0100
,  // measure 59
0020
0000
0130
0000
,  // measure 60
0000
0000
0000
0000
,  // measure 61
0000
0000
0001
0000
,  // measure 62
0000
1000
0000
0100
,  // measure 63
0000
1000
0000
1000
,  // measure 64
0000
0100
0000
1000
,  // measure 65
0000
0000
0000
0000
0002
0000
0000
2003
,  // measure 66
0000
3020
0230
0310
,  // measure 67
0010
0000
0001
0000
,  // measure 68
1000
0000
0001
0001
,  // measure 69
1000
1000
0010
0010
,  // measure 70
0100
0000
0002
0000
,  // measure 71
1003
0000
0010
0000
,  // measure 72
0100
0000
0000
0010
0000
0000
1001
0000
,  // measure 73
0010
0000
1000
0010
,  // measure 74
0010
0000
0000
0010
,  // measure 75
1000
0000
0000
1000
,  // measure 76
1000
0000
0000
0100
,  // measure 77
0100
0000
0000
1000
,  // measure 78
1000
0000
0100
0000
,  // measure 79
2002
0000
0000
0000
0000
3003
0010
0000
,  // measure 80
0000
0100
0000
0000
,  // measure 81
1001
0000
0000
0020
,  // measure 82
0000
0000
0000
0000
,  // measure 83
0030
0000
0000
0000
;
