#TITLE:雨上がりの空に;
#SUBTITLE:;
#ARTIST:猫大樹;
#TITLETRANSLIT:Ameagari no sora ni;
#SUBTITLETRANSLIT:;
#ARTISTTRANSLIT:Hiroki Arai;
#GENRE:;
#CREDIT:;
#BANNER:Folder.jpg;
#BACKGROUND:;
#LYRICSPATH:;
#CDTITLE:;
#MUSIC:Ameagari no sora ni.mp3;
#OFFSET:0.250000;
#SAMPLESTART:65.690018;
#SAMPLELENGTH:12.000000;
#SELECTABLE:YES;
#BPMS:0.000000=160.000000
;
#STOPS:
;
#BGCHANGES:;
#KEYSOUNDS:;
#ATTACKS:;

//---------------dance-single - ----------------
#NOTES:
     dance-single:
     :
     Hard:
     16:
     0.875000,1.034445,0.195660,0.136111,0.986806,720.000000,697.000000,23.000000,16.000000,0.000000,0.000000,0.875000,1.034445,0.195660,0.136111,0.986806,720.000000,697.000000,23.000000,16.000000,0.000000,0.000000:
0000
0000
0000
0000
,
0000
0000
0000
0000
,
0001
0100
0000
0100
0000
0100
0001
0010
,
0001
1000
0000
1000
0000
1000
0100
0010
,
0001
1000
0100
0010
0001
0000
1001
0000
,
0110
0100
0000
0100
0000
0100
0000
0100
,
0010
1000
0000
1000
0000
1000
0001
1000
,
0100
0010
0000
0010
0000
0010
0001
0100
,
1000
0100
0001
0010
0100
0010
0001
1000
,
0001
0010
0000
0010
0000
0010
0000
0010
,
0001
0100
0001
0000
1000
0000
0001
1000
0010
0100
0000
0001
1000
0000
0000
0000
,
1001
0000
1000
0010
0000
0100
0000
0010
0000
1000
0001
1000
0001
0000
0100
0000
,
0001
0010
0100
0010
0001
0000
1000
0100
0000
0010
0000
0001
0010
0100
0010
0000
,
0001
0010
0001
1000
0100
0010
0001
1000
0010
0100
0010
1000
0001
0100
0001
0010
,
0100
0000
1000
0100
0000
0100
0010
0000
0101
0000
0001
1000
0000
1000
0100
0000
,
1001
0000
0001
0100
0000
0010
0000
0100
0000
0001
1000
0001
1000
0000
0010
0000
,
1000
0100
0010
0100
1000
0000
0001
0010
0000
0100
0000
1000
0100
0010
0100
0000
,
1000
0100
1000
0001
0010
0100
1000
0001
0100
0010
0100
0001
1000
0010
1000
0100
,
0010
0001
0010
0100
1000
0010
0100
0001
0100
0000
0001
1000
0001
1000
0010
0100
,
0010
0000
1000
0000
0000
0000
1000
0000
0100
0010
0000
0010
0001
0000
0001
0000
,
1000
0000
0001
0000
0000
0000
0001
0000
0010
0100
0000
0100
1000
0000
1000
0000
,
0001
0100
0000
0100
0000
0100
0001
1000
,
0010
0100
0001
0100
0010
0000
1000
0001
0000
0001
1000
0000
0010
0000
0100
0000
,
0001
0000
0010
0000
0000
0000
0010
0000
0001
1000
0000
1000
0010
0000
0010
0000
,
1000
0000
0100
0000
0000
0000
0100
0000
1000
0001
0000
0001
0100
0000
0100
0000
,
0001
0010
0000
0010
0000
0010
0100
1000
,
0001
1000
0001
1000
0100
0000
0010
0001
0000
0001
0100
0000
0010
0000
0010
0000
,
1000
0000
0001
0000
0000
0000
0001
0000
0010
0100
0000
0100
1000
0000
1000
0000
,
0001
0000
1000
0000
0000
0000
1000
0000
0100
0010
0000
0010
0001
0000
0001
0000
,
1000
0010
0000
0010
0000
0010
1000
0001
,
0100
0010
1000
0010
0100
0000
0001
1000
0000
1000
0001
0000
0100
0000
0010
0000
,
1000
0000
0100
0000
0000
0000
0100
0000
1000
0001
0000
0001
0100
0000
0100
0000
,
0001
0000
0010
0000
0000
0000
0010
0000
0001
1000
0000
1000
0010
0000
0010
0000
,
1000
0100
0000
0100
0000
0100
0010
0001
,
1000
0001
1000
0001
0010
0000
0100
1000
0000
1000
0010
0000
0010
0000
0100
0000
,
0001
0100
1000
0100
0001
0100
0010
0000
,
1000
0001
1000
0001
0100
0000
0010
0000
0110
0000
0000
0000
0101
0000
0000
0000
,
0001
0010
0001
0010
0100
0000
1000
0000
1100
0000
0000
0000
0110
0000
0000
0000
,
0010
0000
0001
0000
0100
0000
1000
0000
0100
0010
0100
0010
0100
0010
0100
0010
,
0100
0001
1000
0010
0100
0001
0000
1000
0010
0000
1000
0100
0000
0010
0001
0000
,
1000
0001
0100
0000
0010
0100
0001
1000
0100
0000
0010
0100
0000
0000
0000
0000
,
1000
0001
0100
0010
0100
0001
0000
0001
1000
0100
0010
0001
1000
0000
0000
0000
,
2200
0000
3300
0000
0011
0000
0001
0000
0100
0000
0001
1000
0100
0000
0000
0000
,
1000
0010
1000
0000
0001
0000
1000
0001
0100
0010
0000
1000
0001
0000
0000
0000
,
0100
0000
0001
0000
1000
0000
0100
0010
0000
0000
0010
0000
0001
0000
0001
0000
,
1000
0000
0100
0000
1000
0000
0010
0100
0000
0000
0100
0000
0001
0000
0001
0000
,
0100
0001
0100
0000
0010
0000
1000
0001
0000
0001
0010
0000
0001
0000
0010
0000
,
0100
1000
0100
0000
0010
0000
0001
1000
0000
1000
0001
0000
0100
0000
0010
1000
,
0010
0000
1000
0000
0001
0000
0010
0100
0000
0000
0100
0000
1000
0000
1000
0000
,
0001
0000
0010
0000
0001
0000
0100
0010
0000
0000
0010
0000
1000
0000
1000
0000
,
0010
1000
0010
0000
0100
0000
0001
1000
0000
1000
0100
0000
1000
0000
0100
0000
,
0010
0001
0010
0000
0100
0000
1000
0000
0010
0100
0000
0100
0001
1000
0001
1000
,
0001
1000
0000
2200
3300
0100
0010
0001
,
0100
0010
0000
0022
0033
0001
0010
1000
,
0001
0010
1000
0001
0100
1000
0001
0100
,
1000
0100
1000
0000
0100
0000
0010
0100
0000
0100
0000
0001
1000
0000
0001
0100
,
1001
0000
1100
0000
0110
0000
0011
1001
,
0000
0110
0000
1010
0000
0010
0100
0001
,
2000
0100
0000
0001
0000
0100
0000
3001
,
1000
0100
1000
0100
0010
0001
0010
0001
1000
0010
1000
0010
0100
0001
0100
0001
,
0020
0001
0000
0200
0000
0000
0000
0330
,
2001
0100
0000
0002
0000
0000
0000
3003
,
0201
0010
0000
0002
0000
0000
0000
0303
,
0012
0100
0000
2000
0000
0000
0000
3003
,
1000
0000
0001
0100
0000
0100
0000
0001
0000
0001
0000
1000
0010
0000
0100
0000
,
0001
0010
0001
0100
0010
0000
1000
0100
0000
0010
0000
0001
0010
0100
1000
0000
,
0001
0100
1000
0100
0001
0100
1000
0100
0001
0100
1000
0100
0001
0010
1000
0010
,
0001
0010
1000
0010
0001
0010
1000
0010
0001
0000
0100
0010
0100
0010
0100
0010
,
0100
0001
1000
0001
1000
0100
0010
0001
0000
0001
0100
0001
0010
0100
1000
0010
,
1000
0001
0100
0001
0010
0100
1000
0100
0000
0100
1000
0001
0010
0100
0010
0001
,
1000
0010
0100
0001
1000
0010
0100
0001
1000
0010
0100
0001
0010
0100
1000
0001
,
0010
0100
1000
0001
0010
0100
1000
0001
0010
0000
0100
1000
0001
1000
0010
0100
,
0010
1000
0001
1000
0001
0010
0100
1000
0000
1000
0010
1000
0100
0010
0001
0100
,
0001
1000
0010
1000
0100
0010
0001
0010
0000
0010
0001
1000
0100
0010
0100
1000
,
0001
0100
0010
1000
0001
0100
0010
1000
0001
0100
0010
1000
0100
0010
0001
1000
,
0100
0010
0001
1000
0100
0010
0001
0100
0010
0000
0010
0100
0020
0000
0000
0000
,
0030
0000
0000
0000
;

//---------------dance-single - ----------------
#NOTES:
     dance-single:
     :
     Medium:
     13:
     0.572396,0.646528,0.170139,0.212674,0.148872,471.000000,451.000000,20.000000,25.000000,0.000000,0.000000,0.572396,0.646528,0.170139,0.212674,0.148872,471.000000,451.000000,20.000000,25.000000,0.000000,0.000000:
0000
0000
0000
0000
,
0000
0000
0000
0000
,
0001
1000
0000
0010
0000
1000
0100
0010
,
0001
1000
0000
0010
0000
0001
0010
0100
,
1000
0010
0100
0001
1000
0000
0110
0000
,
2002
0000
0000
0000
0000
0000
0000
3003
,
0010
0100
0000
0001
0000
1000
0010
0100
,
0001
0010
0000
0100
0000
1000
0010
1000
,
0001
0100
0001
1000
0100
1000
0010
0100
,
0002
0000
0000
0000
0000
0000
0000
0003
,
1000
0000
0010
0000
0100
0000
0001
0000
1000
0000
0000
0010
0100
0000
0000
0000
,
1001
0000
0000
0010
0000
0100
0000
0001
0000
0000
1000
0000
0010
0000
0100
0000
,
0001
0000
0010
0000
0100
0000
0000
1000
0000
0100
0000
0000
0010
0000
0001
0000
,
0010
0100
1000
0100
0010
0100
1000
0001
,
0100
0000
0000
0010
0000
1000
0000
0000
0001
0000
0000
0100
0000
0010
0000
0000
,
1001
0000
0000
0100
0000
0001
0000
0010
0000
0000
0100
0000
1000
0000
0100
0000
,
0010
0000
0001
0000
1000
0000
0000
0010
0000
0100
0000
0000
0010
0000
1000
0000
,
0010
0100
0001
0100
0010
1000
0001
1000
,
0100
0000
1000
0000
0001
0000
0010
0000
0001
0000
1000
0000
0001
0000
0010
0100
,
0010
0001
0000
0100
0001
1000
0010
0010
,
0100
0001
0000
0001
0010
0001
1000
1000
,
0010
0100
0000
0100
0000
0100
0001
0010
,
0002
0000
0100
0000
0100
0000
0100
0003
,
0001
1000
0000
1000
0010
0100
0001
0001
,
1000
0100
0000
0100
1000
0001
0010
0010
,
0001
1000
0000
1000
0000
1000
0001
0010
,
0200
0000
0010
0000
0010
0000
0010
0300
,
0010
0001
0000
0001
1000
0010
0100
0100
,
0010
1000
0000
1000
0100
1000
0001
0001
,
0100
0010
0000
0010
0000
0010
1000
0100
,
2000
0000
0010
0000
0010
0000
0010
3000
,
1000
0001
0000
0001
0100
0010
1000
1000
,
0001
0010
0000
0010
0001
1000
0100
0100
,
1000
0001
0000
0001
0000
0001
1000
0100
,
0020
0000
0100
0000
0100
0000
0100
0030
,
0001
1000
0001
1000
0010
0100
0010
0000
,
0100
0001
0100
0001
0101
0000
1010
0000
,
1000
0100
0010
0001
0011
0000
1100
0000
,
1000
0001
0100
0010
0200
0000
0000
0000
,
0301
1000
0100
0000
0010
0001
0100
0000
,
1000
0000
0100
0000
0010
0000
0100
0000
0001
0000
1000
0001
0000
0000
0000
0000
,
1000
0100
0010
0000
0001
1000
0010
0000
,
1001
0000
0000
0000
1000
0000
1000
0000
0010
0000
0100
0001
0100
0000
0000
0000
,
0010
0000
0100
0000
0001
0000
0100
0000
0010
0000
0000
1000
0001
0000
0000
0000
,
0100
0000
0001
0000
1000
0000
0100
0010
0000
0000
0010
0000
0001
0000
0001
0000
,
1000
0000
0100
0000
1000
0000
0010
0100
0000
0000
0100
0000
0001
0000
0001
0000
,
2000
0010
0001
0010
,
3002
0010
1000
0010
,
1003
0000
1000
0000
0001
0000
0010
0100
0000
0000
0100
0000
1000
0000
1000
0000
,
0001
0000
0010
0000
0001
0000
0100
0010
0000
0000
0010
0000
1000
0000
1000
0000
,
0020
1000
0100
1000
,
0230
0000
0000
0000
0001
0000
0000
0000
0010
0000
0000
0000
0301
0000
1000
0001
,
1000
0010
0000
0110
0000
0100
0010
1000
,
0001
1000
0000
1001
0000
0001
0010
0001
,
0100
0010
0100
0001
1000
0010
0100
0001
,
1000
0010
1000
0000
0100
0000
0000
0010
0000
0001
0000
0000
1000
0000
0010
0000
,
1010
0000
0101
0000
0011
0000
0010
0100
,
0000
1100
0000
1010
0000
0010
0100
0001
,
0200
0000
0000
0000
,
0020
0000
0000
0000
0000
0000
0000
0030
,
0302
1000
0000
2000
0000
0000
0000
0003
,
3200
0010
0000
0020
0000
0000
0000
0300
,
0032
0100
0000
0200
0000
0000
0000
0003
,
0320
1000
0000
2000
0000
0000
0000
3030
,
0100
0000
0110
0000
0000
0001
0101
0000
,
0001
0000
1001
0000
0000
1000
1100
0000
,
0001
1000
0001
1000
0001
1000
0001
1000
,
0001
0000
1000
0000
0001
0000
1000
0000
0001
0000
0100
0010
0100
0010
0100
0010
,
0100
0000
0001
0000
0010
0000
0001
1000
0000
0000
0100
0000
0010
0000
0001
0000
,
1000
0000
0010
0000
0100
0000
0001
0010
0000
0000
0100
0000
1000
0000
0001
0000
,
0100
0010
0100
0001
0100
0010
0100
0001
,
1000
0010
1000
0100
2000
0001
3001
0100
,
0001
0000
1000
0000
0100
0000
1000
0001
0000
0000
0010
0000
0100
0000
1000
0000
,
0001
0000
0100
0000
0010
0000
1000
0100
0000
0000
0010
0000
0001
0000
1000
0000
,
0010
0100
0010
1000
0010
0100
0010
1000
,
0001
0000
0100
0000
0001
0000
0010
0000
0200
0000
0000
1300
0002
0000
0000
0000
,
0003
0000
0000
0000
;

//---------------dance-single - ----------------
#NOTES:
     dance-single:
     :
     Easy:
     5:
     0.362153,0.452570,0.102083,0.255208,0.000000,298.000000,286.000000,12.000000,30.000000,0.000000,0.000000,0.362153,0.452570,0.102083,0.255208,0.000000,298.000000,286.000000,12.000000,30.000000,0.000000,0.000000:
0000
0000
0000
0000
,
0000
0000
0000
0000
,
1000
0001
0000
0100
0000
0000
0010
0000
,
1000
0001
0000
0100
0000
0000
0100
0000
,
0001
1000
0001
1000
,
2002
0000
0000
0000
0000
0000
0000
3003
,
0100
0010
0000
1000
0000
0000
0100
0000
,
1000
0100
0000
0010
0000
0000
0100
0000
,
1000
0001
0010
0100
,
2000
0000
0000
0000
0000
0000
0000
3000
,
0001
1000
0001
0110
,
0020
0130
0001
0100
,
1000
0010
0010
0100
,
0100
0001
0100
0001
,
0010
0000
1000
0000
,
1001
0100
0010
0001
,
0100
0001
0100
0100
,
0100
1000
0100
1000
,
0010
1000
1000
1000
,
0100
1000
0000
0010
0000
0000
0100
0000
,
0001
1000
0000
1000
0000
0000
0001
0000
,
0100
0010
0000
0100
0000
0000
1000
0001
,
2000
0000
0010
0000
0010
0000
0010
3000
,
1000
0001
0000
0001
0000
0000
1000
0000
,
0001
0010
0000
0010
0000
0000
0100
0000
,
1000
0001
0000
0100
0000
0000
1000
0100
,
0020
0000
0100
0000
0100
0000
0100
0030
,
0100
1000
0000
1000
0000
0000
0010
0000
,
0100
0001
0000
0100
0000
0000
0010
0000
,
0010
0100
0000
0100
0000
0000
0001
1000
,
0002
0000
0100
0000
0100
0000
0100
0003
,
0001
1000
0000
1000
0000
0000
0001
0000
,
1000
0100
0000
0100
0000
0000
0010
0000
,
0001
1000
0000
0010
0000
0000
0001
1000
,
0200
0000
0010
0000
0010
0000
0010
0300
,
1000
0001
1001
1001
,
0010
0100
0110
0110
,
0010
1000
1010
1010
,
0010
0100
0002
0000
,
1003
0010
0100
0010
,
0001
0100
2000
3000
,
0001
0100
1000
0100
,
1001
0000
0001
0001
0000
1000
0010
0000
,
0100
1000
0100
1001
,
0010
0001
0100
1000
,
0001
0001
0010
1000
,
0002
0100
1000
0100
,
2003
0100
0001
0100
,
3001
1000
0100
0001
,
1000
0000
1000
0000
0100
0000
0001
1000
,
0200
0001
0010
0001
,
0320
1000
0100
1030
,
0001
0100
0000
0010
0000
0000
0000
0001
,
1000
0001
0000
1001
0000
0000
0100
0000
,
0010
0100
0001
1000
,
0001
1000
0001
0000
1000
0000
0010
0000
,
0020
0000
2030
0000
3200
0000
0310
0001
,
0000
0010
0000
0100
0000
1000
0001
0000
,
0020
0000
0000
0000
,
0200
0000
0000
0000
0000
0000
0000
0300
,
2030
0000
0000
0002
0000
0000
0000
3000
,
0023
0000
0000
0200
0000
0000
0000
0030
,
2300
0000
0000
0020
0000
0000
0000
3000
,
0230
0000
0000
0002
0000
0000
0000
0303
,
1000
0000
0010
0000
0000
0100
0100
0000
,
0001
0000
0100
0000
0000
0010
0010
0000
,
1000
0001
1000
0001
,
1000
0000
0001
0000
1000
0010
0100
0010
,
0100
0001
0010
0100
,
1000
0010
0100
0001
,
0010
0001
0010
0000
1000
0000
0010
0000
,
0001
1000
0001
0000
0020
0000
0130
0000
,
1000
0010
1000
0010
,
1000
0100
0010
1000
,
0100
0001
0100
0000
0010
0000
1000
0000
,
0001
1000
0001
0000
0020
0000
0200
0000
,
0330
0000
0000
0000
;

//---------------dance-single - ----------------
#NOTES:
     dance-single:
     :
     Beginner:
     3:
     0.198090,0.258611,0.051042,0.187153,0.000000,163.000000,157.000000,6.000000,22.000000,0.000000,0.000000,0.198090,0.258611,0.051042,0.187153,0.000000,163.000000,157.000000,6.000000,22.000000,0.000000,0.000000:
// measure 0
0000
0000
0000
0000
,  // measure 1
0000
0000
0000
0000
,  // measure 2
0001
0000
0000
0010
0000
0000
0100
0000
,  // measure 3
0001
0000
0000
0010
0000
0000
0010
0000
,  // measure 4
1000
0000
0001
0000
,  // measure 5
2002
0000
0000
0000
0000
0000
0000
3003
,  // measure 6
0010
0000
0000
0001
0000
0000
0010
0000
,  // measure 7
0001
0000
0000
0100
0000
0000
0000
0000
,  // measure 8
0100
0000
0010
0000
,  // measure 9
0002
0000
0000
0000
0000
0000
0000
0003
,  // measure 10
1000
0000
1000
0110
,  // measure 11
0100
0000
1000
0000
,  // measure 12
0001
0000
0100
0000
,  // measure 13
0010
0000
0010
0000
,  // measure 14
0100
0000
0001
0000
,  // measure 15
1001
0000
0100
0000
,  // measure 16
0010
0000
0010
0000
,  // measure 17
0010
0000
0010
0000
,  // measure 18
0100
0001
0000
0001
,  // measure 19
0010
0000
0000
0100
0000
0000
0010
0000
,  // measure 20
1000
0000
0000
0001
0000
0000
1000
0000
,  // measure 21
0010
0000
0000
0010
0000
0000
1000
0000
,  // measure 22
0002
0000
0000
0000
0000
0000
0000
0003
,  // measure 23
0001
0000
0000
1000
0000
0000
0001
0000
,  // measure 24
1000
0000
0000
0100
0000
0000
0010
0000
,  // measure 25
0001
0000
0000
0010
0000
0000
1000
0000
,  // measure 26
0200
0000
0000
0000
0000
0000
0000
0300
,  // measure 27
0010
0000
0000
0001
0000
0000
0100
0000
,  // measure 28
0010
0000
0000
0010
0000
0000
0100
0000
,  // measure 29
0100
0000
0000
0010
0000
0000
1000
0000
,  // measure 30
2000
0000
0000
0000
0000
0000
0000
3000
,  // measure 31
1000
0000
0000
0001
0000
0000
1000
0000
,  // measure 32
0001
0000
0000
0010
0000
0000
0100
0000
,  // measure 33
1000
0000
0000
0100
0000
0000
1000
0000
,  // measure 34
0020
0000
0000
0000
0000
0000
0000
0030
,  // measure 35
0001
0000
1000
1000
,  // measure 36
0010
0000
0100
0100
,  // measure 37
0001
0000
1000
1000
,  // measure 38
0000
0010
2000
0000
,  // measure 39
3001
0000
0010
0000
,  // measure 40
1000
0000
0002
0003
,  // measure 41
1000
0000
0001
0000
,  // measure 42
1001
1000
0000
0100
,  // measure 43
0000
0001
0000
1001
,  // measure 44
0100
0000
0010
0000
,  // measure 45
1000
0000
0100
0000
,  // measure 46
2000
0000
0000
0000
,  // measure 47
3002
0000
0000
0000
,  // measure 48
1003
0000
0010
0000
,  // measure 49
0001
0000
0010
0000
,  // measure 50
0020
0000
0000
0000
,  // measure 51
0230
0000
0000
0300
,  // measure 52
1000
0000
0000
0100
0000
0000
0000
1000
,  // measure 53
0000
0000
0000
1001
0000
0000
0010
0000
,  // measure 54
0000
0010
0000
0001
,  // measure 55
0000
1000
0000
0010
,  // measure 56
0000
0002
0003
0100
,  // measure 57
0000
0100
0000
0000
0000
0001
0000
0000
,  // measure 58
0200
0000
0000
0000
,  // measure 59
0020
0000
0000
0000
0000
0000
0000
0030
,  // measure 60
0302
0000
0000
0000
0000
0000
0000
0003
,  // measure 61
0200
0000
0000
0000
0000
0000
0000
0300
,  // measure 62
0002
0000
0000
0000
0000
0000
0000
0003
,  // measure 63
0020
0000
0000
0000
0000
0000
0000
0030
,  // measure 64
0001
0001
0000
0010
,  // measure 65
1000
1000
0000
0100
,  // measure 66
0001
0000
1000
0000
,  // measure 67
0001
0000
1000
0000
,  // measure 68
0010
0000
0100
0000
,  // measure 69
0001
0000
0010
0000
,  // measure 70
0100
0000
0001
0000
,  // measure 71
1000
0000
0100
0000
,  // measure 72
0001
0000
1000
0000
,  // measure 73
0001
0000
0100
0000
,  // measure 74
0010
0000
0100
0000
,  // measure 75
1000
0000
0200
0020
,  // measure 76
0330
0000
0000
0000
;
