#TITLE:Akai Suzu;
#SUBTITLE:;
#ARTIST:Asaki;
#TITLETRANSLIT:;
#SUBTITLETRANSLIT:;
#ARTISTTRANSLIT:;
#GENRE:;
#CREDIT:;
#BANNER:Akai Suzu (FULL VER.)-bn.png;
#BACKGROUND:Akai Suzu (FULL VER.)-bg.png;
#LYRICSPATH:;
#CDTITLE:;
#MUSIC:Akai Suzu (FULL VER.).mp3;
#OFFSET:0.060000;
#SAMPLESTART:107.459999;
#SAMPLELENGTH:12.000000;
#SELECTABLE:YES;
#BPMS:0.000000=220.001007
;
#STOPS:502.500000=0.120000
;
#BGCHANGES:0.000=Akai Suzu-bg.png=1.000=0=0=1=====,
7.000=Akai Suzu (FULL VER.).avi=1.000=1=0=1===CrossFade==,
99999=-nosongbg-=1.000=0=0=0 // don't automatically add -songbackground-
;
#KEYSOUNDS:;
#ATTACKS:;

//---------------dance-single - ----------------
#NOTES:
     dance-single:
     :
     Hard:
     16:
     0.876747,1.000000,0.344876,0.536910,0.632926,1341.000000,88.000000,137.000000,0.000000,0.000000,0.000000,0.876747,1.000000,0.344876,0.536910,0.632926,1341.000000,88.000000,137.000000,0.000000,0.000000,0.000000:
// measure 0
0000
0000
0000
0000
,  // measure 1
0000
0000
0000
2002
,  // measure 2
3003
1010
0000
1000
0010
0000
0010
0100
,  // measure 3
0010
1000
0001
0000
0000
0001
0010
0000
,  // measure 4
0000
0100
0010
0001
0010
0100
1000
0001
,  // measure 5
0000
0000
1000
0010
0000
0010
0100
0001
,  // measure 6
2000
0000
0000
0000
0010
0000
0000
0000
0000
0000
0010
0000
0000
0000
0000
3020
0000
0000
0000
0000
0000
0000
0000
0000
,  // measure 7
1030
0010
0001
0010
1000
0100
0001
0100
,  // measure 8
1000
0000
0000
0000
0000
1001
0000
0000
0000
0000
0000
2002
0000
0000
0000
0000
0000
0000
0000
0000
0000
3003
0000
0000
,  // measure 9
0001
1000
0001
0010
0100
1000
0100
0010
,  // measure 10
0001
0000
0000
0010
0000
0000
0100
0000
0000
1000
0000
0000
0000
0000
1001
0000
0000
0000
0000
0000
0000
0000
2020
0000
,  // measure 11
0000
0000
3030
0000
1010
0000
0000
0101
,  // measure 12
0000
1000
0010
0000
0100
0001
0010
1000
,  // measure 13
0010
0001
1000
0010
0100
0000
0000
1010
,  // measure 14
0000
0000
0000
0000
0000
0000
0000
0000
0000
0202
0000
0000
0000
0000
0000
0000
0000
0000
0000
0000
0000
0000
0000
0000
0003
0000
0000
0000
0000
0000
0300
0000
0000
0000
0000
0000
0001
0000
0000
0000
1000
0000
0000
0000
0010
0000
0000
0000
,  // measure 15
0000
0000
0000
1000
0001
0100
0000
0000
0000
0001
0010
0100
,  // measure 16
1000
0000
0100
0000
0010
0000
0001
0000
0010
0000
0100
0000
,  // measure 17
1000
0100
0010
0002
0000
0000
0000
0000
0000
0000
0000
0000
,  // measure 18
0103
0000
0000
0010
0000
1000
0001
0000
0000
1000
0000
0100
,  // measure 19
0010
0000
0000
0001
0000
0010
1000
0000
0000
0010
0000
0001
,  // measure 20
0100
0000
0000
0010
0000
1000
0100
0000
0000
0010
0000
0001
,  // measure 21
1000
0000
0000
0100
0000
0010
0001
0000
0000
0010
0000
0100
,  // measure 22
1000
0000
0001
1000
0100
0010
0001
1000
,  // measure 23
1100
0101
1100
0101
,  // measure 24
0100
2000
0000
3001
1000
0020
0000
0130
,  // measure 25
0010
0000
0000
0000
0100
0010
1000
0000
0001
0000
2000
0000
0000
0000
0000
0000
,  // measure 26
3020
0000
0000
0032
0000
0000
0010
0000
,  // measure 27
0010
0010
0023
0230
,  // measure 28
2300
0000
0100
0000
0100
0000
3100
0001
,  // measure 29
2000
0000
0000
3000
0021
0000
0000
0030
,  // measure 30
0001
0100
1000
0001
0010
1000
0001
0100
,  // measure 31
1000
0001
0010
1000
0001
0100
0001
2000
,  // measure 32
0000
0000
3010
0100
0001
0020
0000
0032
,  // measure 33
0000
0000
0000
0000
0000
0000
1003
0010
1000
0010
1000
0010
,  // measure 34
0100
0001
1000
0001
,  // measure 35
0010
0000
0100
0000
1000
0010
0000
0110
,  // measure 36
0000
0000
0000
0100
0000
0000
0001
0000
0000
1000
0001
1000
,  // measure 37
0001
0000
0000
0010
0000
0000
0100
0000
1000
0100
1000
0100
,  // measure 38
1000
0000
0100
0010
0000
0010
0001
0000
0000
1000
0000
0000
,  // measure 39
0110
0000
0000
0001
0000
0010
0100
0000
0100
1000
0000
0000
,  // measure 40
1020
0000
0230
0000
0301
1000
0000
1020
,  // measure 41
0000
0000
0000
0000
0000
0000
1030
0010
1000
0010
1000
0010
,  // measure 42
0100
0000
0001
1000
0000
1000
0010
0000
0010
0100
0000
0100
,  // measure 43
0001
0000
0000
0000
0001
0000
0010
0000
0000
0100
0000
0000
0000
0000
0000
0000
1000
0000
0100
0000
0000
0000
0010
0000
,  // measure 44
0001
0000
1000
0010
0000
0100
0001
0000
1000
0010
0000
0010
,  // measure 45
0100
0000
0000
0000
0100
0000
0001
0000
0000
0000
0001
0000
1000
0000
0000
0010
0000
0000
0000
0000
0000
0000
0000
0000
,  // measure 46
1000
0010
0001
0010
1000
0001
0010
0100
,  // measure 47
1000
0000
0010
0100
0001
0010
1000
0010
,  // measure 48
0001
1000
0100
1000
0001
0010
0001
2000
,  // measure 49
0000
3000
1002
0000
0203
0000
0320
0000
,  // measure 50
1030
0001
0010
0100
1000
0002
0000
0203
,  // measure 51
0000
0302
0023
0230
,  // measure 52
0310
0100
1000
0100
0010
0001
1000
0010
,  // measure 53
0000
1000
0001
0010
1000
0020
0000
0000
,  // measure 54
0032
0000
0000
0000
0000
1000
0000
2003
,  // measure 55
0000
0000
3020
0100
,  // measure 56
2030
0100
3002
0010
,  // measure 57
1003
0000
0000
0001
0000
0000
0100
0010
0100
0001
1000
0010
,  // measure 58
1000
0000
0000
0000
0010
0000
0100
0000
0000
0000
0001
0000
1000
0000
0000
0010
0000
0000
0000
0000
0000
0000
1000
0000
,  // measure 59
0100
0000
0010
0001
0000
1000
0010
0000
0100
0001
0000
1000
,  // measure 60
0010
0000
0000
0000
0010
0000
0100
0000
0000
0000
0100
0000
0001
0000
0000
0000
0001
0000
0100
0000
0000
0010
0000
0000
,  // measure 61
0000
0100
0001
0010
0100
0010
0001
1000
,  // measure 62
1100
0000
1100
0000
1100
0000
0000
0110
,  // measure 63
0000
0011
0000
1001
1001
0000
0002
0000
,  // measure 64
0103
0001
0100
0010
0100
2000
0000
3200
,  // measure 65
0000
0000
0000
0302
0000
0000
0013
0100
1000
0001
0010
0100
,  // measure 66
1000
0000
1000
0001
0000
0001
0100
0000
0100
0010
0000
0010
,  // measure 67
1000
0000
0000
0000
1000
0000
0100
0000
0000
0010
0000
0000
0000
0000
0000
0000
0001
0000
0010
0000
0000
0000
0100
0000
,  // measure 68
1000
0000
0001
0100
0000
0010
1000
0000
0001
0100
0000
0100
,  // measure 69
0010
0000
0000
0000
0010
0000
1000
0000
0000
0000
1000
0000
0001
0000
0000
0100
0000
0000
0000
0000
0000
0000
0000
0000
,  // measure 70
0001
0100
1000
0100
0001
1000
0100
0010
,  // measure 71
0001
0100
0010
0100
0001
0010
1000
0010
,  // measure 72
0001
1000
0100
1000
0001
0010
0001
1002
,  // measure 73
0000
0003
2001
0000
3020
0000
0230
0000
,  // measure 74
0301
1000
0100
0010
0001
2000
0000
3020
,  // measure 75
0000
2030
3200
0320
,  // measure 76
0130
0010
0001
0010
0100
1000
0001
0100
,  // measure 77
0010
0001
1000
0100
0001
0200
0000
0000
,  // measure 78
2300
0000
0000
0000
0000
3200
0000
0302
,  // measure 79
0000
0000
0203
0010
,  // measure 80
0302
0010
2003
0100
,  // measure 81
3001
0000
0000
1000
0000
0000
0010
0100
0010
1000
0001
0100
,  // measure 82
0001
0000
0220
0330
0001
0000
0220
0330
,  // measure 83
0001
0000
1000
0020
0000
1030
0001
0100
,  // measure 84
0202
0303
1000
0000
0202
0303
1000
0000
,  // measure 85
0202
0303
1000
0020
0000
0130
0001
0100
,  // measure 86
2000
0000
3100
0001
0000
0000
0202
0000
,  // measure 87
0303
1020
0230
0310
,  // measure 88
2010
0000
3001
0000
0001
2000
0000
0000
,  // measure 89
0010
0000
0000
0010
0000
0000
3100
0010
0001
1000
0100
0010
,  // measure 90
0001
0000
2200
3300
0001
0000
2200
3300
,  // measure 91
0001
0000
1000
0020
0000
0130
0001
0010
,  // measure 92
0022
0033
0100
0000
0022
0033
0100
0000
,  // measure 93
0022
0033
0100
2000
0000
3100
0010
0100
,  // measure 94
2000
0000
3001
0200
0000
0310
1000
0001
,  // measure 95
0200
0000
0310
0100
0000
0001
0000
0010
,  // measure 96
0100
1000
0100
0010
0001
1000
0010
0100
,  // measure 97
0001
0010
0100
1000
0100
0010
0001
1000
0010
0100
0001
0010
,  // measure 98
0100
0000
1000
0100
0000
0100
0010
0000
0010
0001
0000
0001
,  // measure 99
1000
0000
0010
0100
0000
0001
0010
0000
0100
1000
0000
0100
,  // measure 100
0010
0000
0010
0001
0000
1000
0010
0000
0100
0001
0000
1000
,  // measure 101
0001
0000
0000
0000
0001
0000
0100
0000
0000
0010
0000
0000
0000
0000
0000
0100
0000
0000
0010
0000
0000
0001
0000
0000
,  // measure 102
0010
0100
0010
1000
0001
0010
0100
1000
,  // measure 103
2010
3200
0320
0032
,  // measure 104
2003
0000
0000
0000
0010
0000
0000
0000
3010
0000
0000
0000
0010
0000
0000
0100
,  // measure 105
0000
0000
0000
0001
0000
0000
0100
0000
1000
0100
0000
0100
,  // measure 106
0001
0000
0000
0000
0010
0000
0000
0000
0100
0000
0000
0000
1000
0000
0000
0001
,  // measure 107
0000
0100
0000
0010
0000
1000
0001
0100
,  // measure 108
0001
0000
1000
0000
0001
0000
0100
0010
,  // measure 109
0000
0010
1000
0001
0010
0000
0100
1000
,  // measure 110
0000
0100
0010
0001
,  // measure 111
1000
1010
0110
1001
,  // measure 112
1100
0000
0000
0100
1000
0010
0200
0000
0000
0320
0000
0000
,  // measure 113
2030
0000
3002
0000
,  // measure 114
1003
0000
0010
1000
0000
0001
0100
0000
0010
1000
0000
0001
,  // measure 115
0010
0000
0100
1000
0000
0100
0010
0000
0010
0001
0000
0001
,  // measure 116
1000
0000
1000
0010
0000
0010
0100
0000
0100
0001
0000
0001
,  // measure 117
0010
0000
0010
0100
0000
0100
1000
0000
0010
1000
0000
0001
,  // measure 118
0100
0000
0010
1000
0000
0001
0010
0000
0100
1000
0000
0100
,  // measure 119
0010
0000
0010
0001
0000
0001
1000
0000
1000
0010
0000
0010
,  // measure 120
0100
0000
0100
0001
0000
0001
0010
0000
0010
0100
0000
0100
,  // measure 121
1000
0010
0100
0010
1000
0001
0200
0000
0000
0320
0000
0000
,  // measure 122
2030
3001
0100
0010
,  // measure 123
1000
0010
0001
0010
,  // measure 124
1000
0000
0100
0000
0001
0000
0100
1000
,  // measure 125
0100
0010
0001
0000
1000
0002
0000
0103
,  // measure 126
0010
0000
0010
2000
0000
0010
0000
0010
,  // measure 127
0000
0000
0000
3001
0000
0000
0000
0000
0000
1000
0000
0000
0000
0000
0000
0001
0000
0000
0000
0000
0000
0100
0000
0010
,  // measure 128
0000
1000
0000
0001
0000
0100
0000
0010
0000
1000
0000
0001
0000
0010
0000
0100
0000
1000
0000
0010
0000
0100
0000
0001
,  // measure 129
0000
0000
0010
0000
0000
0000
0100
0000
0000
0000
0010
0000
0000
0000
0001
0000
0000
0000
1000
0000
0000
0000
0000
0000
0010
0000
0000
0100
0000
0000
0010
0000
0000
0100
0000
0000
0010
0000
0000
0000
0000
0000
1000
0000
0000
0000
0000
0000
,  // measure 130
0000
0000
0001
0000
0000
0000
0000
0010
0000
0000
0100
0000
0000
0000
0000
0000
,  // measure 131
1010
0000
0000
0110
0000
0000
0101
0000
0000
0000
0000
0000
0001
0000
0000
0000
,  // measure 132
1000
0000
0000
0000
0000
0010
0000
0000
0100
0000
0010
0000
0000
0000
0110
0000
,  // measure 133
0000
0000
0000
0000
0000
0000
0100
0000
0000
0000
0000
0000
0000
0000
0000
0000
0000
0000
0000
0000
0000
0001
0000
0000
0000
0000
0000
0000
0000
0000
1000
0000
0000
0000
0010
0000
0000
0000
0100
0000
0000
0000
0001
0000
0000
0000
1000
0000
,  // measure 134
0000
0010
0000
0100
0000
0001
0000
0000
0000
0000
0000
0000
0010
0000
0000
0000
0000
0000
0100
0000
0000
0000
0000
0000
,  // measure 135
1000
0000
0100
1000
0000
0000
1100
0000
0000
1100
0000
0000
,  // measure 136
0000
0010
0000
0000
0000
0000
1001
0000
0000
0000
2100
0000
0000
0000
3020
0000
,  // measure 137
0000
0130
0000
0001
0000
1000
0000
0010
,  // measure 138
0000
0000
0000
0200
0000
0000
0000
0000
0000
0000
0000
0000
0301
0000
1000
0000
,  // measure 139
0010
0000
0000
0000
0100
0000
0000
0000
0110
0000
0000
0000
0000
0101
0000
0000
,  // measure 140
0000
1100
0000
0000
0000
0002
0000
2003
,  // measure 141
0000
3010
0100
0000
0100
0000
0000
0010
,  // measure 142
1000
0000
0001
1000
0001
1000
0001
0000
0100
0000
0010
0000
1000
0000
0001
0000
,  // measure 143
0110
0000
0000
0010
1000
0100
0011
0000
,  // measure 144
0000
0000
0000
0001
0000
0000
1100
0000
0000
0000
0000
0000
0000
0000
0000
0100
0000
0000
0000
1000
0000
0100
0000
0000
,  // measure 145
0000
0100
0000
0010
0000
0000
0000
0010
0000
0001
0000
0000
0000
0010
0000
1000
0000
0000
0000
0010
0000
0001
0000
0000
,  // measure 146
0000
1000
0000
0010
0000
0000
0100
0000
0000
0000
0000
0000
0002
0000
0000
0000
0000
0000
0000
0000
0000
1003
0000
0000
,  // measure 147
0000
0010
0000
0100
0000
0000
0000
0000
0000
0100
0000
0000
0000
0010
0000
0100
0000
0000
0010
0000
1000
0000
0010
0000
,  // measure 148
1000
0000
0001
0000
0100
0000
0001
0000
1000
0000
0100
0000
1000
0000
0000
0010
0000
0000
0000
0000
0000
1001
0000
0000
,  // measure 149
0000
0010
0000
1000
0010
0100
0000
0010
,  // measure 150
1000
0000
0001
0100
0000
0220
0330
0220
,  // measure 151
0330
0220
0330
0220
0330
0010
1000
0010
,  // measure 152
0001
0000
0010
1000
0100
0001
0000
0001
,  // measure 153
0100
0000
1100
0000
0000
0001
0000
1000
,  // measure 154
0000
0001
0000
0100
0000
1000
0000
0100
,  // measure 155
0001
0000
1001
0000
0001
1000
0000
0001
,  // measure 156
0000
0000
0100
0000
0000
0000
0001
1000
0010
1000
0001
0000
0000
0000
1000
0000
,  // measure 157
0000
0010
0000
0001
0000
1000
0000
0100
,  // measure 158
0001
0000
1000
0010
0001
0010
0000
1000
,  // measure 159
0000
0001
0010
0000
0100
1000
0000
1000
,  // measure 160
0100
0000
0010
0001
0010
0100
0000
1000
,  // measure 161
0100
0000
0010
0001
0010
1000
0000
0001
,  // measure 162
0100
0000
0000
0000
1000
0000
0000
0000
0010
0000
0100
0000
0000
0001
0000
0000
,  // measure 163
1000
0000
0010
0000
0000
0001
0000
0000
1000
0000
0100
0000
0001
0100
0001
0100
,  // measure 164
0001
0000
0000
1000
0000
0000
0010
0000
0000
0100
0000
0000
0001
0000
0000
0100
0000
0000
0000
0010
0000
1000
0000
0000
,  // measure 165
0000
1000
0000
0001
0000
0000
0000
0001
0000
0010
0000
0000
0000
0010
0000
0100
0000
0000
0000
0100
0000
1000
0000
0000
,  // measure 166
0000
0001
0000
0010
0000
0000
0000
0100
0000
1000
0000
0000
0000
0010
0000
0100
0000
0000
0000
0001
0000
0010
0000
0000
,  // measure 167
0000
0000
0100
0000
0000
0000
1000
0000
0000
0000
0000
0000
0000
0000
0000
0010
0000
0000
0100
0000
0000
0001
0000
0000
0100
0000
0000
0001
0000
0000
0010
0000
0000
0000
0000
0000
0000
0000
0000
0000
0000
0000
0100
0000
0000
0010
0000
0000
,  // measure 168
0100
1000
0100
0000
0000
0000
0010
0001
0010
0000
0100
0000
0000
0000
1000
0000
,  // measure 169
0001
0000
0000
0000
0100
0001
0100
0001
0100
0000
0010
0000
0000
0000
1000
0010
,  // measure 170
1000
0010
0000
0000
0000
0000
0100
0001
0100
0001
0000
0000
0100
0000
1000
0000
,  // measure 171
0100
0010
1000
0001
0100
0010
0000
0100
,  // measure 172
0010
0000
0110
0000
0010
1000
0000
1001
,  // measure 173
0000
0001
1000
0010
0001
1000
0000
0200
,  // measure 174
0000
0302
0000
0023
0000
0230
0000
1000
,  // measure 175
0000
0310
2002
0000
,  // measure 176
3003
0000
0000
0000
0000
0000
0001
0000
0100
0000
0000
0000
0100
0000
0010
0000
0000
0000
0000
0000
0000
0110
0000
0000
,  // measure 177
0000
0000
1000
0000
0000
0000
0001
0000
0000
1000
0000
0000
0010
0000
0000
0000
,  // measure 178
0000
0000
1000
0010
0100
0001
0000
0101
,  // measure 179
0000
1000
0000
0010
0100
0000
0001
1000
,  // measure 180
0010
0100
0000
0010
0100
0000
0000
0110
,  // measure 181
0000
0000
0000
1000
0000
0001
0000
1000
0000
0001
0000
1000
0000
0001
0000
0100
0000
0000
0000
0000
0000
0010
0000
0000
,  // measure 182
0000
0000
1000
0000
0000
0000
1001
0000
0000
0000
0001
0100
0001
0100
0001
0000
,  // measure 183
0000
0000
1000
0010
1000
0010
1000
0000
0000
0010
0000
0000
0100
0000
0000
0000
,  // measure 184
0001
0000
0000
2000
0000
0000
0000
0000
0000
0000
0000
0000
0000
0000
0000
3010
0000
0000
0000
0100
0000
0010
0000
0000
,  // measure 185
0000
1000
0000
0100
0000
0000
0000
0010
0000
0001
0000
0000
0000
1000
0000
0010
0000
0000
0000
0100
0000
0001
0000
0000
,  // measure 186
0000
1000
0000
0010
0000
0000
0000
0010
0000
0100
0000
0000
0000
0100
0000
0001
0000
0000
0000
0001
0000
1000
0000
0000
,  // measure 187
0000
1000
0000
0100
0000
0000
0000
0010
0000
0001
0000
0000
0000
1000
0000
0010
0000
0000
0000
0100
0000
0001
0000
0000
,  // measure 188
1000
0000
1000
0010
1000
0001
0100
0010
,  // measure 189
1000
0000
0000
0001
0000
0000
0010
0000
0000
0100
0000
0000
1000
0000
0000
0001
0000
0000
0000
1000
0000
0001
0000
0000
,  // measure 190
0000
0100
0000
0010
0000
0000
0000
0010
0000
0100
0000
0000
0000
0100
0000
0002
0000
0000
0000
0000
0000
0010
0000
0000
,  // measure 191
0000
0000
0000
0100
0000
0000
0000
0000
0000
1003
0000
0000
0000
1000
0000
0010
0000
0000
0000
0100
0000
0001
0000
0000
,  // measure 192
0000
1000
0000
0010
0000
0000
0000
0100
0000
0010
0000
0100
0000
0010
0000
0100
0000
0000
0000
0001
0000
1000
0000
0000
,  // measure 193
0000
1000
0000
0100
0000
0000
0000
0010
0000
0001
0000
0000
0000
1000
0000
0010
0000
0000
0000
0100
0000
0001
0000
0000
,  // measure 194
0000
1000
0000
0010
0000
0000
0000
0010
0000
0100
0000
0000
0000
0100
0000
0001
0000
0000
0000
0001
0000
1000
0000
0000
,  // measure 195
0000
1000
0000
0100
0000
0000
0000
0100
0000
0010
0000
0000
0000
0010
0000
0001
0000
0000
0000
0001
0000
1000
0000
0000
,  // measure 196
0000
1000
0000
0010
0000
0000
0000
0010
0000
0001
0000
0000
0000
0001
0000
1000
0000
0000
0000
1000
0000
0100
0000
0000
,  // measure 197
0000
0100
0000
0001
0000
0000
0000
0001
0000
0010
0000
0000
0000
0010
0000
0100
0000
0000
0000
0000
0000
1001
0000
0000
,  // measure 198
0000
0000
0110
0000
0000
0000
0101
0000
0000
0000
1010
0000
0000
0000
1000
0010
,  // measure 199
1000
0010
1000
0000
0000
0000
0001
0100
0001
0100
0001
0000
0000
0000
1000
0010
,  // measure 200
1000
0010
1000
0000
0000
0000
0001
0000
0000
0000
1000
0000
0000
0000
0001
0000
,  // measure 201
0000
0100
0000
0001
0010
0100
0000
0010
,  // measure 202
0000
0001
0010
0100
1000
0001
0000
0100
,  // measure 203
0010
1000
0000
0100
0010
0001
0000
0010
,  // measure 204
0100
1000
0000
1100
0000
0101
0000
0010
,  // measure 205
0000
1000
0000
0001
0010
1000
0000
0010
,  // measure 206
0000
0001
0000
1000
0000
0010
0000
0100
,  // measure 207
0001
1000
0000
0001
0010
0100
0000
0010
,  // measure 208
0100
0000
0000
1000
0000
0000
0000
0000
0000
0001
0000
1000
0000
0010
0000
0100
0000
0001
0000
1000
0000
0000
0000
0000
,  // measure 209
0010
0100
0001
0000
0010
0100
1000
0000
,  // measure 210
0100
0000
0000
0010
0000
0000
0000
0000
0000
0001
0000
0000
0000
0000
0000
0001
0000
0000
0000
0000
0000
0010
0000
0100
,  // measure 211
0000
1000
0000
0100
0000
0010
0000
0001
0000
0010
0000
0100
0000
1000
0000
0001
0000
0100
0000
0010
0000
0100
0000
0000
,  // measure 212
0001
1000
0100
0010
0001
0010
0000
0100
,  // measure 213
1000
0100
0000
0001
0000
0100
0000
1100
,  // measure 214
0000
0000
0000
1001
0000
0000
0000
0000
0000
0001
0000
0000
0000
0000
0000
0100
0000
0000
0000
0000
0000
0010
0000
1000
,  // measure 215
0000
0010
0000
0100
0000
0001
0000
0010
0000
0100
0000
1000
0000
0100
0000
0010
0000
0000
0000
0000
0000
0001
0000
0000
,  // measure 216
0000
0000
0000
1000
0000
0001
0000
0100
0000
0001
0000
1000
0000
0010
0000
0100
0000
0000
0000
0000
0000
0001
0000
0000
,  // measure 217
0000
1000
0000
0010
0000
0100
0000
0001
,  // measure 218
0000
1000
0001
0000
0110
0000
0000
0100
,  // measure 219
0000
0000
0000
0001
0000
0000
0000
0000
0000
1000
0000
0001
0000
1000
0000
0001
0000
0000
0000
0000
0000
0010
0000
0000
,  // measure 220
0000
0000
0000
0100
0000
0000
0000
1000
0000
0100
0000
1000
0000
0100
0000
1000
0000
0000
0000
0100
0000
0010
0000
0000
,  // measure 221
0000
0010
0000
0001
0000
0000
0000
0000
0000
1000
0000
0000
0000
0000
0000
0110
0000
0000
0000
0000
0000
0001
0000
0000
,  // measure 222
0000
0010
0000
0100
0000
0000
0000
0100
0000
1000
0000
0000
0000
0000
0000
1020
0000
0000
0000
0000
0000
0230
0000
0000
,  // measure 223
0000
0301
1000
0000
1020
0000
0000
0000
,  // measure 224
0000
0000
0000
1030
0000
0010
0000
0100
0000
0001
0000
1000
0000
0010
0000
0100
0000
0000
0000
0000
0000
2002
0000
0000
,  // measure 225
0000
0000
0000
0000
,  // measure 226
3003
0000
0000
0000
;

//---------------dance-single - Copied from----------------
#NOTES:
     dance-single:
     Copied from:
     Medium:
     12:
     0.574420,0.837231,0.172438,0.415419,0.005879,876.000000,44.000000,106.000000,0.000000,0.000000,0.000000,0.574420,0.837231,0.172438,0.415419,0.005879,876.000000,44.000000,106.000000,0.000000,0.000000,0.000000:
0000
0000
0000
0000
,
0000
0000
0000
0002
,
0000
1003
0000
0010
0100
0000
0000
0100
,
0000
0001
1000
0000
0000
0000
0001
0000
,
0010
0100
0000
0000
1000
0000
0001
0100
,
0000
0000
0000
0010
0000
0010
0100
0000
,
0100
0010
0000
0010
0000
0010
0000
0000
,
1000
0010
1000
0000
0001
0100
0001
0000
,
0100
0000
0010
0000
0000
0000
0000
0220
0000
0000
0000
0000
0000
0000
0330
0000
,
0001
1000
0001
0000
1000
0010
1000
0000
,
0001
0100
0001
0000
0000
0100
0000
0220
,
0000
0000
0330
0000
1001
0000
0000
1000
,
0000
0000
0010
0000
0000
0100
0000
0000
,
0001
0000
0000
0010
0000
0000
0100
0000
,
0000
2000
0000
0000
0000
3000
0000
0000
,
0010
0000
0100
0000
,
0001
0000
1000
0000
,
0000
0001
1002
0000
0000
0000
0000
0000
,
0103
0010
1000
0001
,
0010
0100
1000
0100
,
0010
0001
1000
0010
,
1000
0001
0100
0001
,
0010
0000
0100
1000
0100
1000
0100
1000
,
0200
0320
0032
0023
,
0130
0100
0000
1000
0001
1000
0000
0010
,
0010
0000
0100
0010
1000
0010
0000
0000
,
2000
0000
0000
0002
0000
0000
0000
0000
,
0000
0000
0000
3000
0203
0000
0302
0000
,
2000
0000
0000
0000
0000
0003
3100
0010
,
0002
0000
0023
0000
,
0031
1000
0001
0100
,
0010
0000
1000
0000
0001
0010
0100
2000
,
0000
0000
3001
0010
0100
2000
0000
3002
,
0000
0000
0000
0000
0000
0000
1003
0010
,
0100
0010
0100
1000
,
0100
0000
0001
0000
0010
0100
0000
1100
,
0000
0000
1000
0000
0001
0000
0100
0010
,
0100
0000
0001
0000
0010
0000
0100
1000
,
0100
0010
0001
1000
,
1001
0001
0100
1000
,
0200
0000
0302
0000
1003
0010
0000
0010
,
0000
0000
0000
0000
1000
0010
1000
0001
,
0100
0100
0010
0100
,
0001
0010
0100
1000
,
0001
0010
1000
0010
,
0001
0000
0100
0010
2000
0000
0000
3010
,
0100
0001
0010
0100
,
1000
0001
0010
0100
,
1000
0000
0001
0000
0100
0000
0010
0100
,
0000
0002
2003
3002
,
0013
0100
1000
0000
0001
0000
0000
0100
,
0000
0002
0023
0230
,
0310
0001
1000
0000
0010
0000
0100
0000
,
0001
0000
1000
0001
1000
0000
0010
0000
,
0200
0000
0000
0000
0000
0001
0000
0301
,
0000
0000
0020
0000
,
0230
0000
2300
0000
,
3001
0100
0001
0000
1000
0000
0001
0000
,
1000
0000
0100
0000
1000
0100
0000
0000
,
0010
0001
1000
0001
,
0100
0000
0010
0000
1000
0000
0001
0100
,
0000
0010
1000
0001
,
0102
0000
0100
0000
0103
0000
0000
0110
,
0000
0010
0000
1000
1000
0000
0002
0000
,
0013
0100
0010
0100
0010
0100
0000
0011
,
0000
0002
0013
0001
,
1000
0000
0001
0000
0100
0010
0100
0000
,
0001
1000
0001
0100
,
0001
1000
0001
0000
1000
0000
0100
0000
,
0010
0000
0001
1000
0100
0000
0000
0000
,
0001
1000
0001
0100
,
0001
1000
0001
0000
0100
0000
0010
0000
,
1000
0000
0100
0000
0010
0000
0001
1000
,
0000
0002
0023
0230
,
1300
0100
0010
0000
0001
0000
0000
1000
,
0000
2000
3200
0320
,
0130
0010
0001
0000
0100
0000
0001
0000
,
0010
0000
1000
0000
0001
1000
0000
0000
,
2000
0000
0000
0000
0000
0001
0000
3002
,
0000
0000
0203
0000
,
0302
0000
2003
0000
,
3001
1000
0010
1000
,
0001
0000
2200
3300
0001
0000
2200
3300
,
0001
0000
1000
0010
0000
0100
0001
0100
,
0220
0330
0001
0000
0220
0330
0001
0000
,
0220
0330
1000
0001
0000
0100
0001
0100
,
0020
0000
0130
0010
0000
0000
2002
0000
,
3003
0020
0230
0302
,
2003
0000
3001
0000
0001
1000
0000
0000
,
0001
0001
1000
1000
,
0001
0000
2200
3300
0001
0000
2200
3300
,
0001
0000
1000
0001
0000
0000
0001
0000
,
0022
0033
0100
0000
0022
0033
0100
0000
,
0022
0033
0100
1000
0000
0001
0010
0100
,
2000
0000
3010
0100
0000
0010
1000
0001
,
0200
0000
0310
0100
0000
0110
0000
0000
,
0100
0100
0001
0010
,
0001
1000
0001
0000
1000
0010
1000
0010
,
1000
0100
0010
0001
,
1000
0100
0010
1000
,
0010
0001
0010
0001
,
0001
0000
0100
0010
0000
0000
0010
1000
,
0001
1000
0010
0000
0100
0000
0001
0000
,
0010
0100
1000
0100
,
0010
0001
1000
0001
,
2000
0000
0000
0000
3000
0001
0100
0001
,
0100
0010
1000
0001
,
0100
0000
0010
0000
0000
1000
0001
1000
,
0001
0000
1000
0000
0001
0000
0100
0010
,
0000
0010
1000
0010
0100
0000
0100
0020
,
0000
0000
0000
0000
,
0030
1001
0110
0101
,
1010
0020
0100
0001
,
2000
0000
0000
0030
3200
0000
0000
0000
,
0310
0010
0001
0001
,
0010
1000
0010
0001
,
1000
0100
0010
0000
0001
0000
0010
0000
,
1000
0001
0100
0010
,
1000
0001
1000
0000
0010
0000
1000
0000
,
0010
0001
0010
1000
,
0001
0010
0100
1000
,
0100
0010
0001
0010
,
0200
0000
0000
0000
,
0000
0000
1300
0001
,
1000
0010
1000
0001
,
0100
0000
0001
0000
1000
1000
0000
0000
,
0010
0000
0010
0100
0000
0100
0000
0100
,
0000
0100
0000
0100
0000
0100
0000
0100
,
0000
0100
0000
0100
0000
0100
0000
0100
,
0000
0100
0000
0100
0010
1000
0010
1000
,
0000
0000
0010
0000
0000
0000
0000
1000
0000
0000
0010
0000
0000
0000
0000
0000
,
1000
0000
0000
0001
0000
0000
1000
0000
0000
0000
0000
0000
0001
0000
0000
0000
,
2000
0000
0000
0000
3200
0000
0000
0320
,
0000
0000
0030
0000
0000
0001
1000
0001
,
1000
0002
0000
0000
0000
0000
0000
0000
,
1003
0100
1000
0000
0010
0000
0010
0000
,
0000
0000
0000
0000
0000
0110
0000
0110
,
0000
0000
0000
1001
,
1001
0000
1001
0000
0000
0000
0001
1000
,
0001
0100
0100
0010
,
0010
0000
0000
0000
0000
1000
0000
0001
,
0000
1000
0100
0000
0010
0000
0000
0001
,
1000
0000
0000
0010
0000
0100
0000
0000
,
0110
0000
0000
0010
0000
0000
1001
0000
,
0000
0100
0010
0000
0000
1000
0000
0001
,
0000
0100
0000
0010
0000
1000
0000
0001
,
0000
1000
0100
0000
0002
0000
0000
0003
,
0000
0000
0000
0000
,
0000
1000
0000
0001
0000
0100
0000
0010
,
0000
1000
0000
0010
0100
0010
0000
1000
,
0001
0000
0001
1001
0000
1000
0000
1010
,
0000
1000
0000
1001
0000
0001
1000
0001
,
1000
0000
0010
0100
0010
0100
0000
0010
,
0100
0000
0100
0000
0000
0000
0000
0010
,
0000
0001
0000
0010
0000
1000
0000
0001
,
1000
0000
2002
0000
0000
3003
0000
0000
,
0000
0000
0000
0000
0000
1000
0000
0010
,
0000
1000
0000
0010
0000
1000
0000
0001
,
0100
0000
0001
0010
0100
1000
0000
1000
,
0000
1000
0010
0000
0100
0010
0000
0010
,
0100
0000
0010
1000
0010
0000
0000
0000
,
0100
0000
0000
0001
1000
0001
0000
0000
,
0100
0000
0100
0000
0000
0001
0000
1000
,
0000
0001
0000
1000
0000
0001
0000
0000
,
0000
2000
0000
0000
0000
3010
0000
0010
,
0000
0010
0000
0010
0000
0010
0000
0010
,
0000
0010
0000
0010
0000
0010
0000
0010
,
0000
0010
0000
0010
1000
0010
0000
0100
,
0001
0100
0000
0010
0000
0010
0000
0000
,
0001
0000
0000
1000
0000
0001
0000
0000
,
0000
1001
0000
0000
0000
1010
0000
1000
,
0001
0100
0010
1000
0001
0010
0000
0100
,
1000
0000
1100
0000
0100
0010
0000
0001
,
0000
1000
0100
1000
0010
0100
0000
0010
,
0000
1000
0000
0001
0000
0200
0000
0000
,
0000
0301
2002
0000
,
3003
0000
1000
0001
0100
0010
0000
1000
,
0000
0001
0000
0010
0100
0000
1000
0000
,
0000
0000
1000
0100
0010
0001
0000
0010
,
0000
0100
0000
1000
0100
0000
0010
0001
,
0010
0001
0000
0001
2000
0000
0000
0000
,
3000
0000
0000
0000
0000
0000
0000
0001
,
0000
1000
0000
0001
0000
1000
0000
0000
,
0000
0000
0000
0010
0000
0010
0000
0000
,
0000
2002
0000
0000
0003
3010
0000
1000
,
0000
0001
0000
0010
0000
0100
0000
1000
,
0000
0100
0000
0010
0000
1000
0000
0001
,
0000
0100
0000
1000
0000
0100
0000
0010
,
0001
0000
0010
0100
1000
0100
0000
0010
,
0000
0010
0000
0001
0000
0001
0000
0010
,
0000
0010
0000
0100
0000
2000
0000
0000
,
0000
0000
0000
3100
0000
0100
0000
0010
,
0000
1000
0000
0010
0000
0001
0000
0010
,
0000
0100
0000
1000
0001
0000
0001
0000
,
0000
0000
1000
0010
1000
0010
0000
0100
,
0000
0001
0000
0010
0000
1000
0000
0010
,
0000
0100
0000
1000
0000
0001
0000
0100
,
0000
0010
0000
0001
0000
0010
0000
1000
,
0000
0100
0000
0010
0000
0002
0000
0000
,
0000
0000
0000
0000
0000
0023
0000
0000
,
0000
0230
0000
0000
0000
2300
0000
0000
,
0000
3000
0000
0010
0000
1000
0000
0010
,
0000
1000
0010
0100
0001
1000
0000
0001
,
0000
0010
0000
0100
0000
1000
0000
0100
,
0000
0010
0000
0001
0000
1000
0000
0010
,
0000
0001
0000
0010
0000
1000
0000
0100
,
0000
0010
0000
0100
0000
1000
0000
0001
,
0000
0010
0000
0001
0000
1000
0000
0100
,
0000
1000
0000
0010
0000
0100
0010
0000
,
0100
0010
0100
0000
0010
1000
0010
0000
,
0100
0010
0000
0010
0000
0010
0000
1000
,
0000
0001
0000
1000
0000
0001
0000
1000
,
0000
0001
0000
0100
0000
0001
0000
0010
,
0000
0100
0000
1000
0000
0001
0000
0010
,
0000
0100
0000
1000
0000
0010
0000
0100
,
0000
0001
0000
0010
0000
0100
0000
1000
,
0000
0010
1000
0100
1000
0001
0000
1000
,
0000
0001
0000
1000
0000
0010
0000
0100
,
0000
0001
0001
0000
2020
0000
3030
0000
,
0000
0000
0000
0010
1000
0001
0000
0000
,
0000
1000
0001
1000
0001
0100
0000
0010
,
0000
0100
0000
0010
0000
1000
0000
0001
,
0000
0010
0000
0100
0000
1000
0000
0001
,
0000
0100
1000
0000
0202
0000
0000
0000
,
0300
1003
0010
1000
0010
1000
0000
1001
;

//---------------dance-single - Copied from Copied f----------------
#NOTES:
     dance-single:
     Copied from Copied f:
     Easy:
     9:
     0.387986,0.572842,0.074462,0.266495,0.005879,606.000000,19.000000,68.000000,0.000000,0.000000,0.000000,0.387986,0.572842,0.074462,0.266495,0.005879,606.000000,19.000000,68.000000,0.000000,0.000000,0.000000:
0000
0000
0000
0000
,
0000
0000
0000
2000
,
0000
3000
0000
0000
0002
0000
0000
0003
,
0000
0000
2000
0000
0000
3000
0000
0000
,
0002
0000
0000
0003
0000
0000
0000
2000
,
0000
3000
0000
0100
,
0000
0010
0000
0000
0010
0000
0000
0000
,
0001
0000
0000
0010
0000
0000
0001
0000
,
0000
0000
0010
0000
0000
0000
0000
0200
0000
0000
0000
0000
0000
0000
0300
0000
,
1000
0000
0000
0001
0000
0000
0000
1000
,
0000
0000
0001
0000
0000
0100
0000
0020
,
0000
0000
0030
0000
0100
0000
0000
0001
,
0000
0000
0010
0000
0000
0100
0000
0000
,
0001
0000
0000
0010
0000
0000
0100
0000
,
0000
2000
0000
0000
0000
3000
0000
0000
,
0000
0000
0000
0000
,
0000
0000
0000
0000
,
0000
0002
0000
0000
,
0103
0000
0000
0000
1000
0000
0000
0001
,
0000
0100
0000
0010
,
0000
1000
0000
0100
,
0000
0010
0000
0001
,
0000
0000
0010
0000
0000
1000
0000
0000
,
0100
0100
0010
0010
,
0100
0000
0000
1000
0000
1000
0000
0000
,
0001
0000
0000
1000
0000
0010
0000
0000
,
0100
0000
0000
0002
0000
0000
0000
0000
,
0000
0000
1003
1000
,
2000
0000
0000
3001
,
0002
0000
0203
0000
,
0301
0000
1000
0000
,
0010
0000
0000
0000
0100
0000
0000
0002
,
0000
0000
0103
0000
0000
2000
0000
3002
,
0000
0000
0000
0103
,
0100
0010
0000
1000
,
0000
0000
0001
0000
0000
0100
0000
0100
,
0000
0010
0000
0001
,
0000
1000
0000
0100
,
0000
0010
0000
0001
,
0000
1000
0000
0010
,
0100
0000
0100
0000
0010
0010
0000
0100
,
0000
0000
1000
0001
,
1000
0000
0010
0000
,
0100
0000
0001
0000
,
0010
0000
0100
0000
,
1000
0000
0000
0001
0001
0000
0000
0000
,
1000
0000
0010
0000
,
0100
0000
0001
0000
,
0010
0000
0000
0000
0100
0000
1000
1000
,
0000
0002
2003
3002
,
0013
0000
0000
0000
0100
0000
0000
1000
,
0000
0002
2003
3200
,
0310
0000
0001
0000
,
0010
0000
0000
0100
0100
0000
0000
0000
,
2000
0000
0000
0000
0000
3010
0000
0001
,
0000
0000
0020
0000
,
0230
0000
2300
0000
,
3100
0001
1000
0001
,
1000
0000
0100
0000
1000
0100
0000
0000
,
0010
0001
1000
0001
,
0100
0000
0010
0000
1000
0000
0001
0100
,
0000
0010
1000
0001
,
0100
0000
0100
0000
0100
0000
0000
0010
,
0000
0010
0000
0000
1000
0000
0001
0000
,
1000
0000
0010
0000
1000
0000
0000
1001
,
0000
0010
0010
0100
,
1000
0000
0001
0000
,
1000
0000
0010
0000
,
0100
0000
0001
0000
,
1000
0000
0010
0000
,
0100
0000
0001
0000
,
1000
0000
0010
0000
,
0100
0000
0001
0000
,
1000
0001
0001
2000
,
3001
0000
0000
0000
0001
0000
0000
0100
,
0000
0020
2030
3002
,
0103
0000
0010
0000
,
1000
0000
0000
0000
0100
0100
0000
0000
,
0020
0000
0000
0000
0000
0031
0000
0001
,
0000
0000
1001
0000
,
1001
0000
1000
0000
,
0001
0100
0010
1000
,
0001
0000
2000
3000
0001
0000
2000
3000
,
0001
0000
1000
1000
0000
0001
0001
0000
,
0200
0300
0001
0000
0200
0300
0001
0000
,
0200
0300
0010
0010
0000
0100
0100
0000
,
0020
0000
1030
1000
0000
0000
2002
0000
,
3003
0010
0010
0100
,
0100
0000
0001
0000
0001
2000
0000
0000
,
0000
0000
0000
3000
,
0001
0000
2000
3000
0001
0000
2000
3000
,
0001
0000
0100
0100
0000
0001
0001
0000
,
0020
0030
0100
0000
0020
0030
0100
0000
,
0020
0030
0001
0001
0000
1000
1000
0000
,
0200
0000
0310
0010
0000
0100
0100
0000
,
0002
0000
1003
1000
0000
1001
0000
0000
,
0010
0100
0001
0010
,
0001
1000
0001
0000
0100
0000
0100
0000
,
0100
0000
0010
0000
,
0100
0000
0001
0000
,
0010
0000
1000
0000
,
0100
0000
0000
0001
0000
0000
1000
0001
,
1000
0010
0000
0000
,
0001
0000
0100
0000
,
1000
0000
0010
0000
,
1000
0000
0000
0000
0000
0001
0000
0001
,
0100
0010
0000
1000
,
0000
0000
0001
0000
0000
0010
0000
0010
,
0100
0000
0000
0000
1000
0000
0000
0010
,
0000
0010
0001
0000
0000
0000
0100
0020
,
0000
0000
0000
0000
,
0030
1000
0010
0100
,
0001
0020
0000
0000
,
0100
0000
0130
0000
,
1000
0000
0001
0000
,
0010
0000
1000
0000
,
0010
0000
0001
0000
,
0010
0000
0100
0000
,
1000
0000
0100
0000
,
0010
0000
0001
0000
,
1000
0000
0010
0000
,
0001
0000
0010
0000
,
2000
0000
0000
0000
,
0000
0000
3001
0000
,
0001
0000
1000
0000
,
1000
0000
0000
0000
0010
0010
0000
0000
,
0000
0000
0000
0100
0000
0100
0000
0100
,
0000
0100
0000
0100
0000
0100
0000
0100
,
0000
0100
0000
0100
0000
0100
0000
0100
,
0000
0100
0000
0100
0000
0001
0000
1000
,
0000
0000
0010
0000
0000
0000
0000
1000
0000
0000
0001
0000
0000
0000
0000
0000
,
0100
0000
0000
0100
0000
0000
0100
0000
0000
0000
0000
0000
0000
0000
0000
0000
,
0001
0000
0000
0000
2000
0000
0000
3020
,
0000
0000
0030
0000
0000
0100
0000
0100
,
0000
0002
0000
0000
0000
0000
0000
0000
,
0013
0100
1000
0000
0010
0000
0010
0000
,
0000
0000
0000
0000
0000
0100
0000
0100
,
0000
0000
0000
0001
,
0001
0000
0001
0000
0000
0000
1000
0010
,
1000
0000
0010
0000
,
0100
0000
0000
0000
0000
0001
0000
1000
,
0000
0001
0001
0000
0100
0000
0000
0010
,
0010
0000
0000
1000
0000
0001
0000
0000
,
0100
0000
0000
0010
0000
0000
1001
0000
,
0000
0100
0100
0000
0000
0001
0000
0010
,
0000
0100
0000
1000
0000
0100
0000
0010
,
0000
0001
0001
0000
2000
0000
0000
0000
,
3000
0000
0000
0000
,
0000
1000
0000
0001
0000
0100
0000
0010
,
0000
1000
0000
0001
0000
0001
0000
0100
,
0100
0000
0010
0010
0000
0110
0000
1001
,
0000
0110
0000
1001
0000
0010
0000
0100
,
0000
0010
0000
0100
0000
0010
0000
1000
,
0000
0000
0001
0000
0000
0000
0000
0100
,
0000
0001
0000
0010
0000
0100
0000
1000
,
1000
0000
2002
0000
0000
3003
0000
0000
,
0000
0000
0000
0000
0000
1000
0000
0010
,
0000
1000
0000
0010
0000
1000
0000
0001
,
0001
0000
1000
0000
0001
0100
0000
0010
,
0000
0100
0100
0000
0010
0010
0000
0100
,
0100
0000
0001
1000
0001
0000
0000
0000
,
0100
0000
0000
0001
1000
0001
0000
0000
,
0100
0000
0100
0000
0000
0001
0000
1000
,
0000
0001
0000
1000
0000
0001
0000
0000
,
0000
2000
0000
0000
0000
3010
0000
0000
,
0000
0010
0000
0000
0000
0010
0000
0000
,
0000
0010
0000
0000
0000
0010
0000
0000
,
0000
0010
0000
0000
0000
0010
0000
0000
,
0100
0100
0000
0000
0000
0010
0000
0000
,
1000
0000
0000
0000
0000
0001
0000
0000
,
0000
1001
0000
0000
0000
1010
0000
0000
,
0000
0101
0000
0000
0100
0000
0000
0101
,
0000
0000
1001
0000
0100
0100
0000
0010
,
0000
0000
0000
1000
0000
0000
0000
0001
,
0000
1000
0000
0001
0000
0200
0000
0000
,
0000
0310
0020
0000
,
0030
0000
0000
0100
0000
0100
0000
0000
,
0000
0001
0000
0000
0100
0000
1000
0000
,
0000
0000
1000
0000
0100
0000
0000
0001
,
0000
0000
0000
1000
0000
0000
0001
1000
,
0001
1000
0000
0100
0100
0000
0000
0000
,
0000
0000
0000
0000
0000
0000
0000
0001
,
0000
0001
0000
1000
0000
1000
0000
0000
,
0000
0000
0000
0010
0000
0000
0000
0000
,
0000
2000
0000
0000
0000
3010
0000
0000
,
0000
0100
0000
0000
0000
0001
0000
0000
,
0000
0010
0000
0000
0000
0100
0000
0000
,
0000
1000
0000
0000
0000
0100
0000
0001
,
0001
0000
0000
0100
0000
0000
0000
1000
,
0000
0000
0000
0001
0000
0000
0000
0010
,
0000
0000
0000
0100
0000
2000
0000
0000
,
0000
0000
0000
3100
0000
0100
0000
0000
,
0000
0000
0000
0010
0000
0001
0000
0000
,
0000
0001
0000
0000
1000
0000
1000
0000
,
0000
0000
0010
0000
0010
0000
0000
0100
,
0000
0000
0000
0001
0000
1000
0000
0010
,
0000
0010
0000
1000
0000
0001
0000
0000
,
0000
0000
0000
0000
0000
0000
0000
1000
,
0000
0100
0000
0010
0000
0002
0000
0000
,
0000
0000
0000
0000
0000
0023
0000
0000
,
0000
0230
0000
0000
0000
2300
0000
0000
,
0000
3000
0000
0010
0000
1000
0000
0001
,
0000
0100
0000
1000
0000
0100
0000
0000
,
0000
0000
0000
0010
0000
1000
0000
1000
,
0000
0001
0000
0001
0000
1000
0000
0000
,
0000
0000
0000
0000
0000
1000
0000
0100
,
0000
0010
0000
0100
0000
1000
0000
0000
,
0000
0000
0000
0000
0000
0001
0000
0000
,
0000
1000
0000
0000
0000
0010
0010
0000
,
0000
0100
0000
0000
0000
0010
0000
0000
,
1000
1000
0000
0001
0000
0001
0000
0000
,
0000
0000
0000
1000
0000
0001
0000
1000
,
0000
0001
0000
0100
0000
0001
0000
0000
,
0000
0000
0000
0000
0000
0000
0000
0010
,
0000
0100
0000
1000
0000
0010
0000
0000
,
0000
0100
0000
0010
0000
2000
0000
0000
,
3000
0000
0000
0001
0000
0001
0000
1000
,
0000
0000
0010
0000
0000
0010
0000
0100
,
0000
0001
0001
0000
2002
0000
3003
0000
,
0000
0000
0000
0010
0000
0010
0000
0000
,
0000
0100
0000
0100
0000
0001
0000
0000
,
0000
1000
0000
0010
0000
1000
0000
0001
,
0000
0010
0000
0100
0000
1000
0000
1000
,
0000
0001
0001
0000
1001
0000
0000
0000
,
0000
0100
0000
0100
0000
0100
0000
1001
;
