#TITLE:Aka to Ao no Rampage;
#SUBTITLE:;
#ARTIST:NU-KO;
#TITLETRANSLIT:;
#SUBTITLETRANSLIT:;
#ARTISTTRANSLIT:;
#GENRE:;
#CREDIT:;
#BANNER:Aka to Ao no Rampage-bn.PNG;
#BACKGROUND:Aka to Ao no Rampage-bg.PNG;
#LYRICSPATH:;
#CDTITLE:;
#MUSIC:Aka to Ao no Rampage.mp3;
#OFFSET:0.290000;
#SAMPLESTART:100.289955;
#SAMPLELENGTH:12.000000;
#SELECTABLE:YES;
#BPMS:0.000000=177.990005
;
#STOPS:
;
#BGCHANGES:;
#KEYSOUNDS:;
#ATTACKS:;

//---------------dance-single - ----------------
#NOTES:
     dance-single:
     :
     Hard:
     14:
     0.768129,0.957334,0.482234,0.217005,0.293359,582.000000,60.000000,27.000000,0.000000,0.000000,0.000000,0.768129,0.957334,0.482234,0.217005,0.293359,582.000000,60.000000,27.000000,0.000000,0.000000,0.000000:
// measure 0
0000
0000
0000
0000
,  // measure 1
0100
0010
0100
0001
0000
0101
0000
1100
,  // measure 2
0000
1010
0000
0012
0000
0000
0000
0003
,  // measure 3
1000
0001
1000
0000
0010
0100
0010
0000
1000
0000
0001
0000
1000
0000
0010
0000
,  // measure 4
0100
0001
0100
0010
0100
0001
0010
0100
,  // measure 5
1000
0000
1010
0000
0001
0010
0100
1000
,  // measure 6
0100
0010
0100
1000
0010
0100
1000
0100
,  // measure 7
0001
0010
0100
1000
0020
0000
0000
0000
,  // measure 8
0000
0130
0001
1000
0010
0000
0010
0000
,  // measure 9
1000
0000
0001
0000
1000
0000
0010
0100
,  // measure 10
0000
0001
1000
0001
0100
0001
0010
0001
,  // measure 11
1000
0001
1000
0010
0100
0000
0010
0000
,  // measure 12
1000
0010
0100
0010
0200
0000
0000
0302
,  // measure 13
0000
0000
2003
0000
3200
0000
0000
0310
,  // measure 14
0000
1001
0020
0000
,  // measure 15
0000
1030
0001
1000
0001
0000
0100
0000
,  // measure 16
0100
0000
0001
0100
0001
0000
0100
0000
,  // measure 17
0100
0000
0010
1000
0010
0000
0100
0000
,  // measure 18
0100
0000
0001
1000
0100
0000
0010
0000
,  // measure 19
0001
1000
0100
0010
0001
0000
1000
0000
,  // measure 20
1000
0000
0010
0100
0001
0000
0100
0000
,  // measure 21
0100
0000
0010
0000
1010
0000
0000
0010
,  // measure 22
0101
0010
0000
0110
0000
0110
0000
1001
,  // measure 23
0100
0010
0100
0010
1000
0001
0100
0001
,  // measure 24
0010
0001
0100
1000
0100
0010
1000
0100
,  // measure 25
0001
0100
0010
0001
0010
0001
1000
0100
,  // measure 26
1000
0010
0100
0001
0010
0100
0010
1000
,  // measure 27
0010
0001
0100
0010
0100
1000
0100
0001
,  // measure 28
0010
0001
1000
0100
1000
0010
0100
1000
,  // measure 29
0100
0001
0010
1000
0010
0001
1000
0010
,  // measure 30
0000
0000
0101
0000
0000
0000
1010
0000
0000
0000
0010
0000
1000
0000
0001
1000
,  // measure 31
0001
0100
0010
1000
0010
0000
0100
0010
,  // measure 32
1000
0010
0100
0101
0000
0001
1000
0100
,  // measure 33
1000
0100
0010
0001
1001
0000
1000
0200
,  // measure 34
0000
0320
0000
0032
0000
1003
0100
0000
,  // measure 35
0100
0000
0010
0000
0001
1000
0001
0100
,  // measure 36
0000
1010
0000
0101
0000
0001
1000
0000
,  // measure 37
1100
0000
0011
0000
0102
0000
0103
2010
,  // measure 38
0000
3001
0101
0000
0010
2010
0000
3000
,  // measure 39
2002
0000
3003
0000
0110
0000
0000
0000
0100
0001
0000
0100
0001
0000
0100
0010
,  // measure 40
0100
0000
0010
0000
1000
0000
0001
0100
0001
0000
0100
0000
0010
0000
0100
0000
,  // measure 41
1000
0000
0100
0000
0010
0000
1000
0001
1000
0000
0100
0000
0010
0000
0000
0000
,  // measure 42
1001
0000
0000
0110
0000
0000
0101
0000
1001
0000
0000
0000
0010
0000
0100
0010
,  // measure 43
0100
0000
0000
0000
0001
0000
0000
0000
1000
0000
0000
0010
0000
0000
0100
0000
,  // measure 44
0001
0000
1000
0000
1001
0000
0000
0000
0010
0000
0000
1000
0000
0000
0100
0000
,  // measure 45
0010
0000
0000
0000
0011
0000
0000
0000
0001
0000
0000
1000
0000
0000
0010
0000
,  // measure 46
0100
0000
1001
0000
0010
0010
0010
0010
,  // measure 47
0100
0010
1000
0010
1000
0001
0100
0001
0010
0000
0000
0000
0010
0001
0000
1000
,  // measure 48
0100
0000
0010
0001
0100
0000
0010
0000
1000
0000
0100
1000
0100
0000
0010
0000
,  // measure 49
0001
0000
0010
0000
0100
0000
1000
0001
1000
0000
0100
0000
0010
0000
0000
0000
,  // measure 50
0011
0000
0000
0110
0000
0000
1100
0000
0110
0000
0000
0000
0000
0000
0010
0000
,  // measure 51
0001
0000
1000
0001
1000
0000
0010
0000
0100
0000
0000
0010
0000
0000
1000
0000
,  // measure 52
0010
0100
0000
0001
0000
1000
0010
1000
,  // measure 53
0001
0000
0100
0000
0000
0000
0000
0000
0010
0000
0000
0010
0000
0000
0100
0000
,  // measure 54
0010
0000
0000
0000
1002
0000
0000
0000
0103
0010
0100
0010
0100
0010
0100
0010
,  // measure 55
0100
0010
0100
0010
0100
0010
0100
0000
0001
0000
1000
0000
0001
0000
0100
0000
,  // measure 56
0000
1001
0000
1010
0000
0100
0000
0110
,  // measure 57
0000
0010
1000
0000
0010
0100
0001
1000
,  // measure 58
0000
1001
0000
0220
0000
0000
0000
0000
,  // measure 59
0000
0000
0000
0000
0000
0000
0330
0000
1001
0000
0010
0000
0100
0000
0001
1000
,  // measure 60
0010
1000
0001
1000
0010
1000
0001
0000
0110
0000
0010
0000
1000
0000
0001
0010
,  // measure 61
0100
0010
0001
0010
0100
0010
0001
0000
1000
0010
1000
0000
0001
0100
0001
0000
,  // measure 62
1000
0010
1000
0000
0001
0010
0100
0000
1000
0010
0100
0000
0001
0100
1000
0000
,  // measure 63
0100
0001
0010
0000
0100
1000
0100
0000
0010
0000
0001
0000
1000
0000
0010
0000
,  // measure 64
0000
0100
0010
0100
0000
0000
1002
0000
,  // measure 65
0203
0000
0320
0000
2030
0000
3010
0101
,  // measure 66
0000
0010
1100
0000
0010
1001
0000
0000
,  // measure 67
0010
0100
2001
3010
,  // measure 68
0100
0000
0000
0000
0010
0000
0000
0000
0010
0000
0000
0100
0000
0000
0010
0000
,  // measure 69
1000
0000
0000
0001
1000
0000
0010
0000
,  // measure 70
0100
0000
0000
0010
0000
0000
1000
0000
0001
0000
0000
0001
0000
0000
0001
0000
,  // measure 71
1000
0000
0000
1000
0000
0000
1000
0000
0010
0000
0000
0000
0010
0000
0000
0000
,  // measure 72
0010
0100
0100
0100
,  // measure 73
0001
0000
0001
0000
0001
1000
0001
1000
,  // measure 74
0001
0000
0100
0000
0010
0000
0100
0010
0100
0000
0001
0000
1000
0000
0010
0000
,  // measure 75
0100
0000
0010
1000
0001
1000
0010
1000
0001
0000
0000
0000
0001
1000
0000
0001
,  // measure 76
0010
0000
0100
1000
0010
0000
0100
0000
0001
0000
0010
0001
0010
0000
0100
0000
,  // measure 77
1000
0000
0100
0000
0010
0000
0001
1000
0001
0000
0010
0000
0100
0000
0000
0000
,  // measure 78
1100
0000
0000
0110
0000
0000
0011
0000
0110
0000
0000
0000
0000
0000
0100
0000
,  // measure 79
1000
0000
0001
1000
0001
0000
0100
0000
0010
0000
0000
0100
0000
0000
0001
0000
,  // measure 80
0100
0010
0000
1000
0000
0001
0100
0001
,  // measure 81
1000
0000
0010
0000
0000
0000
0000
0000
0100
0000
0000
0100
0000
0000
0010
0000
,  // measure 82
0100
0000
0000
0000
2001
0000
0000
0000
3010
0100
0010
0100
0010
0100
0010
0100
,  // measure 83
0010
0100
0010
0100
0010
0100
0010
0000
1000
0000
0001
0000
1000
0000
0010
0000
,  // measure 84
0000
1001
0000
0101
0000
0010
0000
0110
,  // measure 85
0000
0010
1000
0000
0010
0100
0001
1000
,  // measure 86
0000
1010
0000
0102
0000
0100
0100
1000
,  // measure 87
1000
0100
0100
1003
0001
0010
0100
1000
,  // measure 88
1000
0010
0100
0100
0010
1000
1000
0001
,  // measure 89
0010
0001
0000
2002
0000
0000
0000
0000
,  // measure 90
0000
0000
0000
0000
,  // measure 91
0000
0000
0000
0000
0000
3003
0000
0000
;

//---------------dance-single - ----------------
#NOTES:
     dance-single:
     :
     Medium:
     12:
     0.583273,0.589129,0.321489,0.401861,0.080372,418.000000,40.000000,50.000000,0.000000,0.000000,0.000000,0.583273,0.589129,0.321489,0.401861,0.080372,418.000000,40.000000,50.000000,0.000000,0.000000,0.000000:
0000
0000
0000
0000
,
0001
1000
0001
0100
0000
1001
0000
0110
,
0000
1001
0000
0220
0000
0000
0000
0000
,
0000
0000
0000
0330
1000
0001
0000
0001
,
0100
0000
0100
0010
0000
0010
1000
0000
,
1000
0000
1001
0000
0001
0010
0000
0010
,
0100
0000
0100
1000
0000
1000
0001
0000
,
0001
0100
0000
0100
0002
0000
0000
0000
,
0000
1003
0001
1000
0002
0000
0000
0000
,
1003
0000
0001
0000
0100
0000
0001
1000
,
0000
1000
0010
0100
,
0010
0100
0010
1000
0001
0000
0010
0000
,
0100
1000
0100
1000
0020
0000
0000
0230
,
0000
0000
0302
0000
2003
0000
0000
3002
,
0000
0203
0302
0000
,
0000
1003
0010
1000
0010
0000
0100
0000
,
0100
0000
0001
0100
0001
0000
1000
0000
,
0001
0000
1000
0010
0100
0000
0010
0000
,
1000
0000
0010
1000
0001
0000
1000
0000
,
0010
0100
0010
1000
0001
0000
0100
0000
,
0001
0000
1000
0010
0100
0000
0001
0000
,
1000
0000
0100
0000
0110
0000
0000
0010
,
0001
0011
0000
0002
0000
2000
3003
0010
,
0100
0010
0100
0010
1001
0000
0100
0001
,
0000
0100
0000
0010
0000
0100
0000
0010
,
1000
0010
0100
0010
1000
0000
0001
0100
,
0000
0010
0000
0110
0000
0000
0000
0100
,
0010
0100
0001
1000
0010
0000
0100
0001
,
0000
0001
0000
0101
0000
0000
0000
0010
,
0200
0000
0000
0000
0310
1000
0001
0100
,
0000
0110
0000
2002
0000
0000
3003
0010
,
0100
0010
1000
0010
0100
0000
0100
0010
,
0000
0100
0001
0100
0000
0001
1000
0100
,
1000
0100
0010
0001
0010
0000
0001
2000
,
0000
3020
0000
0230
0000
0310
0100
0000
,
0010
0000
1001
0000
0001
1000
0001
1000
,
0000
1001
0000
1001
0000
0010
0100
0000
,
0110
0000
1001
0000
0120
0000
0130
0200
,
0000
0001
0302
0000
1000
2003
0000
3000
,
1001
0101
0110
1010
,
0010
0000
0000
0100
0000
0000
0010
0000
1000
0000
0000
0001
0000
0000
0100
0000
,
0001
0000
0000
1000
0001
0000
0010
0000
,
0100
0000
0000
1000
0000
0000
0001
0000
0002
0000
0000
0000
1000
0000
0000
0000
,
0100
0000
0000
0000
0013
0000
0000
0000
0010
0000
0000
0001
0000
0000
0100
0000
,
0001
0000
0000
0000
1000
0000
0000
0000
0010
0000
0000
1000
0000
0000
0100
0000
,
0010
0000
0000
0000
0001
0000
0000
0000
0010
0000
0000
0100
0000
0000
1000
0000
,
0100
0000
0010
0000
0010
0010
0010
0010
,
0002
1000
1000
1000
1003
0000
0010
0000
,
0100
0000
0000
0010
0000
0000
0010
0000
1000
0000
0000
1000
0000
0000
0010
0000
,
0100
0000
0000
0001
1000
0000
0100
0000
,
0010
0000
0000
0010
0000
0000
0001
0000
1000
0000
0000
0000
0000
0000
0010
0000
,
0100
0000
0000
0000
0010
0000
0000
0000
1000
0000
0000
0010
0000
0000
0100
0000
,
0001
1000
0000
0010
0000
0100
0001
0100
,
0010
0000
1000
0000
0000
0000
0000
0000
0001
0000
0000
1000
0000
0000
0010
0000
,
0100
0002
2000
0000
,
0000
0000
0000
3003
0010
0100
0010
0100
,
0000
1010
0000
1010
0000
0101
0000
0101
,
0000
0010
0100
0000
0001
1000
0001
1000
,
0000
1001
0000
0220
0000
0000
0000
0000
,
0000
0000
0000
0330
0002
0000
2003
0000
,
3010
0100
0010
0100
0020
0000
2030
0000
,
3100
0010
0001
0010
0200
0000
2300
0000
,
3001
0100
0010
0100
0001
0100
0010
0100
,
0001
0100
0100
0000
0010
1000
0001
1000
,
0000
0100
0010
0001
0000
0000
2000
0000
,
3002
0000
0203
0000
0302
0000
0000
2000
,
0000
0003
0020
0000
3000
0200
0000
0030
,
0310
0010
1001
0100
,
0100
0000
0000
0000
0010
0000
0000
0000
0010
0000
0000
1000
0000
0000
0001
0000
,
0100
0000
0000
0100
0010
0000
0010
0000
,
1000
0000
0000
0001
0000
0000
0100
0000
0010
0000
0000
0010
0000
0000
0010
0000
,
0100
0000
0000
0100
0000
0000
0100
0000
0001
0000
0000
0000
0001
0000
0000
0000
,
0001
1000
1000
1000
,
0010
0010
0010
0100
,
0100
0000
0100
0000
2002
0000
0000
3003
,
1001
1010
0110
0100
,
0010
0000
0000
0100
0000
0000
0100
0000
0001
0000
0000
0001
0000
0000
0100
0000
,
0010
0000
0000
1000
0001
0000
0010
0000
,
0100
0000
0000
0100
0000
0000
1000
0000
0001
0000
0000
0000
0000
0000
0100
0000
,
0010
0000
0000
0000
0100
0000
0000
0000
0001
0000
0000
0100
0000
0000
0010
0000
,
1000
0001
0000
0100
0000
0010
1000
0010
,
0100
0000
0001
0000
0000
0000
0000
0000
1000
0000
0000
0001
0000
0000
0100
0000
,
0010
2000
0002
0000
,
0000
0000
0000
3003
0100
0010
0100
0010
,
0000
0101
0000
0101
0000
1010
0000
1010
,
0000
0100
0010
0000
1000
0001
1000
0001
,
0000
1001
0000
0220
0000
0000
0000
0000
,
0000
0000
0000
0330
0001
1000
0001
0100
,
0100
0000
0010
0010
0000
0100
0100
0001
,
1000
0010
0000
2002
0000
0000
0000
0000
,
0000
0000
0000
0000
,
0000
0000
0000
0000
0000
3003
0000
0000
;

//---------------dance-single - ----------------
#NOTES:
     dance-single:
     :
     Easy:
     5:
     0.459270,0.552308,0.233080,0.434010,0.076354,317.000000,29.000000,54.000000,0.000000,0.000000,0.000000,0.459270,0.552308,0.233080,0.434010,0.076354,317.000000,29.000000,54.000000,0.000000,0.000000,0.000000:
0000
0000
0000
0000
,
0000
0000
0000
0000
0000
1001
0000
0110
,
0000
1001
0000
0220
0000
0000
0000
0000
,
0000
0000
0000
0330
0001
0000
0000
1000
,
0000
0000
0010
0000
0000
0100
0000
0000
,
0010
0000
0010
0000
0100
0000
0000
0010
,
0000
0000
1000
0000
0000
0001
0000
0000
,
1000
0000
0000
0010
2000
0000
0000
0000
,
0000
0000
3000
0001
0200
0000
0000
0000
,
0310
0010
0100
0000
,
0001
0000
0100
0000
,
0010
0000
0000
1000
0001
0000
0000
0000
,
0100
0000
0000
0001
0200
0000
0000
0000
,
0320
0000
2030
0000
,
3002
0000
2003
0000
,
0000
0000
3010
0010
,
0010
0010
1000
1000
,
1000
1000
0001
0001
,
0001
0001
0100
0100
,
0100
0100
0010
0010
,
0010
0010
1000
1000
,
1000
1000
1001
0000
,
0010
0100
0000
0020
0000
0130
0000
0000
,
0000
0000
0000
0000
1001
0000
0010
1000
,
0000
0010
0000
0100
0000
0010
0000
0100
,
0000
0001
0000
0100
0001
0000
1000
0010
,
0000
0100
0000
0110
0000
0000
0000
0010
,
0000
1000
0000
0001
0100
0000
0010
1000
,
0000
1000
0000
1010
0000
0000
0000
0100
,
0020
0000
0000
0000
0130
0000
0010
0100
,
0000
0110
0000
2002
0000
0000
3003
0000
,
0000
0000
0000
0100
0010
0000
0010
0100
,
0000
0010
0000
0010
0000
0001
0000
0001
,
0000
1000
0000
0010
0100
0000
1000
0002
,
0000
0203
0000
0320
0000
0130
0010
0000
,
0100
0000
1001
0000
0100
0000
0010
0100
,
0000
1001
0000
1001
0000
0100
0010
0000
,
0110
0000
1001
0000
0210
0000
0000
0320
,
0000
0000
2030
0000
0000
3002
0000
0003
,
1001
1010
0110
0101
,
0100
0000
0000
0010
0000
0000
0100
0000
0001
0000
0000
1000
0000
0000
0010
0000
,
1000
0000
0000
0001
1000
0000
0100
0000
,
0010
0000
0000
0001
0000
0000
1000
0000
2000
0000
0000
0000
0000
0000
0000
0000
,
0000
0000
0000
0000
3100
0000
0000
0000
0100
0000
0000
1000
0000
0000
0010
0000
,
1000
0000
0000
0000
0000
0000
0000
0000
0100
0000
0000
0001
0000
0000
0010
0000
,
0100
0000
0000
0000
0000
0000
0000
0000
0100
0000
0000
0010
0000
0000
0001
0000
,
0010
0100
0200
0000
,
2300
0001
3001
0100
,
0010
0000
0000
0100
0000
0000
0100
0000
0001
0000
0000
0001
0000
0000
0100
0000
,
0010
0000
0000
1000
0001
0000
0010
0000
,
0100
0000
0000
0100
0000
0000
1000
0000
0001
0000
0000
0000
0000
0000
0100
0000
,
0010
0000
0000
0000
0000
0000
0000
0000
0001
0000
0000
0100
0000
0000
0010
0000
,
1000
0001
0000
0100
0000
0000
0001
0000
,
1000
0000
0001
0000
0000
0000
0000
0000
1000
0000
0000
0001
0000
0000
0100
0000
,
0010
2000
0002
0000
,
0000
0000
0000
3003
0100
0000
0010
0100
,
0000
0002
0000
2003
0000
3020
0000
0130
,
0000
0010
0100
0000
0010
0000
1000
0001
,
0000
1001
0000
2002
0000
0000
0000
0000
,
0000
3003
2000
3002
,
0103
0010
2000
3002
,
0013
0100
2000
3002
,
1003
0010
1000
0001
,
1000
0000
0010
0000
0100
0000
0001
1000
,
0000
0100
0000
0002
,
0203
0000
0302
0000
2003
0000
0000
0002
,
0000
3000
0200
0000
0003
0020
0000
0000
,
0330
0000
1001
0000
,
0010
0000
0000
0000
0000
0000
0000
0000
0001
0000
0000
0001
0000
0000
0001
0000
,
1000
0000
0100
0000
,
0010
0000
0000
0010
0000
0000
0010
0000
0100
0000
0000
0100
0000
0000
0100
0000
,
0010
0000
0000
0010
0000
0000
0010
0000
1000
0000
0000
0000
1000
0000
0000
0000
,
1000
0001
0001
0001
,
1000
1000
1000
0100
,
0100
0000
0100
0000
2002
0000
0000
3003
,
0100
1001
0110
0100
,
0010
0000
0000
0010
0000
0000
0010
0000
1000
0000
0000
1000
0000
0000
1000
0000
,
0001
0000
0100
0010
,
1000
0000
0000
0010
0000
0000
1000
0000
0001
0000
0000
0000
0000
0000
1000
0000
,
0010
0000
0000
0000
0000
0000
0000
0000
1000
0000
0000
0010
0000
0000
0100
0000
,
0001
1000
0000
0010
0000
0000
0010
0000
,
0010
1000
0000
0000
0100
0000
0000
1000
,
1000
0002
2000
0000
,
0000
0000
0000
3003
0010
0000
0100
0010
,
0000
2000
0000
3020
0000
0230
0000
0301
,
0000
0001
1000
0000
0001
0000
1000
0010
,
0000
0110
0000
0220
0000
0000
0000
0000
,
0000
0000
0000
0330
1000
0000
0001
0000
,
0100
0010
1000
0001
,
0100
0000
0000
2002
0000
0000
0000
0000
,
0000
0000
0000
0000
,
0000
0000
0000
0000
0000
3003
0000
0000
;

//---------------dance-single - ----------------
#NOTES:
     dance-single:
     :
     Beginner:
     3:
     0.265229,0.294564,0.112521,0.265229,0.000000,184.000000,14.000000,33.000000,0.000000,0.000000,0.000000,0.265229,0.294564,0.112521,0.265229,0.000000,184.000000,14.000000,33.000000,0.000000,0.000000,0.000000:
0000
0000
0000
0000
,
0000
0000
0000
0000
,
0000
0000
0000
2002
0000
0000
0000
0000
,
0000
0000
0000
3003
0001
0000
0000
1000
,
0000
0000
0001
0000
0000
0010
0000
0000
,
0010
0000
0100
0000
1000
0000
0000
0010
,
0000
0000
0100
0000
0000
0001
0000
0000
,
1000
0000
0200
0000
,
0000
0300
0002
0000
,
0103
0000
0100
0000
,
0001
0000
0100
0000
,
0010
0000
0001
0000
,
0100
0000
0200
0000
,
0302
0000
2003
0000
,
3002
0000
2003
0000
,
0000
0000
3010
0000
,
0010
0000
1000
0000
,
1000
0000
0001
0000
,
0001
0000
0100
0000
,
0100
0000
0010
0000
,
0010
0000
1000
0000
,
1000
0000
1001
0000
,
0010
0000
0000
0100
0000
0100
0000
0000
,
0000
0000
0000
0000
1001
0000
0000
1000
,
0000
0000
0000
0100
0000
0000
0000
0100
,
0000
0000
0000
0100
0001
0000
0000
0010
,
0000
0000
0000
0110
0000
0000
0000
0010
,
0000
0000
0000
0001
1000
0000
0001
1000
,
0000
0000
0000
1001
0000
0000
0000
0000
,
0020
0000
0000
0000
0030
0000
0010
0100
,
0000
0000
0000
2002
0000
0000
3003
0000
,
0000
0000
0100
0000
,
0000
0001
0000
1000
0000
0001
0000
0000
,
0000
0100
0000
0000
0010
0000
0000
0001
,
0000
0000
0000
0010
0000
0000
0100
0000
,
0000
0000
1001
0000
0000
0000
0000
0100
,
0000
0010
0000
0010
0000
0000
0100
0000
,
0010
1001
0200
0000
,
0000
0000
0000
0300
,
0001
1000
0010
0000
,
0001
0000
1000
0000
,
0010
0000
1000
0000
,
0010
0000
0200
0000
,
0000
0300
0000
0000
0000
0000
0000
0001
,
1000
0000
0000
0000
0000
0000
0000
0100
,
0010
0000
0000
0000
0000
0000
0000
0001
,
0010
0000
0200
0000
,
0310
0000
0000
0100
,
0000
0000
0010
0000
0000
0000
0000
0100
,
0010
0000
1000
0000
,
0001
0000
0000
1000
0001
0000
0000
0000
,
0010
0000
0001
0000
,
1000
0000
0001
0000
,
1000
0000
0000
0000
0010
0000
0000
0100
,
0010
0100
0020
0000
,
0000
0000
0000
0000
0030
0000
0000
0100
,
0000
0001
0000
1000
0000
0020
0000
0130
,
0000
0000
0000
0000
0001
0000
0000
0100
,
0000
0000
0000
2002
0000
0000
0000
0000
,
0000
3003
0020
0030
,
0100
0000
0002
0003
,
1000
0000
0020
0030
,
0100
0000
1000
0000
,
0001
0000
0000
0000
1000
0000
0000
1000
,
0000
0001
0000
1000
,
1000
0000
0010
0000
0100
0000
0000
0010
,
0000
0000
0200
0000
0000
0020
0000
0000
,
0330
0000
1001
0000
,
0010
0000
0001
0000
,
1000
0000
0010
0000
,
0010
0000
0100
0000
,
0010
0000
1000
0000
,
1000
0000
0001
0000
,
1000
0000
1000
0000
,
0100
0000
0000
0000
2002
0000
0000
3003
,
0000
0000
1001
0000
,
0010
0000
1000
0000
,
0001
0000
0100
0000
,
1000
0000
0001
0000
,
0100
0000
0001
0000
,
0010
0000
0000
0100
0000
0000
1000
0000
,
0000
1000
0000
0000
0100
0000
0000
0100
,
0000
0002
2000
0000
,
0000
0000
0000
3003
0000
0000
0000
0010
,
0000
0100
0000
0001
0000
2000
0000
3001
,
0000
0000
0100
0000
0000
0000
0010
0100
,
0000
0000
0000
0220
0000
0000
0000
0000
,
0000
0000
0000
0330
1000
0000
0000
0000
,
0001
0000
1000
0000
,
0010
0000
0000
2002
0000
0000
0000
0000
,
0000
0000
0000
0000
,
0000
0000
0000
0000
0000
3003
0000
0000
;
