#VERSION:0.81;
#TITLE:ARACHNE;
#SUBTITLE:;
#ARTIST:MAX MAXIMIZER;
#TITLETRANSLIT:;
#SUBTITLETRANSLIT:;
#ARTISTTRANSLIT:;
#GENRE:;
#ORIGIN:;
#CREDIT:;
#BANNER:ARACHNE-bn.png;
#BACKGROUND:ARACHNE-bg.png;
#PREVIEWVID:;
#JACKET:ARACHNE-jacket.png;
#CDIMAGE:;
#DISCIMAGE:;
#LYRICSPATH:;
#CDTITLE:;
#MUSIC:ARACHNE.mp3;
#OFFSET:-0.070000;
#SAMPLESTART:22.050003;
#SAMPLELENGTH:12.000000;
#SELECTABLE:YES;
#BPMS:0.000=179.020;
#STOPS:;
#DELAYS:;
#WARPS:;
#TIMESIGNATURES:0.000=4=4;
#TICKCOUNTS:0.000=4;
#COMBOS:0.000=1;
#SPEEDS:0.000=1.000=0.000=0;
#SCROLLS:0.000=1.000;
#FAKES:;
#LABELS:0.000=Song Start;
#BGCHANGES:;
#KEYSOUNDS:;
#ATTACKS:
;

//---------------dance-single - ----------------
#NOTEDATA:;
#CHARTNAME:;
#STEPSTYPE:dance-single;
#DESCRIPTION:;
#CHARTSTYLE:;
#DIFFICULTY:Hard;
#METER:16;
#RADARVALUES:0.868385,1.000000,0.913614,0.352782,0.615106,532.000000,101.000000,39.000000,0.000000,0.000000,0.000000,0.000000,0.000000,0.868385,1.000000,0.913614,0.352782,0.615106,532.000000,101.000000,39.000000,0.000000,0.000000,0.000000,0.000000,0.000000;
#CREDIT:;
#NOTES:
0000
0000
0000
0000
0000
0000
0000
0000
1000
0000
0000
0001
0000
0000
1000
0000
,
0010
0000
0100
0010
0100
0000
0001
0000
0010
0000
0000
0100
0000
0000
1000
0000
,
0100
0000
0010
0000
0001
0000
0100
0000
0010
0000
0000
1000
0000
0000
0001
0000
,
0100
0000
0010
1000
0010
0000
0100
0000
0001
0000
0000
0100
0000
0000
0010
0000
,
0010
0000
1000
0000
0000
0000
0001
0000
1000
0001
1000
0001
1000
0001
1000
0001
,
1000
0001
1000
0001
1000
0001
1000
0010
0100
0010
0100
0010
0100
0010
0100
0010
,
0100
0010
0100
0010
0100
0010
0100
0010
1000
0010
1000
0010
1000
0010
1000
0001
,
0100
0001
0100
0001
0100
0001
0100
0000
1001
0000
1000
0000
1010
0000
0010
0000
,
0110
0000
0000
0100
0000
0000
0101
0000
0000
0001
0000
0000
1001
0000
0000
1000
0000
0001
0000
0100
0000
0010
0000
0100
,
0000
0001
0000
1000
0000
0000
0001
0000
0000
1000
0000
0000
0010
0000
0000
0100
0000
0000
0010
0000
0000
0100
0000
0000
,
0001
0000
0000
0010
0000
0000
0100
0000
0000
1000
0000
0000
0001
0000
0000
1000
0000
0001
0000
0010
0000
0100
0000
1000
,
0000
0001
0000
0100
0000
0000
0010
0000
0000
0100
0000
0000
0001
0000
0000
1000
0000
0000
0001
0000
0000
0100
0000
0000
,
0010
0000
0100
0000
0001
0000
0000
0000
0100
0000
0000
0100
0000
0000
0100
0000
,
0010
0000
0100
0000
0001
0000
1000
0000
0001
0000
0000
0001
0000
0000
0001
0000
,
1000
0000
0010
0000
0100
0000
0001
0000
1000
0000
0000
1000
0000
0000
1000
0000
,
0001
0000
0010
0000
0100
0000
1000
0000
0010
0000
0000
0010
0000
0000
0010
0000
,
1000
0000
0001
1000
0001
0000
0000
0000
1000
0000
0000
0001
0000
0000
1000
0000
,
0000
0000
0001
0000
1000
0000
0100
0000
1000
0000
0000
0010
0000
0000
0100
0000
,
0000
0000
0100
0000
0010
0000
1000
0000
0001
0000
0000
0100
0000
0000
0010
0000
,
0000
0000
1000
0000
0001
0000
0100
0000
0010
0000
0000
1000
0000
0000
0001
0000
,
0010
0000
0100
0000
1000
0000
0100
0010
0001
0000
0000
1000
0000
0000
0010
0000
,
0000
0000
0010
0000
0100
0000
0001
0000
1000
0000
0000
0010
0000
0000
1000
0000
,
0000
0000
0001
0000
0010
0000
0001
0000
0100
0000
0000
0001
0000
0000
0010
0000
,
0100
0000
0000
1000
0000
0000
0100
0000
0010
0000
0000
0001
0000
0000
1000
0000
,
0000
0000
0001
0000
1000
0000
0010
0100
0010
0000
0000
1000
0000
0000
0001
0000
,
0000
0000
1000
0000
0001
0000
0010
0000
0001
0000
0000
0100
0000
0000
0010
0000
,
0000
0000
0010
0000
0100
0000
0001
0000
1000
0000
0000
0010
0000
0000
0100
0000
,
0001
0000
0000
1000
0000
0000
0010
0000
0100
0000
0000
0001
0000
0000
1000
0000
,
0000
0000
1000
0000
0001
0000
0010
0100
1000
0000
0000
0001
0000
0000
0100
0000
,
0000
0000
0100
0000
0010
0000
1000
0000
1001
0000
0000
0100
0000
0000
0001
0000
,
0000
0000
1000
0000
0100
0000
1000
0000
1010
0000
0000
0001
0000
0000
0100
0000
,
0110
0000
0000
0010
0000
0000
1000
0000
0101
0000
0000
1000
0000
0000
0001
0000
,
0000
0000
1000
0000
0001
0000
0100
0010
0200
0000
0000
0000
0000
0000
0000
0000
,
0000
0000
0000
0000
,
0000
0000
0002
0000
,
0000
0000
0000
0000
,
0300
0000
2000
0000
,
0000
0000
0000
0000
,
0003
0000
0002
0000
,
0000
0000
0000
0000
,
0000
0000
0000
3003
0120
0000
0000
0000
,
1000
2030
0001
3002
0200
0000
0303
0100
,
1001
0020
0000
0100
0230
0000
0000
0000
,
0001
0000
0302
0000
0010
0000
0023
0000
0200
0000
0000
0000
0030
0000
1300
0001
,
1000
1020
0000
0100
0230
0000
0000
0000
,
0010
0320
1000
2030
0002
0000
3000
0013
,
0101
2000
0000
0001
3001
0000
1002
0000
,
1003
1020
0130
0102
0000
0013
0011
0000
,
1010
0101
0220
0000
,
0000
0000
0000
0000
,
0000
0000
0000
0330
2002
0000
0000
0000
,
0000
0000
0000
0000
0000
0000
3003
0000
0001
0010
0100
1000
0010
0100
0001
0010
,
0100
1000
0010
0100
0001
1000
0000
0000
0101
0000
0000
1010
0000
0000
1001
0000
,
0010
0000
1000
0001
0100
0001
0100
0000
0101
0000
0000
0110
0000
0000
1010
0000
,
1000
0000
0010
0100
0010
0100
0001
0000
1001
0000
0000
1100
0000
0000
0110
0000
,
0010
0000
0001
1000
0001
0100
0010
0000
0110
0000
0000
1001
0000
0000
1100
0000
,
1000
0000
1000
0000
0001
0000
0001
0000
0011
0000
0000
0101
0000
0000
1001
0000
,
0001
0000
0100
0010
0100
0010
1000
0000
1001
0000
0000
1100
0000
0000
0011
0000
,
0001
0000
1000
0100
1000
0001
0100
0000
0120
0000
0000
2030
0000
0000
3100
0000
,
0120
0000
0000
0032
0000
0000
0103
0000
0110
0000
0000
1001
0000
0000
0101
0000
,
0010
0000
1000
0000
0001
0000
0100
0000
0110
0000
0000
0101
0000
0000
1010
0000
,
1000
0000
0001
1000
0010
1000
0001
0000
1001
0000
0000
1100
0000
0000
0011
0000
,
0001
0000
0100
0010
0100
0010
1000
0000
1001
0000
0000
0100
0000
0000
0010
0000
,
1020
0000
0000
2030
0000
0000
3001
0000
0102
0000
0000
1003
0000
0000
1001
0000
,
1000
0000
0001
1000
0001
1000
0100
0000
0110
0000
0000
0011
0000
0000
1100
0000
,
1000
0000
0010
0100
0001
0100
0010
0000
1001
0000
0000
1010
0000
0000
0101
0000
,
0100
0000
0001
1000
0010
1000
0010
0000
0101
0000
0000
0110
0000
0000
1010
0000
,
1010
0000
0000
0101
0000
0000
0110
0000
0110
0000
0000
1001
0000
0000
1001
0000
,
1000
0000
0001
0000
0100
0010
0100
0010
1001
0000
0000
0101
0000
0000
1010
0000
,
0010
0000
0100
0000
0001
0000
1000
0000
1001
0000
0000
0101
0000
0000
1010
0000
,
1000
0000
0010
0000
0100
0000
0001
0000
1100
0000
0000
0110
0000
0000
1001
0000
,
0001
0000
0010
0000
0100
0000
1000
0000
1010
0000
0000
0110
0000
0000
1001
0000
,
1000
0000
0001
0000
1000
0001
1000
0100
0010
0000
0000
0011
0000
0000
2100
0000
,
0000
0000
0010
0000
3020
0000
0130
0000
0101
0000
0000
1010
0000
0000
1002
0000
,
0000
0000
0100
0000
0203
0000
0301
0000
0101
0000
0000
0110
0000
0000
1010
0000
,
1100
0000
0000
0110
0000
0000
0011
0000
1001
0000
0000
1100
0000
0000
1001
0000
,
0000
0000
0001
0000
1000
0000
0001
0000
0110
0000
0000
0100
0010
0000
1000
0000
,
1020
0000
0000
0000
0130
0000
0000
0000
0101
0000
0000
0001
1000
0000
0010
0000
,
0210
0000
0000
0000
0301
0000
0000
0000
1001
0000
0010
1000
0010
0100
0010
0000
,
1001
0000
1000
0100
1000
0100
0010
0001
0010
0000
0010
0100
1000
0000
1000
0001
,
0100
0000
0100
0001
0010
0000
0010
0100
1000
0000
0000
0000
0000
0000
0000
0000
;

//---------------dance-single - ----------------
#NOTEDATA:;
#CHARTNAME:;
#STEPSTYPE:dance-single;
#DESCRIPTION:;
#CHARTSTYLE:;
#DIFFICULTY:Medium;
#METER:13;
#RADARVALUES:0.587969,0.764586,0.307553,0.253279,0.239711,393.000000,34.000000,28.000000,0.000000,0.000000,0.000000,0.000000,0.000000,0.587969,0.764586,0.307553,0.253279,0.239711,393.000000,34.000000,28.000000,0.000000,0.000000,0.000000,0.000000,0.000000;
#CREDIT:;
#NOTES:
0000
0000
0001
0000
,
1000
0000
0001
0000
,
1000
0000
0010
0000
,
0100
0000
0010
0000
,
1000
1001
0000
0000
0001
1000
0001
1000
,
0001
1000
0001
1000
1010
0010
0100
0010
,
0100
0010
0100
0001
0101
0000
0010
0000
,
1010
0100
1001
1001
,
1100
0110
0011
0001
,
0001
1000
1000
0010
,
0010
0100
0001
1000
,
0100
0010
0100
1000
,
0001
0000
0000
0000
0000
0000
0000
0000
1000
0000
0000
1000
0000
0000
1000
0000
,
0001
0000
0000
0000
0100
0000
0000
0000
0010
0000
0000
0010
0000
0000
0010
0000
,
0100
0000
0000
0000
0001
0000
0000
0000
0010
0000
0000
0010
0000
0000
0010
0000
,
0100
0000
0000
0000
1000
0000
0000
0000
0001
0000
0000
0001
0000
0000
0001
0000
,
0100
0000
0000
0000
1001
0000
0000
0000
1000
0000
0000
1000
0000
0000
1000
0000
,
0000
0000
0001
0000
0100
0000
0001
0000
0100
0000
0000
0100
0000
0000
0100
0000
,
0000
0000
0001
0000
1000
0000
0001
0000
0010
0000
0000
0010
0000
0000
0010
0000
,
0000
0000
0001
0000
1000
0000
0001
0000
0100
0000
0000
0100
0000
0000
0100
0000
,
0001
0000
0010
0000
0100
0000
0010
0000
0001
0000
0000
0001
0000
0000
0001
0000
,
0000
0000
0010
0000
0100
0000
1000
0000
0100
0000
0000
0100
0000
0000
0100
0000
,
0000
0000
0010
0000
0001
0000
1000
0000
0001
0000
0000
0001
0000
0000
0001
0000
,
1000
0000
0000
1000
0000
0000
1000
0000
0010
0000
0000
0010
0000
0000
0010
0000
,
0000
0000
1000
0000
0010
0000
0100
0000
0110
0000
0000
0010
0000
0000
0010
0000
,
0000
0000
1000
0000
0001
0000
1000
0000
0001
0000
0000
0001
0000
0000
0001
0000
,
0000
0000
1000
0000
0010
0000
1000
0000
0100
0000
0000
0100
0000
0000
0100
0000
,
0010
0000
0000
0010
0000
0000
0010
0000
0001
0000
0000
0001
0000
0000
0001
0000
,
0000
0000
1000
0000
0010
0000
1000
0000
1100
0000
0000
0100
0000
0000
0100
0000
,
0000
0000
0010
0000
0001
0000
0100
0000
0101
0000
0000
0100
0000
0000
0100
0000
,
0000
0000
0010
0000
1000
0000
0010
0000
0110
0000
0000
0100
0000
0000
0100
0000
,
0110
0000
0000
0010
0000
0000
0100
0000
1001
0000
0000
1000
0000
0000
1000
0000
,
0000
0001
1000
0010
2000
0000
0000
0000
,
0000
0000
0000
0000
,
0000
0000
0020
0000
,
0000
0000
0000
0000
,
3000
0000
0200
0000
,
0000
0000
0000
0000
,
0030
0000
0020
0000
,
0000
0000
0000
0000
,
0000
0000
0000
0330
1002
0000
0000
0000
,
1003
0010
1000
0010
0200
0000
0000
0301
,
1000
0002
0000
1003
0200
0000
0000
0000
,
0310
0001
1000
0001
2000
0000
0000
3001
,
0100
0020
0000
0130
0002
0000
0000
0000
,
0013
0100
1000
0100
0020
0000
0000
0031
,
1000
0200
0000
0310
0001
0000
0011
0000
,
1000
0010
1000
0002
0000
0103
0010
0000
,
0110
1001
2002
0000
,
0000
0000
0000
0000
,
0000
0000
0000
3003
0220
0000
0000
0000
,
0000
0000
0000
0330
0001
1000
0001
0100
,
1000
0000
0100
0000
0001
0000
0000
0000
0001
0000
0000
1000
0000
0000
0010
0000
,
0000
0000
1000
0000
1000
0000
1000
0000
0001
0000
0000
0100
0000
0000
0010
0000
,
0000
0000
0100
0000
0100
0000
0100
0000
0001
0000
0000
0010
0000
0000
0100
0000
,
0000
0000
1000
0000
1000
0000
1000
0000
0100
0000
0000
0001
0000
0000
0100
0000
,
0100
0000
0010
0000
0010
0000
0010
0000
0001
0000
0000
1000
0000
0000
0100
0000
,
0000
0000
1000
0000
1000
0000
1000
0000
0001
0000
0000
0100
0000
0000
0010
0000
,
0000
0000
1000
0000
1000
0000
0001
0000
0001
0000
0000
1000
0000
0000
0100
0000
,
0100
0000
0000
0010
0000
0000
0001
0000
0001
0000
0000
1000
0000
0000
0100
0000
,
0000
0000
1000
0000
0010
0000
1000
0000
0001
0000
0000
0100
0000
0000
0010
0000
,
0000
0000
1000
0000
1000
0000
1000
0000
0001
0000
0000
0100
0000
0000
0010
0000
,
0000
0000
0100
0000
0100
0000
0100
0000
1001
0000
0000
0010
0000
0000
0100
0000
,
0100
0000
0000
0010
0000
0000
1000
0000
1000
0000
0000
0001
0000
0000
1001
0000
,
0000
0000
0001
0000
0001
0000
0001
0000
0100
0000
0000
0010
0000
0000
1000
0000
,
0000
0000
0010
0000
0010
0000
0010
0000
1000
0000
0000
0001
0000
0000
0100
0000
,
0000
0000
0001
0000
0001
0000
0001
0000
1000
0000
0000
0100
0000
0000
0010
0000
,
0010
0000
0000
0001
0000
0000
0100
0000
0100
0000
0000
0001
0000
0000
1000
0000
,
0000
0000
0001
0000
0100
0000
0010
0000
0010
0000
0000
1000
0000
0000
0001
0000
,
0100
0000
0001
0000
1000
0000
0100
0000
0100
0000
0000
0010
0000
0000
0001
0000
,
1000
0000
0001
0000
1000
0000
0100
0000
0100
0000
0000
0010
0000
0000
0001
0000
,
1000
0000
0001
0000
0010
0000
0001
0000
0001
0000
0000
0100
0000
0000
0010
0000
,
1000
0000
0010
0000
1000
0001
1000
0001
1000
0000
0000
0001
0000
0000
2000
0000
,
0000
0000
0010
0000
0010
0000
3010
0000
0100
0000
0000
0010
0000
0000
0200
0000
,
0000
0000
0001
0000
0001
0000
0301
0000
0010
0000
0000
0100
0000
0000
1000
0000
,
1000
0000
0000
0100
0000
0000
0010
0000
0010
0000
0000
0001
0000
0000
1001
0000
,
0000
0001
1000
0001
0011
0000
0010
0100
,
2000
0000
3001
0000
0101
0000
0100
0001
,
0020
0000
0130
0000
1100
1000
0001
0100
,
0101
0001
1000
0010
0220
0330
2002
3003
,
0202
0303
1010
0010
0110
0000
0000
0000
;

//---------------dance-single - ----------------
#NOTEDATA:;
#CHARTNAME:;
#STEPSTYPE:dance-single;
#DESCRIPTION:;
#CHARTSTYLE:;
#DIFFICULTY:Easy;
#METER:5;
#RADARVALUES:0.354074,0.691768,0.208051,0.253279,0.000000,223.000000,23.000000,28.000000,0.000000,0.000000,0.000000,0.000000,0.000000,0.354074,0.691768,0.208051,0.253279,0.000000,223.000000,23.000000,28.000000,0.000000,0.000000,0.000000,0.000000,0.000000;
#CREDIT:;
#NOTES:
0000
0000
1000
0000
,
0000
0000
0001
0000
,
0000
0000
0010
0000
,
0000
0000
0100
0000
,
0001
0000
1001
0000
,
0000
0000
1001
0000
,
0000
0000
1001
0000
,
0110
0000
0110
1001
,
0110
1001
1001
0000
,
0000
0000
0000
0000
,
0000
0000
0000
0000
,
0000
0000
0000
0000
,
0000
0000
0100
0000
,
0010
0010
1000
0000
,
0001
0001
0100
0000
,
0010
0010
1000
0000
,
0001
0000
1001
0000
1000
0000
0000
0010
,
0000
0000
0100
0000
0100
0000
0000
0001
,
0000
0000
1000
0000
1000
0000
0000
0100
,
0000
0000
0010
0000
0010
0000
0000
0001
,
0001
0000
1000
0000
0010
0000
0000
0100
,
0000
0000
0001
0000
0001
0000
0000
1000
,
0000
0000
0100
0000
0100
0000
0000
0010
,
0010
0000
0000
0001
0001
0000
0000
1000
,
0000
0010
0010
0000
1010
0000
0000
1000
,
0000
0000
0100
0000
0100
0000
0000
1000
,
0000
0000
0001
0000
0001
0000
0000
0100
,
0100
0000
0000
0010
0010
0000
0000
1000
,
0000
0001
0001
0000
1001
0000
0000
0100
,
0000
0000
0000
0010
0010
0000
0000
0100
,
0000
0000
0000
0001
0001
0000
0000
1000
,
1000
0000
0000
0001
0001
0000
1000
0000
,
0001
1000
0002
0000
,
0000
0000
0000
0000
,
0000
0000
2003
0000
,
0000
0000
0000
0000
,
0000
0000
3020
0000
,
0000
0000
0000
0000
,
0000
0000
0230
0000
,
0000
0000
0000
0000
,
0000
0000
0302
0000
,
0103
0100
0200
0000
,
0310
0020
0000
0000
2030
0000
0000
0000
,
3001
1000
0002
0000
,
0103
0200
0000
0000
0320
0000
0000
0000
,
1030
0001
2000
0000
,
3001
0001
0000
0000
0010
0000
0100
0000
,
1000
0000
1000
0001
0000
0100
0010
0000
,
0010
1000
2002
0000
,
0000
0000
0000
0000
,
0000
0000
0000
3003
0200
0000
0000
0000
,
0000
0000
0302
0000
,
0000
0000
1003
0000
1000
0000
0000
0001
,
0000
0000
1000
0100
1000
0000
0000
0010
,
0000
0000
0100
0001
0100
0000
0000
0010
,
0000
0000
1000
0001
1000
0000
0000
0000
,
0100
0000
0010
0000
0001
0000
0000
1000
,
0000
0000
0010
0100
0010
0000
0000
0100
,
0000
0000
0001
1000
0001
0000
0000
0100
,
0100
0000
0000
0010
0010
0000
0000
1000
,
0000
0000
0001
0000
1000
0000
0000
0010
,
0000
0000
0100
0001
0100
0000
0000
0001
,
0000
0000
0010
0100
0010
0000
0000
0100
,
0100
0000
0000
1000
1000
0000
0000
1001
,
0000
0000
0001
0000
1000
0000
0000
0100
,
0000
0000
0010
0001
0010
0000
0000
0100
,
0000
0000
1000
0001
1000
0000
0000
0010
,
0010
0000
0000
0100
0100
0000
0000
1001
,
0000
0000
0100
0000
0010
0000
0000
0001
,
0100
0000
0100
0000
0100
0000
0000
0001
,
1000
0000
1000
0000
1000
0000
0000
0001
,
0010
0000
0010
0000
0010
0000
0000
0001
,
0100
0000
0100
0000
0100
0000
0000
0001
,
0000
0000
1000
0100
1000
0000
0000
0010
,
0000
0000
0100
0001
0100
0000
0000
0001
,
1000
0000
0000
0001
1000
0000
0000
1010
,
0000
1000
1001
0001
,
2000
3010
0110
0100
,
0002
1003
2200
3300
,
0220
0000
0330
0000
0022
0033
2002
3003
,
2002
3003
0100
0010
0100
0000
0000
0000
;

//---------------dance-single - ----------------
#NOTEDATA:;
#CHARTNAME:;
#STEPSTYPE:dance-single;
#DESCRIPTION:;
#CHARTSTYLE:;
#DIFFICULTY:Beginner;
#METER:2;
#RADARVALUES:0.202882,0.291271,0.081411,0.189959,0.000000,127.000000,9.000000,21.000000,0.000000,0.000000,0.000000,0.000000,0.000000,0.202882,0.291271,0.081411,0.189959,0.000000,127.000000,9.000000,21.000000,0.000000,0.000000,0.000000,0.000000,0.000000;
#CREDIT:;
#NOTES:
// measure 0
0000
0000
1000
0000
,  // measure 1
0000
0000
0001
0000
,  // measure 2
0000
0000
0010
0000
,  // measure 3
0000
0000
0100
0000
,  // measure 4
0010
0000
1001
0000
,  // measure 5
0000
0000
1001
0000
,  // measure 6
0000
0000
1001
0000
,  // measure 7
1001
0000
1000
0001
,  // measure 8
1000
0001
1001
0000
,  // measure 9
0000
0000
0000
0000
,  // measure 10
0000
0000
0000
0000
,  // measure 11
0000
0000
0000
0000
,  // measure 12
0000
0000
0010
0000
,  // measure 13
0000
0000
0001
0000
,  // measure 14
0000
0000
0010
0000
,  // measure 15
0000
0000
0001
0000
,  // measure 16
0000
1001
0001
0000
,  // measure 17
0000
0010
0010
0000
,  // measure 18
0000
0000
0001
0000
,  // measure 19
0000
0100
0100
0000
,  // measure 20
1000
0000
0000
0000
,  // measure 21
0000
1000
1000
0000
,  // measure 22
0000
0000
0010
0000
,  // measure 23
0100
0000
1000
0000
,  // measure 24
0000
0000
0110
0000
,  // measure 25
0000
0010
0100
0000
,  // measure 26
0000
1000
1000
0000
,  // measure 27
0010
0000
0100
0000
,  // measure 28
0000
0001
0001
0000
,  // measure 29
0000
0000
0100
0000
,  // measure 30
0000
0000
1000
0000
,  // measure 31
0001
0000
1000
0001
,  // measure 32
1000
0010
0200
0000
,  // measure 33
0000
0000
0000
0000
,  // measure 34
0000
0000
0302
0000
,  // measure 35
0000
0000
0000
0000
,  // measure 36
0000
0000
0203
0000
,  // measure 37
0000
0000
0000
0000
,  // measure 38
0000
0000
0320
0000
,  // measure 39
0000
0000
0000
0000
,  // measure 40
0000
0000
2030
0000
,  // measure 41
3001
0000
0002
0000
,  // measure 42
0203
0000
0320
0000
,  // measure 43
2030
0000
3002
0000
,  // measure 44
0023
0000
0230
0000
,  // measure 45
2300
0000
3002
0000
,  // measure 46
1003
0000
0100
0000
,  // measure 47
0001
0000
0000
0100
,  // measure 48
0000
0000
0200
0000
,  // measure 49
0000
0000
0000
0000
,  // measure 50
0000
0000
0320
0000
,  // measure 51
0000
0000
2030
0000
,  // measure 52
0000
3001
0000
0000
,  // measure 53
0000
0001
0001
0000
,  // measure 54
0000
0010
0010
0000
,  // measure 55
0000
0001
0001
0000
,  // measure 56
0010
0000
1000
0000
,  // measure 57
0000
0100
0100
0000
,  // measure 58
0000
1000
1000
0000
,  // measure 59
0010
0000
0100
0000
,  // measure 60
0000
1000
0001
0000
,  // measure 61
0000
0010
0010
0000
,  // measure 62
0000
0100
0100
0000
,  // measure 63
0010
0000
0001
0000
,  // measure 64
0000
1000
0001
0000
,  // measure 65
0000
0100
0100
0000
,  // measure 66
0000
0001
0001
0000
,  // measure 67
0100
0000
0010
0000
,  // measure 68
0000
0010
0100
0000
,  // measure 69
0010
0000
0010
0000
,  // measure 70
0001
0000
0001
0000
,  // measure 71
0100
0000
0100
0000
,  // measure 72
0010
0000
0010
0000
,  // measure 73
0000
0001
0001
0000
,  // measure 74
0000
0010
0010
0000
,  // measure 75
0001
0000
0001
0000
,  // measure 76
0000
0000
1001
0000
,  // measure 77
0002
0003
0110
0000
,  // measure 78
2000
3000
0002
0003
,  // measure 79
0020
0030
0100
0010
,  // measure 80
0001
0100
0010
0000
;
