#TITLE:悪魔城ドラキュラMEDLEY;
#SUBTITLE:;
#ARTIST:矩形波倶楽部;
#TITLETRANSLIT:AKUMAJO DRACULA MEDLEY;
#SUBTITLETRANSLIT:;
#ARTISTTRANSLIT:KUKEIHAKURABU;
#CREDIT:;
#BANNER:AKUMAJO DRACULA MEDLEY.png;
#BACKGROUND:AKUMAJO DRACULA MEDLEY-bg.png;
#LYRICSPATH:;
#CDTITLE:./CDTitles/Dance Dance Revolution Ultramix 3.png;
#MUSIC:AKUMAJO DRACULA MEDLEY.mp3;
#OFFSET:-1.122;
#SAMPLESTART:22.063;
#SAMPLELENGTH:12.000;
#SELECTABLE:YES;
#DISPLAYBPM:0.000:248.000;
#BPMS:0.000=142.000,19.000=140.000,20.000=136.000,21.000=129.500,22.000=113.500,23.000=112.000,24.000=219.700,152.000=123.980,168.000=247.960,264.000=123.980;
#STOPS:24.000=1.716
;
#BGCHANGES:;

//---------------dance-single - ----------------
#NOTES:
     dance-single:
     :
     Beginner:
     1:
     0.126,0.221,0.033,0.022,0.000:
0000
0000
0000
0000
,
0000
0000
0000
0000
,
1000
0000
1000
0000
,
1000
0000
0000
0000
,
0001
0000
0001
0000
,
0001
0000
1000
0000
,
1001
0000
0000
0000
,
1000
0000
0000
0000
,
0000
0000
0000
0000
,
0010
0000
0000
0000
,
0000
0000
0000
0000
,
0100
0000
0000
0000
,
0000
0000
0000
0000
,
0010
0000
0000
0000
,
0100
0000
0000
0000
,
0001
0000
0000
0000
,
0001
0000
0000
0000
,
0010
0000
0010
0000
,
0100
0000
0000
0000
,
1000
0000
0000
0000
,
1000
0000
0000
0000
,
0001
0000
0001
0000
,
0001
0000
0000
0000
,
0100
0000
0000
0000
,
0100
0000
0000
0000
,
0020
0000
0000
0030
,
0010
0000
0000
0000
,
1000
0000
0000
0000
,
1000
0000
0000
0000
,
0002
0000
0000
0003
,
0000
0000
0001
0000
,
0000
0000
1000
0000
,
0000
0000
0001
0000
,
0000
0000
1000
0000
,
1000
0000
0000
0000
,
1001
0000
0000
0000
,
0001
0000
0000
0000
,
1001
0000
0000
0000
,
0010
0000
0010
0000
,
0010
0000
0010
0000
,
0100
0000
0100
0000
,
0100
0000
0100
0000
,
0010
0000
0000
0000
,
0000
0000
1000
0000
,
1000
0000
0000
0000
,
0000
0000
0001
0000
,
0001
0000
0000
0000
,
0000
0000
0000
0000
,
0010
0000
0000
0000
,
0100
0000
0000
0000
,
1000
0000
0000
0000
,
0000
0000
0001
0000
,
0001
0000
0000
0000
,
0000
0000
1000
0000
,
1000
0000
0000
0000
,
0000
0000
0010
0000
,
0010
0000
0000
0000
,
0100
0000
0000
0000
,
0001
0000
0000
0000
,
1000
0000
0000
0000
,
1000
0000
0000
0000
,
0001
0000
0001
0000
,
0001
0000
0000
0000
,
0010
0000
0000
0000
,
0100
0000
0000
0000
,
1000
0000
1000
0000
,
1000
0000
0001
0000
,
0001
0000
1000
1000
;

//---------------dance-single - ----------------
#NOTES:
     dance-single:
     :
     Easy:
     3:
     0.233,0.332,0.054,0.305,0.000:
0000
0000
0000
0000
,
0000
0000
0000
0000
,
0001
0000
1000
0000
,
0001
0001
0001
0000
,
1000
0000
0001
0000
,
1000
0001
1000
0001
,
1002
0000
0000
0003
,
2000
0000
0000
3000
,
1002
0000
0000
0003
,
0200
0000
0000
0300
,
0220
0000
0000
0330
,
2000
0000
0000
3000
,
1002
0000
0000
0003
,
0020
0000
0000
0030
,
0001
0000
0001
0000
,
0010
0000
0100
0000
,
1000
0000
1000
0000
,
0001
0001
0001
0000
,
1000
0000
1000
0000
,
0010
0000
0100
0000
,
0001
0000
0001
0000
,
1000
1000
1000
0000
,
0001
0000
1000
0000
,
0100
0000
0010
0000
,
0100
0000
1000
0000
,
0010
0000
0000
0000
,
1000
0000
0001
0000
,
0100
0000
0010
0000
,
0100
0000
0001
0000
,
0010
0000
0000
0000
,
1000
0000
1000
0000
,
1000
0000
1000
0000
,
0001
0000
0001
0000
,
0001
0000
0001
0000
,
2000
0000
0000
0000
,
0000
0000
0000
3000
,
2002
0000
0000
0000
,
0000
0000
0000
3003
,
0001
1000
0001
0001
,
1000
0001
1000
1000
,
0010
0100
0010
0010
,
0100
0010
0100
0100
,
0002
0000
0000
0003
,
0001
0000
0001
0000
,
2000
0000
0000
3000
,
1000
0000
1000
0000
,
0020
0000
0000
0030
,
0010
0000
0010
0000
,
2000
0000
0000
3000
,
0002
0000
0000
0003
,
0200
0000
0000
0300
,
0100
0000
0100
0000
,
0002
0000
0000
0003
,
0001
0000
0001
0000
,
0020
0000
0000
0030
,
0010
0000
0010
0000
,
0002
0000
0000
0003
,
2000
0000
0000
3000
,
0002
0000
0000
0003
,
2000
0000
0000
3000
,
0002
0000
0000
0003
,
0010
0000
0100
0000
,
2000
0000
0000
3000
,
0002
0000
0000
0003
,
2000
0000
0000
3000
,
0100
0000
0010
0000
,
0001
0001
1000
1000
,
0010
0010
0100
0100
;

//---------------dance-single - ----------------
#NOTES:
     dance-single:
     :
     Medium:
     6:
     0.382,0.553,0.163,0.250,0.000:
0000
0000
0000
0000
,
0000
0000
0000
0000
,
0001
0000
1000
0000
,
0001
1000
1000
1000
,
0100
0000
0010
0000
,
0001
0001
1000
1000
,
1001
0000
0001
0000
,
1001
1000
0001
1000
,
0010
0000
1000
0000
,
1001
0001
1000
0001
,
0010
0000
0001
0000
,
1001
1000
0001
1000
,
0010
0000
1000
0000
,
1001
0001
1000
0001
,
0010
0000
0000
0001
0000
0000
0100
0000
,
0010
0000
0000
0000
0000
0000
0000
1000
,
0010
0000
0000
0100
0000
0000
0001
0000
,
1000
0000
0100
0000
1000
0100
0000
0000
,
0010
0000
0000
1000
0000
0000
0100
0000
,
0010
0000
0000
0000
0000
0000
0000
0001
,
0010
0000
0000
0100
0000
0000
1000
0000
,
0001
0000
0100
0000
0001
0100
0000
0000
,
0010
0000
0000
0000
0010
1000
0000
0010
,
0100
0000
0100
0001
0000
0000
0000
0000
,
0001
0000
0000
0000
0010
0001
0000
0010
,
0100
0000
0100
1000
0000
0000
0000
0000
,
0001
0000
0000
0000
1000
0001
0000
0001
,
0100
0000
0100
0010
0000
0000
0000
0000
,
1000
0000
0000
0100
0000
0000
1000
0000
,
0001
0000
1000
0001
0000
0000
0000
0000
,
0100
0000
0110
0000
,
1001
0000
0100
0000
,
1001
0000
0001
0000
,
1001
0000
1000
0000
,
0002
0000
0000
0000
,
1000
0000
0000
1000
0000
0000
1003
0000
,
2000
0000
0000
0000
,
0001
0000
0000
0001
0000
3001
0000
0000
,
0001
0100
0001
0000
1000
0010
1000
0000
,
0001
0010
0001
0000
1000
0100
1000
0000
,
0010
0100
0010
0000
0100
0010
0100
0000
,
1000
0001
1000
0000
0001
1000
0001
0000
,
1000
0000
0001
2000
0000
0000
0000
0000
,
3100
0010
0001
1000
,
0002
0000
0000
0203
0000
0000
0302
0000
,
0000
0000
1003
0100
,
1000
0000
0001
0200
0000
0000
0000
0000
,
0000
0000
0310
0100
,
0002
0000
0000
0023
0000
0000
0000
0000
,
0230
0000
0000
2300
0000
0000
0000
0000
,
3001
0000
1000
0002
0000
0000
0000
0000
,
1003
0001
0100
0010
,
2000
0000
0000
3200
0000
0000
0320
0000
,
0000
0030
0100
1000
,
0001
0000
0010
0002
0000
0000
0000
0000
,
0103
0010
1000
0010
,
0100
0000
0000
0002
0000
0000
0000
0000
,
1003
0001
0100
0010
,
1000
0000
0000
2001
0000
0000
0000
0000
,
3001
0000
0000
1002
0000
0000
0000
0000
,
1003
0000
0000
2001
0000
0000
0000
0000
,
3001
1000
0010
0100
,
0010
0000
0000
0120
0000
0000
0000
0000
,
0130
0000
0000
0210
0000
0000
0000
0000
,
0310
0000
0000
0120
0000
0000
0000
0000
,
0130
0010
1000
0001
,
0010
0001
1000
0001
0100
0010
1000
0100
,
1000
0010
1000
0001
0100
0001
1000
0000
;

//---------------dance-single - ----------------
#NOTES:
     dance-single:
     :
     Hard:
     8:
     0.529,0.627,0.239,0.044,0.005:
0000
0000
0000
0000
,
0000
0000
0000
0000
,
0001
1000
0001
0010
,
0101
0000
0001
0100
0001
0100
0010
1000
,
0010
0000
1000
0000
0100
0000
1000
0100
,
1100
0010
0001
1000
,
2002
3003
0000
0000
0000
0000
0000
0000
0001
0000
0000
0000
1000
0000
0100
0000
,
0000
0100
1000
0001
,
0101
0000
0000
0000
0100
0000
0010
0100
,
0000
0001
0010
0100
,
1100
0000
0000
0000
1000
0000
0010
0100
,
0000
0001
1000
0010
,
0110
0000
0000
0000
0010
0000
0001
0100
,
0000
1000
0001
0010
,
0100
0000
0001
1000
0000
1000
0100
0000
,
0010
0000
0001
0000
0010
0001
0010
0000
,
0010
0000
0100
1000
0000
1000
0100
0000
,
1000
0000
0010
0000
0010
1000
0000
0000
,
0001
0000
0100
0000
0010
1000
0010
0000
,
1000
0000
0010
0000
0100
0001
0100
0000
,
0100
0000
0010
0100
0000
0100
0001
0000
,
1000
0000
0010
0000
1000
0100
0000
0000
,
0110
0000
0000
0000
0001
1000
0000
1000
,
0100
0000
0100
0010
0000
0000
0000
0000
,
0110
0000
0000
0000
1000
0001
0000
0001
,
0100
0000
0100
0010
0000
0000
0010
0000
,
1010
0000
0000
0000
1000
0100
0000
0100
,
0010
0000
0010
0001
0000
0000
0001
0000
,
0011
0000
0000
1000
0000
0000
0010
0000
,
0100
0000
0100
0001
0000
0000
0000
0000
,
1001
0000
0110
0000
,
0001
0000
0110
0000
,
1000
0000
0110
0000
,
0001
0000
0110
0000
,
1000
0001
1000
0001
2000
0000
0000
0000
,
0001
0000
0000
0001
0000
0000
3001
0000
,
0010
0100
0010
0100
0020
0000
0000
0000
,
0100
0000
0000
0100
0000
0130
0000
0000
,
0010
1000
0100
0010
0100
1000
0010
0100
,
0001
0000
0100
0000
0010
0000
1000
0000
0001
0000
0000
1000
0100
0000
0010
0000
,
0010
0001
0100
0010
0001
1000
0100
0010
,
1000
0100
0010
0001
0100
0010
1000
0100
,
0010
0000
0001
0100
0000
0001
1000
0000
,
0100
1000
0100
0000
1000
0100
1000
0000
,
0010
0000
0100
0001
0000
0001
0010
0000
,
0001
1000
0001
0000
1000
0001
1000
0000
,
0100
0000
0100
1000
0000
1000
0010
0000
,
0100
0010
0100
0000
0010
0100
0010
0000
,
0100
0000
0100
0001
0000
0001
0010
0000
,
0010
0001
0010
0000
0001
0010
0001
0000
,
1000
0000
1000
0100
0000
0100
1000
0000
,
0001
0100
0001
0000
1000
0100
1000
0000
,
1000
0000
0001
0100
0000
0100
1000
0000
,
0100
0010
0100
0000
0010
0100
0010
0000
,
0100
0000
0001
1000
0000
1000
0100
0000
,
0100
0010
0100
0000
0010
0100
0010
0000
,
0001
0000
1000
0010
0000
0010
0100
0000
,
0001
1000
0001
1000
0001
1000
0001
1000
,
0001
0000
1000
0100
0000
0100
1000
0000
,
1001
0000
0001
0010
0000
0010
0001
0000
,
1001
0000
1000
0100
0000
0100
0010
0000
,
0011
0001
0101
0001
,
1000
0000
0001
0100
0000
0010
1000
0000
,
1010
0000
0010
1000
0000
0001
0100
0000
,
0101
0000
0001
1000
0000
0010
0100
0000
,
0100
1000
0001
0010
,
1000
0010
0100
0010
0001
0100
0010
1000
,
0100
0010
0001
0010
0100
1000
1001
0000
;

//---------------dance-double - ----------------
#NOTES:
     dance-double:
     :
     Beginner:
     1:
     0.124,0.221,0.033,0.022,0.000:
00000000
00000000
00000000
00000000
,
00000000
00000000
00000000
00000000
,
00010000
00000000
00010000
00000000
,
00010000
00000000
00000000
00000000
,
10000000
00000000
10000000
00000000
,
10000000
00000000
00010000
00000000
,
10010000
00000000
00000000
00000000
,
01000000
00000000
00000000
00000000
,
00000000
00000000
00000000
00000000
,
00001000
00000000
00000000
00000000
,
00000000
00000000
00000000
00000000
,
00010000
00000000
00000000
00000000
,
00000000
00000000
00000000
00000000
,
00000100
00000000
00000000
00000000
,
00000010
00000000
00000000
00000000
,
00000001
00000000
00000000
00000000
,
00000001
00000000
00000000
00000000
,
00001000
00000000
00001000
00000000
,
00000001
00000000
00000000
00000000
,
00000100
00000000
00000000
00000000
,
00001000
00000000
00000000
00000000
,
00010000
00000000
00010000
00000000
,
00010000
00000000
00000000
00000000
,
00001000
00000000
00000000
00000000
,
00001000
00000000
00000000
00000000
,
00200000
00000000
00000000
00300000
,
00100000
00000000
00000000
00000000
,
00010000
00000000
00000000
00000000
,
00010000
00000000
00000000
00000000
,
20000000
00000000
00000000
30000000
,
00000000
00000000
01000000
00000000
,
00000000
00000000
01000000
00000000
,
00000000
00000000
00010000
00000000
,
00000000
00000000
00001000
00000000
,
00001000
00000000
00000000
00000000
,
00011000
00000000
00000000
00000000
,
00010000
00000000
00000000
00000000
,
00011000
00000000
00000000
00000000
,
00000100
00000000
00000100
00000000
,
00000100
00000000
00000100
00000000
,
00000010
00000000
00000010
00000000
,
00000010
00000000
00000010
00000000
,
00000001
00000000
00000000
00000000
,
00000000
00000000
00001000
00000000
,
00001000
00000000
00000000
00000000
,
00000000
00000000
00000100
00000000
,
00000100
00000000
00000000
00000000
,
00000000
00000000
00000000
00000000
,
00001000
00000000
00000000
00000000
,
00010000
00000000
00000000
00000000
,
00010000
00000000
00000000
00000000
,
00000000
00000000
01000000
00000000
,
01000000
00000000
00000000
00000000
,
00000000
00000000
00100000
00000000
,
00100000
00000000
00000000
00000000
,
00000000
00000000
01000000
00000000
,
01000000
00000000
00000000
00000000
,
10000000
00000000
00000000
00000000
,
00010000
00000000
00000000
00000000
,
10000000
00000000
00000000
00000000
,
00010000
00000000
00000000
00000000
,
10000000
00000000
10000000
00000000
,
10000000
00000000
00000000
00000000
,
01000000
00000000
00000000
00000000
,
00010000
00000000
00000000
00000000
,
00001000
00000000
00000000
00000000
,
00001000
00000000
00010000
00000000
,
00010000
00000000
00001000
00001000
;

//---------------dance-double - ----------------
#NOTES:
     dance-double:
     :
     Easy:
     3:
     0.230,0.332,0.033,0.305,0.000:
00000000
00000000
00000000
00000000
,
00000000
00000000
00000000
00000000
,
00010000
00000000
10000000
00000000
,
00100000
00100000
00100000
00000000
,
10000000
00000000
01000000
00000000
,
00010000
00001000
00010000
00001000
,
00021000
00000000
00000000
00030000
,
00002000
00000000
00000000
00003000
,
00000200
00000000
00000000
00000000
00000000
00000000
00000000
00000000
00000000
00000000
00000000
00000300
00000000
00000000
00000000
00000000
,
00000020
00000000
00000000
00000030
,
00000220
00000000
00000000
00000330
,
00002000
00000000
00000000
00003000
,
00000002
00000000
00000000
00000003
,
00000200
00000000
00000000
00000300
,
00000001
00000000
00001000
00000000
,
00000100
00000000
00010000
00000000
,
00001000
00000000
00100000
00000000
,
00010000
00010000
10000000
00000000
,
10000000
00000000
00010000
00000000
,
01000000
00000000
00001000
00000000
,
00010000
00000000
00000010
00000000
,
00001000
00001000
00000001
00000000
,
00001000
00000000
00000010
00000000
,
00000100
00000000
00001000
00000000
,
00010000
00000000
01000000
00000000
,
00100000
00000000
00000000
00000000
,
00010000
00000000
00100000
00000000
,
01000000
00000000
00010000
00000000
,
00001000
00000000
00000100
00000000
,
00000010
00000000
00000000
00000000
,
00010000
00000000
00010000
00000000
,
00001000
00000000
00001000
00000000
,
00100000
00000000
00100000
00000000
,
00010000
00000000
00010000
00000000
,
20000000
00000000
00000000
00000000
,
00000000
00000000
00000000
30000000
,
20020000
00000000
00000000
00000000
,
00000000
00000000
00000000
30030000
,
10000000
01000000
00010000
00010000
,
00001000
00000100
00000001
00000001
,
00001000
00000100
00010000
00010000
,
00001000
01000000
00100000
00100000
,
20000000
00000000
00000000
30000000
,
01000000
00000000
01000000
00000000
,
00020000
00000000
00000000
00030000
,
00001000
00000000
00001000
00000000
,
00200000
00000000
00000000
00300000
,
01000000
00000000
01000000
00000000
,
00020000
00000000
00000000
00030000
,
00002000
00000000
00000000
00003000
,
00000200
00000000
00000000
00000300
,
00000010
00000000
00000010
00000000
,
00002000
00000000
00000000
00003000
,
00000001
00000000
00000001
00000000
,
00000200
00000000
00000000
00000300
,
00001000
00000000
00001000
00000000
,
00020000
00000000
00000000
00030000
,
00002000
00000000
00000000
00003000
,
00020000
00000000
00000000
00030000
,
02000000
00000000
00000000
03000000
,
20000000
00000000
00000000
30000000
,
01000000
00000000
00010000
00000000
,
00002000
00000000
00000000
00003000
,
00020000
00000000
00000000
00030000
,
00002000
00000000
00000000
00003000
,
00010000
00000000
00001000
00000000
,
00000100
00000100
00000010
00000010
,
00001000
00001000
00000001
00000001
;

//---------------dance-double - ----------------
#NOTES:
     dance-double:
     :
     Medium:
     6:
     0.381,0.553,0.152,0.250,0.000:
00000000
00000000
00000000
00000000
,
00000000
00000000
00000000
00000000
,
10000000
00000000
01000000
00000000
,
00010000
00001000
00000100
00000001
,
00001000
00000000
00000001
00000000
,
00000001
00000100
00001000
00010000
,
00011000
00000000
00010000
00000000
,
00100000
01000000
00010000
10000000
,
10010000
00000000
01000000
00000000
,
00010000
00001000
00000100
00000001
,
00000101
00000000
00000100
00000000
,
00001000
00010000
01000000
10000000
,
11000000
00000000
10000000
00000000
,
00100000
10000000
01000000
00010000
,
00001000
00000000
00000000
00010000
00000000
00000000
00001000
00000000
,
00000010
00000000
00000000
00000000
00000000
00000000
00000000
00000001
,
00001000
00000000
00000000
00000001
00000000
00000000
00000100
00000000
,
00001000
00000000
00010000
00000000
00001000
00010000
00000000
00000000
,
00100000
00000000
00000000
10000000
00000000
00000000
01000000
00000000
,
00100000
00000000
00000000
00000000
00000000
00000000
00000000
00010000
,
10000000
00000000
00000000
00010000
00000000
00000000
00100000
00000000
,
01000000
00000000
00010000
00000000
01000000
00010000
00000000
00000000
,
00001000
00000000
00000000
00000000
00010000
00001000
00000000
00010000
,
00000100
00000000
00000100
00000010
00000000
00000000
00000000
00000000
,
00000001
00000000
00000000
00000000
00001000
00000001
00000000
00000010
,
00000001
00000000
00000001
00000100
00000000
00000000
00000000
00000000
,
00001000
00000000
00000000
00000000
00001000
00010000
00000000
00010000
,
01000000
00000000
01000000
00100000
00000000
00000000
00000000
00000000
,
00010000
00000000
00000000
01000000
00000000
00000000
00100000
00000000
,
10000000
00000000
01000000
00100000
00000000
00000000
00000000
00000000
,
01000000
00000000
01100000
00000000
,
10010000
00000000
00010000
00000000
,
01010000
00000000
00001000
00000000
,
00011000
00000000
00000010
00000000
,
00000200
00000000
00000000
00000000
,
00000010
00000000
00000000
00000010
00000000
00000000
00000310
00000000
,
00002000
00000000
00000000
00000000
,
00000001
00000000
00000000
00000001
00000000
00000001
00003000
00000000
,
00000001
00000010
00000001
00000000
00001000
00000100
00001000
00000000
,
00010000
00001000
00010000
00000000
00001000
00010000
00001000
00000000
,
00100000
00010000
00100000
00000000
01000000
10000000
01000000
00000000
,
10000000
00100000
10000000
00000000
00010000
01000000
00010000
00000000
,
10000000
00000000
00010000
02000000
00000000
00000000
00000000
00000000
,
03100000
10000000
01000000
00010000
,
00002000
00000000
00000000
00023000
00000000
00000000
00032000
00000000
,
00000000
00000000
00013000
00000010
,
00001000
00000000
00000100
00000020
00000000
00000000
00000000
00000000
,
00000000
00000000
00000130
00000010
,
00000002
00000000
00000000
00000203
00000000
00000000
00000000
00000000
,
00002300
00000000
00000000
00023000
00000000
00000000
00000000
00000000
,
00031000
00000000
00001000
00200000
00000000
00000000
00000000
00000000
,
01300000
10000000
00100000
10000000
,
00020000
00000000
00000000
20030000
00000000
00000000
30200000
00000000
,
00000000
00000000
01300000
00010000
,
10000000
00000000
01000000
00200000
00000000
00000000
00000000
00000000
,
01300000
00010000
00001000
00000100
,
00000001
00000000
00000000
00002000
00000000
00000000
00000000
00000000
,
00003001
00000001
00000100
00001000
,
00010000
00000000
00000000
00012000
00000000
00000000
00000000
00000000
,
00013000
00000000
00000000
00021000
00000000
00000000
00000000
00000000
,
00030010
00000000
00000000
00001020
00000000
00000000
00000000
00000000
,
00000130
00001000
00010000
01000000
,
00100000
00000000
00000000
01200000
00000000
00000000
00000000
00000000
,
00310000
00000000
00000000
02010000
00000000
00000000
00000000
00000000
,
03100000
00000000
00000000
10200000
00000000
00000000
00000000
00000000
,
01300000
01000000
00010000
10000000
,
00100000
10000000
01000000
10000000
01000000
00010000
00001000
00000100
,
00000001
00000010
00000001
00000100
00001000
00010000
00001000
00000000
;

//---------------dance-double - ----------------
#NOTES:
     dance-double:
     :
     Hard:
     8:
     0.522,0.627,0.239,0.033,0.000:
00000000
00000000
00000000
00000000
,
00000000
00000000
00000000
00000000
,
00010000
10000000
00100000
01000000
,
01010000
00000000
10000000
01000000
10000000
01000000
00010000
00001000
,
00010000
00000000
00000010
00000000
00001000
00000000
00000001
00001000
,
00001001
00000001
00000100
00001000
,
00011000
00000000
10000000
00000000
,
01000000
00000000
00000000
00010000
00000000
00000000
00001000
00000000
,
00011000
00000000
00010000
00000000
,
00001000
00000000
00000000
00000100
00000000
00000000
00000001
00000000
,
00001001
00000000
00000100
00000000
,
00001000
00000000
00000000
00010000
00000000
00000000
00001000
00000000
,
00011000
00000000
00001000
00000000
,
00010000
00001000
00000000
00100000
00010000
00100000
00020000
00000000
,
00130000
00000000
00100000
00010000
00000000
10000000
01000000
00000000
,
01000000
10000000
01000000
00000000
10000000
01000000
10000000
00000000
,
01000000
00000000
00010000
00001000
00000000
00001000
00010000
00000000
,
00001000
00000000
00010000
00000000
00010000
00000100
00000000
00000000
,
00001000
00000000
00000001
00000010
00000000
00000010
00000100
00000000
,
00001000
00000100
00001000
00000000
00000100
00001000
00000100
00000000
,
00001000
00000000
00000001
00000100
00000000
00000100
00001000
00000000
,
00010000
00000000
00001000
00000000
00001000
01000000
00000000
00000000
,
01100000
00000000
00000000
00000000
00100000
10000000
00000000
10000000
,
01000000
00000000
01000000
00010000
00000000
00000000
00000000
00000000
,
00011000
00000000
00000000
00000000
00010000
00000100
00000000
00000100
,
00000010
00000000
00000010
00000001
00000000
00000000
00000001
00000000
,
00000101
00000000
00000000
00000000
00000100
00001000
00000000
00001000
,
00010000
00000000
00010000
00001000
00000000
00000000
00001000
00000000
,
00011000
00000000
00000000
00010000
00000000
00000000
01000000
00000000
,
00100000
00000000
00100000
01000000
00000000
00000000
00000000
00000000
,
01100000
00000000
10010000
00000000
,
00010000
00000000
01010000
00000000
,
00001000
00000000
00011000
00000000
,
00000010
00000000
00001010
00000000
,
00000100
00001000
00000100
00001000
00000200
00000000
00000000
00000000
,
00001000
00000000
00000000
00001000
00000000
00000000
00001300
00000000
,
00010000
00001000
00010000
00001000
00020000
00000000
00000000
00000000
,
00001000
00000000
00000000
00001000
00000000
00031000
00000000
00000000
,
00001000
00010000
00001000
00000100
00000001
00000100
00001000
00010000
,
01000000
10000000
00100000
00010000
00001000
00010000
01000000
00010000
,
00001000
00000010
00000001
00000100
00001000
00010000
00001000
01000000
,
00100000
10000000
01000000
00010000
01000000
00010000
00001000
00010000
,
00000010
00000000
00001000
00000100
00000000
00000010
00000001
00000000
,
00000100
00000001
00000100
00000000
00000001
00000100
00000001
00000000
,
00000100
00000000
00001000
00010000
00000000
00010000
00001000
00000000
,
00010000
00001000
00010000
00000000
00001000
00010000
00001000
00000000
,
01000000
00000000
01000000
00100000
00000000
00100000
10000000
00000000
,
10000000
00100000
10000000
00000000
00010000
01000000
00010000
00000000
,
10000000
00000000
01000000
00010000
00000000
00010000
00001000
00000000
,
00010000
00001000
00010000
00000000
00000010
00001000
00000010
00000000
,
00001000
00000000
00000001
00000100
00000000
00000100
00000001
00000000
,
00000001
00000100
00000001
00000000
00001000
00000100
00001000
00000000
,
00000001
00000000
00001000
00000100
00000000
00000100
00010000
00000000
,
00001000
00010000
00001000
00000000
00100000
00010000
00100000
00000000
,
01000000
00000000
10000000
00100000
00000000
00100000
01000000
00000000
,
01000000
00100000
01000000
00000000
00010000
01000000
00010000
00000000
,
10000000
00000000
00010000
00100000
00000000
01000000
10000000
00000000
,
00010000
10000000
00010000
10000000
00010000
10000000
00010000
10000000
,
00010000
00000000
10000000
00010000
00000000
00010000
10000000
00000000
,
10010000
00000000
10000000
01000000
00000000
01000000
00010000
00000000
,
00011000
00000000
00001000
00000100
00000000
00000100
00000010
00000000
,
00001010
00001000
00001100
00001000
,
00000001
00000000
00000001
00000100
00000000
00000100
00001000
00000000
,
00011000
00000000
00010000
01000000
00000000
01000000
10000000
00000000
,
10010000
00000000
01000000
00100000
00000000
00100000
10000000
00000000
,
01000000
00010000
00001000
00000100
,
00000001
00000010
00001000
00010000
00100000
10000000
01000000
00010000
,
00001000
00000100
00000001
00000100
00001000
00010000
00011000
00000000
;

//---------------dance-single - Copied from----------------
#NOTES:
     dance-single:
     Copied from:
     Challenge:
     9:
     0.752,1.000,0.403,0.457,0.392: // measure 1
0002
0000
0000
0000
0000
0000
1003
0000
0010
0000
1000
0000
0020
0000
0000
0000
0000
0000
0130
0000
0000
0001
0000
0000
,  // measure 2
2000
3200
0320
0032
,  // measure 3
0023
0000
0000
1030
0010
0001
0010
0000
0000
0110
0000
0000
,  // measure 4
1100
0000
1000
0010
0100
0001
0010
0100
,  // measure 5
2000
0000
0000
0000
0000
0000
3001
0000
1000
0000
0001
0000
0200
0000
0000
0000
0000
0000
0310
0000
0000
0100
0000
0000
,  // measure 6
2002
3003
2020
3030
0202
0303
0220
0330
,  // measure 7
2002
3003
0000
0100
0000
0010
0000
0100
0000
0001
0000
0010
0000
0100
0000
1000
,  // measure 8
0000
0001
0000
0100
0000
1000
0000
0100
0000
0001
0000
0010
0000
0100
0000
1000
,  // measure 9
0000
0001
0000
0010
0000
1000
0000
0010
0000
0100
0000
1000
0000
0100
0000
0010
,  // measure 10
0000
0001
0000
0100
0000
1000
0000
0100
0000
0010
0000
0100
0000
1000
0000
0100
,  // measure 11
0000
0001
0000
1000
0000
0010
0000
0100
0000
0001
0000
1000
0000
0010
0000
1000
,  // measure 12
0000
0001
0000
0010
0000
0001
0000
0010
0000
1000
0000
0010
0000
0001
0000
1000
,  // measure 13
0000
0100
0000
0010
0000
0001
0000
0010
0000
1000
0000
0010
0000
0001
0000
1000
,  // measure 14
0000
0000
0000
0100
0000
0000
0000
0000
0000
0010
0000
0000
0000
0000
0000
0001
0000
0000
0000
0000
0000
0010
0000
0000
0000
0000
0000
0100
0000
0000
1000
0000
0000
0000
0000
0000
0010
0000
0000
0000
1000
0000
0000
0000
0010
0000
0000
0000
,  // measure 15
1000
0000
0010
0000
0000
0000
0100
0000
0000
0010
0000
0000
0000
0000
0000
0100
0000
0000
0010
0000
0000
0000
0000
0000
,  // measure 16
1001
0000
0001
1000
0010
0001
0010
1000
,  // measure 17
0001
0000
0001
0010
0000
0010
0100
0000
,  // measure 18
1020
0000
0100
0000
0130
0001
0000
0000
,  // measure 19
1001
0000
0100
0010
0000
1000
0001
0000
,  // measure 20
0101
0000
0001
1000
0100
0001
0100
1000
,  // measure 21
0010
0000
0010
0100
0000
0100
0010
0000
,  // measure 22
2010
0000
0001
0000
3010
0100
0000
0000
,  // measure 23
0110
0000
0100
0000
0001
1000
0000
0010
,  // measure 24
0100
0000
0001
0010
0000
0100
1000
0000
,  // measure 25
1010
0000
0010
0000
0100
0001
0000
1000
,  // measure 26
0010
0000
0100
0001
0000
1000
0010
0000
,  // measure 27
0110
0000
0100
0000
0001
0010
0000
0100
,  // measure 28
1000
0000
0100
0010
0000
0001
1000
0000
,  // measure 29
1001
0000
0001
1000
0000
1000
0010
0000
,  // measure 30
0010
0000
0220
0000
0000
0000
0000
0300
,  // measure 31
1030
0001
0010
0100
1000
0100
0010
0001
,  // measure 32
0010
0100
1000
0010
0001
0010
1000
0010
,  // measure 33
0001
0010
1000
0100
0001
0100
1000
0100
,  // measure 34
0001
0100
1000
0010
0100
0001
0010
0100
,  // measure 35
1000
0010
1000
0001
0200
0000
0000
0000
,  // measure 36
0010
0000
0000
1000
0000
0000
0301
0000
,  // measure 37
0010
0100
1000
0100
0020
0000
0000
0000
,  // measure 38
0001
0000
0000
1000
0000
0031
0000
0000
,  // measure 39
1002
2003
0100
3200
0010
0320
0001
0032
,  // measure 40
0010
0000
0023
0000
1000
0000
2030
0000
3010
0000
0000
0010
0001
0000
0002
0000
,  // measure 41
0100
0203
1000
2300
0001
3002
0010
0013
,  // measure 42
1000
0000
0100
0000
0001
0000
1000
0000
0010
0000
0001
0000
1000
0010
0100
0001
,  // measure 43
0010
0000
0001
0010
0000
0010
0100
0000
,  // measure 44
1000
0100
0001
0000
1000
0010
0001
0000
,  // measure 45
0101
0000
0010
1000
0000
0001
0010
0000
,  // measure 46
1000
0010
0001
0000
1000
0010
0001
0000
,  // measure 47
0110
0000
0100
0010
0000
1000
0001
0000
,  // measure 48
0100
1000
0001
0000
0010
1000
0001
0000
,  // measure 49
1010
0000
0100
0001
0000
1000
0010
0000
,  // measure 50
1000
0010
0100
0000
1000
0100
0010
0000
,  // measure 51
0110
0000
0010
0100
0000
0001
1000
0000
,  // measure 52
0001
0010
1000
0000
0001
0100
1000
0000
,  // measure 53
1010
0000
0001
0100
0000
0010
1000
0000
,  // measure 54
0001
1000
0010
0000
0100
0001
1000
0000
,  // measure 55
1010
0000
0010
0100
0000
0001
0010
0000
,  // measure 56
0100
1000
0100
0000
0010
0001
0010
0000
,  // measure 57
1001
0000
1000
0010
0000
0010
0100
0000
,  // measure 58
0010
1000
0100
0010
1000
0010
0001
0100
,  // measure 59
1100
0000
1000
0100
0000
0100
0001
0000
,  // measure 60
1001
0000
1000
0010
0000
0010
0100
0000
,  // measure 61
1001
0000
1000
0100
0000
0100
0010
0000
,  // measure 62
0011
1001
0110
1010
,  // measure 63
1001
0000
0001
0010
0000
0100
1000
0000
,  // measure 64
1010
0000
0010
1000
0000
0001
0100
0000
,  // measure 65
1001
0000
0010
0100
0000
0001
1000
0000
,  // measure 66
1020
0230
0302
0023
,  // measure 67
1030
0010
0100
0010
0001
1000
0010
0100
,  // measure 68
0001
0010
1000
0001
0100
1000
2002
0000
,  // measure 69
0000
0000
0000
3003
;
