#TITLE:A Geisha's Dream;
#SUBTITLE:;
#ARTIST:NAOKI feat. SMiLE.dk;
#TITLETRANSLIT:;
#SUBTITLETRANSLIT:;
#ARTISTTRANSLIT:;
#CREDIT:;
#BANNER:A Geisha's Dream.png;
#BACKGROUND:A Geisha's Dream-bg.png;
#LYRICSPATH:;
#CDTITLE:./CDTITLES/DanceDanceRevolution X.png;
#MUSIC:A Geisha's Dream.mp3;
#OFFSET:-0.480;
#SAMPLESTART:41.587;
#SAMPLELENGTH:15.000;
#SELECTABLE:YES;
#BPMS:0.000=140.000;
#STOPS:;
#BGCHANGES:;

//---------------dance-single - ----------------
#NOTES:
     dance-single:
     :
     Beginner:
     2:
     0.123,0.195,0.045,0.000,0.000:
0000
0000
0000
0000
,
0000
0000
0000
0000
,
0000
0000
0000
0000
,
0000
0000
0000
0000
,
0001
0000
0000
0000
,
0001
0000
0000
0000
,
1000
0000
0000
0000
,
0000
0000
0000
0000
,
0001
0000
0000
0000
,
1000
0000
0000
0000
,
0001
0000
0001
0000
,
0001
0000
0000
0000
,
1000
0000
0000
0000
,
0001
0000
0000
0000
,
1000
0000
1000
0000
,
1000
0000
0000
0000
,
0001
0000
0001
0000
,
1000
0000
1000
0000
,
0001
0000
0000
0000
,
1000
0000
0000
0000
,
1000
0000
1000
0000
,
0001
0000
0001
0000
,
1000
0000
0001
0000
,
1000
0000
0000
0000
,
0001
0001
0001
0000
,
1000
1000
1000
0000
,
0001
0000
1000
0000
,
0000
0000
1001
0000
,
1000
1000
1000
0000
,
0001
0001
0001
0000
,
1000
0000
0001
0000
,
0000
0000
1001
0000
,
0000
0000
0000
0000
,
1000
0000
0000
0000
,
0001
0000
0000
0000
,
0000
0000
0000
0000
,
0010
0000
0000
0000
,
0010
0000
0000
0000
,
0010
0000
0010
0000
,
0010
0000
0000
0000
,
0100
0000
0000
0000
,
0100
0000
0000
0000
,
0100
0000
0100
0000
,
0100
0000
0000
0000
,
0010
0000
0010
0000
,
0100
0000
0100
0000
,
0010
0000
0000
0000
,
0100
0000
0000
0000
,
0100
0000
0100
0000
,
0010
0000
0010
0000
,
0100
0000
0010
0000
,
0100
0000
0000
0000
,
1000
1000
1000
0000
,
0001
0001
0001
0000
,
1000
0000
0001
0000
,
0000
0000
1001
0000
,
0010
0010
0010
0000
,
0100
0100
0100
0000
,
0001
0000
1000
0000
,
0000
0000
1001
0000
,
0001
0000
1000
0000
,
0000
0000
1001
0000
;

//---------------dance-single - ----------------
#NOTES:
     dance-single:
     :
     Easy:
     6:
     0.311,0.335,0.271,0.172,0.000:
0000
0000
0000
0000
,
0000
0000
0000
0000
,
0000
0000
0000
0000
,
0000
0000
0000
0000
,
0001
0100
0001
0001
,
1000
0100
1000
1000
,
0001
0100
0001
0001
,
1001
0110
1001
0000
,
0010
0001
0010
0001
,
0100
0000
0100
0000
,
1000
0100
0001
0100
,
0010
1000
0001
0000
,
0010
1000
0010
1000
,
0100
0000
0100
0000
,
0001
0100
1000
0100
,
0010
0001
1000
0000
,
0001
0101
1000
1100
,
0010
0001
1000
0010
,
0200
0000
0020
0330
,
1000
0001
1001
0000
,
1000
1100
0001
0101
,
0010
1000
0001
0010
,
0200
0000
0020
0330
,
0002
0000
0000
0003
,
1000
1000
0001
1000
,
0001
0000
1000
1000
1000
0000
0001
0000
,
0110
0000
1001
0000
,
0100
0100
0100
0000
2002
0000
3003
0000
,
0001
0001
1000
0001
,
1000
0000
0001
0001
0001
0000
1000
0000
,
0110
0000
1001
0000
,
0100
0100
2002
3003
,
1000
0100
1000
1000
,
0001
0100
0001
0001
,
1000
0100
1000
1000
,
1001
0110
1001
0000
,
0010
0000
0010
0000
,
0200
0000
0300
0100
,
0001
0100
1000
0100
,
0010
0001
1000
0000
,
0010
0001
0010
0001
,
0100
0000
0100
0000
,
1000
0100
0001
0100
,
0010
1000
0001
0000
,
1000
1100
0001
0101
,
0010
1000
0001
0010
,
0200
0000
0020
0330
,
0001
1000
1001
0000
,
0001
0101
1000
1100
,
0010
0001
1000
0010
,
0200
0000
0020
0330
,
2000
0000
0000
3000
,
0001
0001
1000
0001
,
1000
0000
0001
0001
0001
0000
1000
0000
,
0110
0000
1001
0000
,
0100
0100
0100
0000
2002
0000
3003
0000
,
1000
1000
0001
1000
,
0001
0000
1000
1000
1000
0000
0001
0000
,
0110
0000
1001
0000
,
0100
0100
2002
3003
,
0001
0000
1000
0000
,
0001
1000
0110
1001
;

//---------------dance-single - ----------------
#NOTES:
     dance-single:
     :
     Medium:
     9:
     0.420,0.447,0.335,0.308,0.027:
0000
0000
0000
0000
,
0000
0000
0000
0000
,
0000
0000
0000
0000
,
0000
0000
0000
0000
,
0001
0000
0100
0000
0001
0000
0000
0000
0010
0000
0000
0010
0000
0000
0010
0000
,
1000
0000
0100
0000
1000
0000
0000
0000
0010
0000
0000
0010
0000
0000
0010
0000
,
0100
0000
0010
0000
0100
0000
0000
0000
0010
0000
0000
0010
0000
0000
0010
0000
,
0100
0010
1001
0000
,
0100
0000
0001
0000
0100
0000
0001
0200
,
0010
1000
0301
0010
,
0100
0000
1000
0000
0100
0001
1000
0000
,
0010
0000
1000
0010
0001
0000
0010
0000
,
0100
0000
1000
0000
0100
0000
1000
0200
,
0010
0001
1300
0010
,
0100
0000
0001
0000
0100
1000
0001
0000
,
0010
0000
0001
0010
0100
0000
0000
0000
,
1002
0023
0130
0010
,
1000
0001
0010
0000
1000
0010
0001
0000
,
0100
1000
0100
0001
,
1000
0000
0010
0001
0100
0000
0010
0000
,
2001
3020
0130
0010
,
0001
1000
0010
0000
0001
0010
1000
0000
,
0100
0001
0100
2000
,
0002
0000
0000
3003
,
1010
0011
0101
1100
,
1001
0000
0010
0001
1000
0000
0001
0000
,
0210
0000
0300
0001
0020
0000
0030
0100
,
1000
0001
0100
0000
2002
0000
3003
0000
,
0011
1010
1100
0101
,
1001
0000
0010
1000
0001
0000
1000
0000
,
0210
0000
0300
1000
0020
0000
0030
0100
,
0001
1000
2002
3003
,
1000
0000
0100
0000
1000
0000
0000
0000
0010
0000
0000
0010
0000
0000
0010
0000
,
0001
0000
0100
0000
0001
0000
0000
0000
0010
0000
0000
0010
0000
0000
0010
0000
,
0100
0000
0010
0000
0100
0000
0000
0000
0010
0000
0000
0010
0000
0000
0010
0000
,
0100
0010
1001
0000
,
0200
0000
2000
0300
,
0002
0000
3003
0010
,
0100
0000
0001
0000
0100
1000
0001
0000
,
0010
0000
0001
0010
1000
0000
0010
0000
,
0100
0000
0001
0000
0100
0000
0001
0200
,
0010
1000
0301
0010
,
0100
0000
1000
0000
0100
0001
1000
0000
,
0010
0000
1000
0010
0100
0000
0000
0000
,
2001
3020
0130
0010
,
0001
1000
0010
0000
0001
0010
1000
0000
,
0100
0001
0100
1000
,
0001
0000
0010
1000
0100
0000
0010
0000
,
1002
0023
0130
0010
,
1000
0001
0010
0000
1000
0010
0001
0000
,
0100
1000
0100
0002
,
2000
0000
0000
3003
,
0011
1010
1100
0101
,
1001
0000
0010
1000
0001
0000
1000
0000
,
0210
0000
0300
1000
0020
0000
0030
0100
,
0001
1000
0100
0000
2002
0000
3003
0000
,
1010
0011
0101
1100
,
1001
0000
0010
0001
1000
0000
0001
0000
,
0210
0000
0300
0001
0020
0000
0030
0100
,
1000
0001
2002
3003
,
1000
0100
0001
0100
,
0110
0000
1001
0000
0110
1000
0001
0000
;

//---------------dance-single - ----------------
#NOTES:
     dance-single:
     :
     Hard:
     11:
     0.520,0.531,0.290,0.271,0.145:
0000
0000
0000
0000
,
0000
0000
0000
0000
,
0000
0000
0000
0000
,
0000
0000
0000
0000
,
0010
0000
1000
0000
0100
0000
1000
0000
0010
0000
1000
0100
0000
1000
0100
0000
,
0010
0000
0001
0000
0100
0000
0001
0000
0010
0000
0001
0100
0000
0001
0100
0000
,
0010
0000
0100
0000
0001
0000
0100
0000
0010
0000
1000
0100
0000
1000
0100
0000
,
0010
0100
1001
0000
,
0010
0100
1000
0000
0010
0100
1000
0020
,
0100
0001
1030
0100
,
0010
1000
0001
0000
0010
1000
0001
0010
,
0100
1000
0001
0100
1000
0000
0100
0000
,
0010
0100
0001
0000
0010
0100
0001
0020
,
0100
1000
0031
0100
,
0010
0001
1000
0000
0010
0001
1000
0010
,
0100
0001
1000
0100
0010
0000
0110
0000
,
2001
0000
3200
0000
0310
0001
0100
0000
,
0001
1000
0100
0100
0001
0100
1000
0000
,
0010
0101
0010
1100
,
0001
0010
0100
1000
0010
0000
0100
0000
,
1002
0000
0203
0000
0310
1000
0100
0000
,
1000
0001
0100
0100
1000
0100
0001
0000
,
0010
1100
0010
0102
,
2000
0000
0000
3003
,
0010
0000
0000
0010
1000
0000
0000
1000
0100
0000
0000
0100
0001
0000
0000
0001
,
0100
0000
0000
0100
1000
0000
0010
0000
0001
0000
0000
0000
1000
0000
0000
0000
,
0120
0000
1030
0100
1200
0000
0310
0001
,
0011
1000
0010
0100
0002
0000
0000
0000
,
0013
0000
0000
0010
0001
0000
0000
0001
0100
0000
0000
0100
1000
0000
0000
1000
,
0100
0000
0000
0100
0001
0000
0010
0000
1000
0000
0000
0000
0001
0000
0000
0000
,
0120
0000
0031
0100
0201
0000
0310
1000
,
1010
0001
0010
0100
2000
0000
3000
0000
,
0010
0000
0001
0000
0100
0000
0001
0000
0010
0000
0001
0100
0000
0001
0100
0000
,
0010
0000
1000
0000
0100
0000
1000
0000
0010
0000
1000
0100
0000
1000
0100
0000
,
0010
0000
0100
0000
1000
0000
0100
0000
0010
0000
0001
0100
0000
0001
0100
0000
,
0010
0100
1001
0000
,
2000
0000
0200
3000
,
0002
0000
0303
0110
,
0010
0001
1000
0000
0010
0001
1000
0010
,
0100
0001
1000
0100
0001
0000
0100
0000
,
0010
0100
1000
0000
0010
0100
1000
0020
,
0100
0001
1030
0100
,
0010
1000
0001
0000
0010
1000
0001
0010
,
0100
1000
0001
0100
0010
0000
0110
0000
,
1002
0000
0203
0000
0310
1000
0100
0000
,
1000
0001
0100
0100
1000
0100
0001
0000
,
0010
1100
0010
0101
,
1000
0010
0100
0001
0010
0000
0100
0000
,
2001
0000
3200
0000
0310
0001
0100
0000
,
0001
1000
0100
0100
0001
0100
1000
0000
,
0010
0101
0010
2100
,
0002
0000
0000
3003
,
0010
0000
0000
0010
0001
0000
0000
0001
0100
0000
0000
0100
1000
0000
0000
1000
,
0100
0000
0000
0100
0001
0000
0010
0000
1000
0000
0000
0000
0001
0000
0000
0000
,
0120
0000
0031
0100
0201
0000
0310
1000
,
1010
0001
0010
0100
2000
0000
0000
0000
,
3010
0000
0000
0010
1000
0000
0000
1000
0100
0000
0000
0100
0001
0000
0000
0001
,
0100
0000
0000
0100
1000
0000
0010
0000
0001
0000
0000
0000
1000
0000
0000
0000
,
0120
0000
1030
0100
1200
0000
0310
0001
,
0011
1000
0010
0100
0002
0000
0003
0000
,
0010
0001
0100
1000
0010
0001
0100
1000
,
0110
0000
1001
0000
0110
1000
0001
0000
;

//---------------dance-double - ----------------
#NOTES:
     dance-double:
     :
     Easy:
     7:
     0.279,0.335,0.181,0.072,0.000:
00000000
00000000
00000000
00000000
,
00000000
00000000
00000000
00000000
,
00000000
00000000
00000000
00000000
,
00000000
00000000
00000000
00000000
,
00000010
00000001
00000010
00000001
,
00001000
00000100
00001000
00000100
,
00010000
00001000
00010000
00001000
,
01000000
00100000
01100000
00000000
,
00100000
00100000
10000000
01000000
,
00100000
00010000
01000000
00000000
,
00001000
00000000
00001000
00000000
,
00000010
00000001
00001000
00000000
,
00000010
00000010
00000001
00000100
,
00000010
00001000
00000100
00000000
,
00010000
00000000
00010000
00000000
,
00100000
10000000
00010000
00000000
,
10000000
01000000
00010000
00010000
,
00001000
00000100
00000001
00000001
,
00000010
00001000
00000010
00000001
,
00001000
00000001
00001001
00000000
,
00000001
00000100
00001000
00001000
,
00010000
01000000
10000000
10000000
,
00100000
00010000
00100000
10000000
,
01100000
00000000
00000000
00000000
,
00020000
00100000
00001000
00130000
,
00002000
00000010
00010000
00003010
,
00001001
00000000
00000110
00000000
,
00000001
00001000
00001001
00000000
,
00002000
00000010
00010000
00003010
,
00020000
00100000
00001000
00130000
,
10010000
00000000
01100000
00000000
,
10000000
00010000
10010000
00000000
,
00100000
10000000
00100000
10000000
,
00010000
01000000
00010000
01000000
,
00001000
00010000
00001000
00010000
,
00000100
00000010
00000110
00000000
,
00000010
00000000
00000000
00000000
,
00000100
00000000
00000000
00011000
,
00010000
00000000
00010000
00000000
,
00100000
10000000
00010000
00000000
,
00100000
00100000
10000000
01000000
,
00100000
00010000
01000000
00000000
,
00001000
00000000
00001000
00000000
,
00000010
00000001
00001000
00000000
,
00000001
00000100
00001000
00001000
,
00010000
01000000
10000000
10000000
,
00100000
00010000
00100000
10000000
,
00010000
10000000
10010000
00000000
,
10000000
01000000
00010000
00010000
,
00001000
00000100
00000001
00000001
,
00000010
00001000
00000010
00000001
,
00000110
00000000
00000000
00000000
,
00002000
00000010
00010000
00003010
,
00020000
00100000
00001000
00130000
,
10010000
00000000
01100000
00000000
,
10000000
00010000
10010000
00000000
,
00020000
00100000
00001000
00130000
,
00002000
00000010
00010000
00003010
,
00001001
00000000
00000110
00000000
,
00000001
00001000
00001001
00000000
,
00010000
00000000
00001000
00000000
,
00010000
00001000
00010000
00011000
;

//---------------dance-double - ----------------
#NOTES:
     dance-double:
     :
     Medium:
     8:
     0.376,0.419,0.371,0.090,0.027:
00000000
00000000
00000000
00000000
,
00000000
00000000
00000000
00000000
,
00000000
00000000
00000000
00000000
,
00000000
00000000
00000000
00000000
,
00100000
00000000
00000000
00000000
01000000
00000000
00000000
00000000
00010000
00000000
00000000
00010000
00000000
00000000
00010000
00000000
,
00000010
00000000
00000000
00000000
00000100
00000000
00000000
00000000
00001000
00000000
00000000
00001000
00000000
00000000
00001000
00000000
,
00100000
00000000
00000000
00000000
01000000
00000000
00000000
00000000
00010000
00000000
00000000
00010000
00000000
00000000
00010000
00000000
,
00001000
00000010
00001001
00000000
,
00000010
00000000
00000001
00000000
00000010
00000000
00000001
00000100
,
00000010
00010000
00001000
01000000
,
00100000
01000000
00010000
00000000
00100000
01000000
10000000
00000000
,
00010000
00001000
00011000
00000000
,
00100000
00000000
10000000
00000000
00100000
00000000
10000000
01000000
,
00100000
00001000
00010000
00000100
,
00000010
00000100
00001000
00000000
00000010
00000100
00000001
00000000
,
00001000
00010000
00011000
00000000
,
00110000
00110000
11000000
00110000
,
01000000
10000000
00100000
00010000
,
00001000
00000010
00000100
00000000
00001000
00000001
00000100
00000000
,
00000010
00000100
00000110
00000000
,
00001010
00001010
00000101
00001010
,
00000100
00000001
00000010
00001000
,
00010000
00100000
01000000
00000000
00010000
10000000
01000000
00000000
,
00200000
00000000
00000000
00300000
,
00102000
01003000
00020010
00030100
,
00101000
00000000
01000000
10000000
00010000
00000000
01000000
00000000
,
00100000
00000000
00000000
00010000
00001000
00000000
00000000
00000010
,
00000001
00001000
00000010
00000000
,
00020010
00030100
00102000
01003000
,
00010010
00000000
00000100
00000001
00001000
00000000
00000100
00000000
,
00000010
00000000
00000000
00000001
00000100
00000000
00000000
00001000
,
00010000
00001000
00011000
00000000
,
00000010
00000000
00000000
00000000
00000100
00000000
00000000
00000000
00001000
00000000
00000000
00001000
00000000
00000000
00001000
00000000
,
00100000
00000000
00000000
00000000
01000000
00000000
00000000
00000000
00010000
00000000
00000000
00010000
00000000
00000000
00010000
00000000
,
00000010
00000000
00000000
00000000
00000100
00000000
00000000
00000000
00001000
00000000
00000000
00001000
00000000
00000000
00001000
00000000
,
00010000
00100000
10010000
00000000
,
01000000
00000000
10000000
00000000
,
00010000
00000000
00000000
00000100
,
00000010
00000100
00001000
00000000
00000010
00000100
00000001
00000000
,
00001000
00010000
00011000
00000000
,
00000010
00000000
00000001
00000000
00000010
00000000
00000001
00000100
,
00000010
00010000
00001000
01000000
,
00100000
01000000
00010000
00000000
00100000
01000000
10000000
00000000
,
00010000
00001000
00011000
00000000
,
00001010
00001010
00000101
00001010
,
00000100
00000001
00000010
00001000
,
00010000
00100000
01000000
00000000
00010000
10000000
01000000
00000000
,
00100000
01000000
01100000
00000000
,
00110000
00110000
11000000
00110000
,
01000000
10000000
00100000
00010000
,
00001000
00000010
00000100
00000000
00001000
00000001
00000100
00000000
,
00000020
00000000
00000000
00000030
,
00020010
00030100
00102000
01003000
,
00010010
00000000
00000100
00000001
00001000
00000000
00000100
00000000
,
00000010
00000000
00000000
00001000
00010000
00000000
00000000
00100000
,
10000000
00010000
00100000
00000000
,
00102000
01003000
00020010
00030100
,
00101000
00000000
01000000
10000000
00010000
00000000
01000000
00000000
,
00100000
00000000
00000000
10000000
01000000
00000000
00000000
00010000
,
00001000
00000100
00001001
00000000
,
00000001
00001000
00010000
10000000
,
01100000
00000000
10010000
00000000
01100000
00010000
10000000
00000000
;

//---------------dance-double - ----------------
#NOTES:
     dance-double:
     :
     Hard:
     12:
     0.512,0.531,0.335,0.163,0.145:
00000000
00000000
00000000
00000000
,
00000000
00000000
00000000
00000000
,
00000000
00000000
00000000
00000000
,
00000000
00000000
00000000
00000000
,
00000010
00000000
00000001
00000000
00001000
00000000
00000100
00000000
00010000
00000000
00001000
00010000
00000000
00001000
00010000
00000000
,
00100000
00000000
10000000
00000000
00010000
00000000
01000000
00000000
00001000
00000000
00010000
00001000
00000000
00010000
00001000
00000000
,
00000100
00000000
00000001
00000000
00001000
00000000
00000100
00000000
00010000
00000000
00001000
00010000
00000000
00001000
00010000
00000000
,
00110000
11000000
01010000
00000000
,
00100000
00000000
00010000
00000000
01000000
00000000
10000000
00100000
,
00010000
00001000
00000010
00000001
00001000
00000000
00000100
00000000
,
00000001
00000100
00000100
00000000
00001000
00000100
00000100
00000010
,
00001000
00010000
00000100
00001000
00010000
00000000
00011000
00000000
,
00000010
00000000
00001000
00000000
00000100
00000000
00000001
00000010
,
00001000
00010000
00100000
10000000
00010000
00000000
01000000
00000000
,
10000000
01000000
01000000
00000000
00010000
01000000
01000000
00100000
,
00010000
00001000
01000000
00010000
00001000
00000000
00011000
00000000
,
00101000
00000000
00010100
00000000
00000010
00000100
00002000
00000000
,
00003001
00000100
00001000
00010000
00002000
00000000
01003000
00000000
,
00100000
10000000
02000000
00000000
03100000
00001000
02000000
00000000
,
03100000
00010000
00000100
00000010
00000001
00000000
00000100
00000000
,
00010010
00000000
01001000
00000000
00100000
01000000
00020000
00000000
,
10030000
01000000
00010000
00001000
00020000
00000000
00030100
00000000
,
00000010
00000001
00000200
00000000
00000310
00010000
00000100
00000000
,
00002002
00000000
00000000
00003003
,
00000001
00000000
00000000
00000001
00000100
00000000
00000000
00000100
00001000
00000000
00000000
00001000
00010000
00000000
00000000
00010000
,
01000000
00000000
00000000
01000000
10000000
00000000
00100000
00000000
01000000
00000000
00000000
00000000
00010000
00000000
00000000
00000000
,
10010000
00000000
00001000
00010000
00011000
00000000
00000001
00000010
,
00000100
00010000
00001000
01000000
00100000
00000000
00000000
00000000
,
10000000
00000000
00000000
10000000
01000000
00000000
00000000
01000000
00010000
00000000
00000000
00010000
00001000
00000000
00000000
00001000
,
00000100
00000000
00000000
00000100
00000001
00000000
00000010
00000000
00000100
00000000
00000000
00000000
00001000
00000000
00000000
00000000
,
00001001
00000000
00010000
00001000
00011000
00000000
10000000
00100000
,
01100000
10010000
01100000
00000000
,
01000000
00000000
10000000
00000000
00010000
00000000
00100000
00000000
00001000
00000000
00010000
00001000
00000000
00010000
00001000
00000000
,
00000100
00000000
00000001
00000000
00001000
00000000
00000010
00000000
00010000
00000000
00001000
00010000
00000000
00001000
00010000
00000000
,
00100000
00000000
10000000
00000000
00010000
00000000
00100000
00000000
00001000
00000000
00010000
00001000
00000000
00010000
00001000
00000000
,
00001100
00000011
00001010
00000000
,
00000100
00000000
00001000
00000000
,
00010000
00000000
00000000
10100000
,
10000000
00100000
00100000
00000000
00010000
00100000
00100000
01000000
,
00010000
00001000
00100000
00010000
00001000
00000000
00011000
00000000
,
01000000
00000000
00010000
00000000
00100000
00000000
10000000
01000000
,
00010000
00001000
00000100
00000001
00001000
00000000
00000010
00000000
,
00000001
00000010
00000010
00000000
00001000
00000010
00000010
00000100
,
00001000
00010000
00000010
00001000
00010000
00000000
00011000
00000000
,
00010100
00000000
00101000
00000000
01000000
00100000
00020000
00000000
,
10030000
00100000
00010000
00001000
00020000
00000000
00030010
00000000
,
00000100
00000001
00000020
00000000
00000130
00010000
00000020
00000000
,
00000130
00001000
00100000
01000000
10000000
00000000
00100000
00000000
,
01001000
00000000
00010010
00000000
00000100
00000010
00002000
00000000
,
00003001
00000010
00001000
00010000
00002000
00000000
00103000
00000000
,
01000000
10000000
00200000
00000000
01300000
00001000
00100000
00000000
,
20020000
00000000
00000000
30030000
,
10000000
00000000
00000000
10000000
00100000
00000000
00000000
00100000
00010000
00000000
00000000
00010000
00001000
00000000
00000000
00001000
,
00000010
00000000
00000000
00000010
00000001
00000000
00000100
00000000
00000010
00000000
00000000
00000000
00001000
00000000
00000000
00000000
,
00001001
00000000
00010000
00001000
00011000
00000000
10000000
01000000
,
00100000
00001000
00010000
00000010
00000100
00000000
00000000
00000000
,
00000001
00000000
00000000
00000001
00000010
00000000
00000000
00000010
00001000
00000000
00000000
00001000
00010000
00000000
00000000
00010000
,
00100000
00000000
00000000
00100000
10000000
00000000
01000000
00000000
00100000
00000000
00000000
00000000
00010000
00000000
00000000
00000000
,
10010000
00000000
00001000
00010000
00011000
00000000
00000001
00000100
,
00000010
00010000
00001000
00100000
01000000
00000000
10000000
00000000
,
10010000
00000000
00001000
00010000
00011000
00000000
00000001
00000100
,
00000110
00000000
00001001
00000000
00000110
00001000
00000001
00000000
;

//---------------dance-single - Copied from ----------------
#NOTES:
     dance-single:
     Copied from:
     Challenge:
     11:
     0.658,0.623,0.299,0.407,0.267: // measure 1
0000
0000
0000
0000
,  // measure 2
0001
0000
0000
1000
0100
0000
0010
0000
0100
0000
0010
0001
0000
1000
0001
0000
,  // measure 3
1000
0000
0000
0001
0010
0000
0100
0000
0010
0000
0100
1000
0000
0100
0010
0000
,  // measure 4
0001
0000
0000
1000
0100
0000
0010
0000
0100
0000
0010
0001
0000
1000
0001
0000
,  // measure 5
1001
0000
0000
1000
0100
0000
1000
0000
0010
0000
1000
0100
0000
1000
0100
0000
,  // measure 6
0010
0000
0000
0001
0100
0000
0001
0000
1000
0000
0010
0100
0000
0001
1000
0000
,  // measure 7
0100
0000
0000
0010
0001
0000
0100
0000
0010
0000
1000
0100
0000
0010
0001
0000
,  // measure 8
0200
0000
0310
0000
1001
0000
0001
1000
,  // measure 9
0200
0000
1300
0001
0100
0010
1000
0010
,  // measure 10
0001
1000
0100
0001
2000
0000
3001
1000
,  // measure 11
0200
0000
1300
0001
0200
0000
0301
0010
,  // measure 12
0002
0000
1003
0001
0020
0000
0031
0010
,  // measure 13
0200
0000
1300
0010
0100
0001
0010
1000
,  // measure 14
0001
0100
1000
0001
2000
0000
3001
1000
,  // measure 15
0002
0000
0103
0010
2000
0000
3010
0100
,  // measure 16
0002
0000
0000
0000
2003
0000
0000
0000
3001
0000
0000
0001
0010
0000
0100
0000
,  // measure 17
2000
0000
0000
0000
3200
0000
0000
0000
0310
0000
0000
0001
1000
0000
0001
0000
,  // measure 18
0100
0000
0000
0010
0100
0000
0001
0000
1000
0000
0000
0100
1000
0000
0001
0000
,  // measure 19
0100
0000
0000
0010
0100
0000
0010
0000
1000
0000
0000
0000
1001
0000
0000
0000
,  // measure 20
0001
0010
0100
1000
0010
0000
0100
0010
,  // measure 21
1002
0000
0203
0000
0310
1000
0100
0010
,  // measure 22
0001
0010
0100
1000
1100
0000
0010
0001
,  // measure 23
0011
0000
1000
0100
2100
0000
3001
1000
,  // measure 24
0010
0100
0001
1000
0100
1001
1001
0000
,  // measure 25
0010
0000
0000
0010
1000
0000
0000
1000
0100
0000
0000
0100
0001
0000
0000
0001
,  // measure 26
0100
0000
0000
0100
1000
0000
0010
0000
0001
0000
0000
0000
1000
0000
0000
0000
,  // measure 27
0120
0000
1030
0100
1200
0000
0310
0001
,  // measure 28
0011
1000
0010
0100
0002
1000
0010
1000
,  // measure 29
0013
0000
0000
0010
0001
0000
0000
0001
0100
0000
0000
0100
1000
0000
0000
1000
,  // measure 30
0100
0000
0000
0100
0001
0000
0010
0000
1000
0000
0000
0000
0001
0000
0000
0000
,  // measure 31
0120
0000
0031
0100
0201
0000
0310
1000
,  // measure 32
1010
0001
0010
0100
2000
0100
3100
0000
,  // measure 33
1000
0000
0000
0001
0010
0000
0001
0000
0100
0000
0001
0010
0000
0100
0010
0000
,  // measure 34
0100
0000
0000
1000
0010
0000
1000
0000
0001
0000
0100
0010
0000
1000
0001
0000
,  // measure 35
0010
0000
0000
0100
1000
0000
0010
0000
0100
0000
0001
0010
0000
0100
1000
0000
,  // measure 36
0020
0000
0130
0000
1001
0000
0010
0100
,  // measure 37
2000
0000
3100
0010
0001
1000
0010
0001
,  // measure 38
1000
0100
0001
0010
0200
0000
1300
0010
,  // measure 39
0101
0000
1000
0001
0010
0001
1000
0010
,  // measure 40
0100
0001
1000
0100
0020
0000
0031
0010
,  // measure 41
0002
0000
0013
0100
1000
0001
0100
0010
,  // measure 42
0001
1000
0100
0001
2000
0000
3100
0010
,  // measure 43
0002
0000
1003
0010
0200
0000
0301
0010
,  // measure 44
0100
0000
1000
0000
0001
0000
0100
0000
0010
0000
0000
1000
0100
0000
0010
0000
,  // measure 45
0002
0000
0000
0000
0023
0000
0000
0000
0130
0000
0000
1000
0001
0000
1000
0000
,  // measure 46
0010
0000
0000
0100
0010
0000
1000
0000
0001
0000
0000
0010
0001
0000
1000
0000
,  // measure 47
0010
0000
0000
0100
0010
0000
0100
0000
0001
0000
0000
0000
1001
0000
0000
0000
,  // measure 48
1000
0100
0010
0001
0100
0000
0010
0100
,  // measure 49
2001
0000
3020
0000
0130
0001
0010
0100
,  // measure 50
1000
0100
0010
0001
0011
0000
1000
0100
,  // measure 51
1100
0000
0001
0010
0012
0000
1003
0001
,  // measure 52
0100
0010
1000
0001
0010
1001
1001
0000
,  // measure 53
0010
0000
0000
0010
0001
0000
0000
0001
0100
0000
0000
0100
1000
0000
0000
1000
,  // measure 54
0100
0000
0000
0100
0001
0000
0010
0000
1000
0000
0000
0000
0001
0000
0000
0000
,  // measure 55
0120
0000
0031
0100
0201
0000
0310
1000
,  // measure 56
1010
0001
0010
0100
2000
0000
0010
0010
,  // measure 57
3010
0000
0000
0010
1000
0000
0000
1000
0100
0000
0000
0100
0001
0000
0000
0001
,  // measure 58
0100
0000
0000
0100
1000
0000
0010
0000
0001
0000
0000
0000
0010
0000
0000
0000
,  // measure 59
1020
0100
1030
0100
2001
0010
3001
0010
,  // measure 60
0110
1000
0010
0100
0002
0010
0013
0000
,  // measure 61
0010
0000
0000
0001
0010
0000
0100
0000
1000
0000
0000
0100
0010
0000
0001
0000
,  // measure 62
0110
0100
1001
1000
0110
2000
0002
0000
,  // measure 63
0000
0000
0000
0000
0000
3003
0000
0000
;
