#TITLE:A Brighter Day;
#SUBTITLE:;
#ARTIST:NAOKI feat. Aleisha G;
#TITLETRANSLIT:;
#SUBTITLETRANSLIT:;
#ARTISTTRANSLIT:;
#CREDIT:;
#BANNER:A Brighter Day.png;
#BACKGROUND:A Brighter Day-bg.png;
#LYRICSPATH:A Brighter Day.lrc;
#CDTITLE:./CDTITLES/DanceDanceRevolution X2.png;
#MUSIC:A Brighter Day.mp3;
#OFFSET:0.211;
#SAMPLESTART:66.717;
#SAMPLELENGTH:15.000;
#SELECTABLE:YES;
#BPMS:0.000=155.000;
#STOPS:;
#BGCHANGES:;

//---------------dance-single - ----------------
#NOTES:
     dance-single:
     :
     Easy:
     5:
     0.224,0.271,0.044,0.177,0.000:
0000
0000
0000
0000
,
0000
0000
0000
0000
,
0000
0000
0000
0000
,
0000
0000
0000
0000
,
0000
0000
0000
0000
,
0000
0000
0000
0000
,
0000
0000
0000
0000
,
0000
0000
0000
0000
,
0000
0000
0000
0000
,
1000
0000
0001
0000
,
2000
0000
3001
0000
,
0020
0030
0010
0000
,
0200
0000
0310
0000
,
0002
0003
0020
0030
,
2000
3000
0001
0001
,
2000
3000
0100
0100
,
0002
0003
0100
0100
,
0010
0010
0010
0000
,
1000
0000
1000
0000
,
1000
0100
0001
0000
,
1000
0100
0001
0000
,
1000
0100
0001
0000
,
0001
0000
0001
1000
,
0001
0000
0001
1000
,
0001
0010
0100
0010
,
0001
1000
0001
0000
,
0001
0000
0010
0000
,
0001
0010
0100
0000
,
1000
0000
0010
0000
,
1000
0010
0100
0000
,
0010
0000
0100
0000
,
0100
0100
0100
0000
,
1001
0000
2002
0000
,
3003
0000
0000
0000
,
0001
0000
0010
0000
,
0001
0010
0100
0000
,
1000
0000
0100
0010
,
0100
0100
0001
1000
,
0200
0300
0100
0100
,
0002
0003
0001
0001
,
0200
0000
0000
0300
,
1000
0000
0001
0000
,
1001
0000
2002
0000
,
3003
0000
0000
0000
,
1000
0100
1000
0000
,
0001
0000
1000
0000
,
0010
0000
0010
0000
,
1000
1000
0001
0001
,
2000
3000
0002
0003
,
1000
0000
0001
0000
,
1000
0001
1000
0000
,
0000
0000
0000
0000
,
0001
0100
0001
0000
,
1000
0000
0001
0000
,
0010
0000
0010
0000
,
0001
0001
1000
1000
,
0002
0003
1000
1000
,
0002
0003
0100
0100
,
2000
3000
0100
0100
,
0010
0010
0010
0000
,
0001
0000
0001
0000
,
0001
0100
1000
0000
,
0001
0100
1000
0000
,
0001
0100
1000
0000
,
1000
0000
1000
0001
,
1000
0000
1000
0001
,
1000
0010
0100
0010
,
1000
0001
1000
0000
,
1001
0000
0000
0000
;

//---------------dance-single - ----------------
#NOTES:
     dance-single:
     :
     Beginner:
     2:
     0.101,0.151,0.027,0.000,0.000:
0000
0000
0000
0000
,
0000
0000
0000
0000
,
0000
0000
0000
0000
,
0000
0000
0000
0000
,
0000
0000
0000
0000
,
0000
0000
0000
0000
,
0000
0000
0000
0000
,
0000
0000
0000
0000
,
0000
0000
0000
0000
,
1000
0000
0001
0000
,
1000
0000
0000
0000
,
0010
0000
0000
0000
,
0100
0000
0000
0000
,
0001
0000
0000
0000
,
1000
0000
0000
0000
,
0001
0000
0000
0000
,
0010
0000
0000
0000
,
0010
0000
0000
0000
,
1000
0000
0000
0000
,
1000
0000
0000
0000
,
0010
0000
0000
0000
,
1000
0000
0000
0000
,
0001
0000
0000
0000
,
0010
0000
0000
0000
,
0001
0000
0000
0000
,
0010
0000
0000
0000
,
0001
0000
0000
0000
,
0001
0001
0001
0000
,
1000
0000
0000
0000
,
1000
1000
1000
0000
,
0010
0000
0000
0000
,
0010
0010
0010
0000
,
0000
0000
1001
0000
,
0000
0000
0000
0000
,
0001
0000
0000
0000
,
0001
0001
0001
0000
,
1000
0000
0000
0000
,
0010
0010
0010
0000
,
1000
0000
0000
0000
,
0001
0000
0000
0000
,
0001
0000
0000
0000
,
1000
0000
0000
0000
,
1001
0000
0000
0000
,
0000
0000
0000
0000
,
1000
0000
0000
0000
,
1000
1000
1000
0000
,
0001
0000
0000
0000
,
0001
0001
0001
0000
,
1000
0000
0000
0000
,
0001
0000
0000
0000
,
0010
0000
0010
0000
,
0000
0000
0000
0000
,
0001
0000
0000
0000
,
0001
0001
0001
0000
,
1000
0000
0000
0000
,
1000
1000
1000
0000
,
0001
0000
0000
0000
,
1000
0000
0000
0000
,
0010
0000
0000
0000
,
0010
0000
0000
0000
,
0001
0000
0000
0000
,
0001
0000
0000
0000
,
0010
0000
0000
0000
,
0001
0000
0000
0000
,
1000
0000
0000
0000
,
0010
0000
0000
0000
,
1000
0000
0000
0000
,
0010
0000
0000
0000
,
1001
0000
0000
0000
;

//---------------dance-double - ----------------
#NOTES:
     dance-double:
     :
     Easy:
     5:
     0.242,0.271,0.018,0.222,0.000:
00000000
00000000
00000000
00000000
,
00000000
00000000
00000000
00000000
,
00000000
00000000
00000000
00000000
,
00000000
00000000
00000000
00000000
,
00000000
00000000
00000000
00000000
,
00000000
00000000
00000000
00000000
,
00000000
00000000
00000000
00000000
,
00000000
00000000
00000000
00000000
,
00000000
00000000
00000000
00000000
,
10000000
01000000
00100000
00010000
,
00200000
00000000
00302000
00000000
,
00013000
00010000
00000010
00000000
,
00002000
00000000
00003200
00000000
,
00000310
00000010
00000100
00000000
,
00002000
00003000
00000200
00000300
,
00020000
00030000
00002000
00003000
,
02000000
03000000
00200000
00300000
,
00010000
00001000
00010000
00001000
,
00100000
00100000
00001000
00000000
,
00100000
00001000
00001000
00000000
,
01000000
00001000
00001000
00000000
,
00100000
00001000
00001000
00000000
,
00010000
00000010
00000010
00000000
,
00010000
00000010
00000010
00000000
,
00010000
00001000
00000010
00000000
,
00000100
00000010
00000010
00000000
,
00001000
00000000
00000010
00000000
,
00000100
00001000
00010000
00000000
,
00010000
00000000
00100000
00000000
,
01000000
00010000
00001000
00000000
,
00001000
00000000
00010000
00000000
,
00000010
00000010
00000100
00000100
,
00002000
00000000
00020000
00033000
,
00000000
00000000
00000000
00000000
,
00010000
00000000
00100000
00000000
,
01000000
00010000
00001000
00000000
,
00001000
00010000
00000010
00000000
,
00001000
00001000
00000001
00000001
,
00000200
00000300
00002000
00003000
,
00020000
00030000
00200000
00300000
,
10000000
00010000
10000000
00010000
,
00100000
00100000
00100000
00100000
,
00001000
00000000
00022000
00000000
,
00033000
00000000
00000000
00000000
,
00100000
00010000
01000000
00000000
,
00010000
00100000
00001000
00000000
,
00100000
00001000
00010000
00010000
,
00000100
00000010
00000100
00000000
,
00020000
00000000
00030010
00000000
,
00002000
00000000
00003100
00000000
,
00000020
00000000
00000130
00000000
,
00010000
00001000
00010000
00001000
,
00000010
00001000
00000100
00000000
,
00001000
00000010
00010000
00000000
,
00000010
00010000
00001000
00001000
,
01000000
00100000
01000000
00000000
,
00002000
00000000
00103000
00000000
,
00020000
00000000
01030000
00000000
,
00200000
00000000
20000000
30300000
,
01000000
00100000
00001000
00010000
,
00000010
00000010
00010000
00000000
,
00000010
00010000
00010000
00000000
,
00000100
00010000
00010000
00000000
,
00000010
00010000
00010000
00000000
,
00001000
00100000
00100000
00000000
,
00001000
00100000
00100000
00000000
,
00001000
00010000
00100000
00000000
,
01000000
00100000
00100000
01000000
,
10010000
00000000
00000000
00000000
;

//---------------dance-single - ----------------
#NOTES:
     dance-single:
     :
     Medium:
     7:
     0.336,0.392,0.106,0.284,0.000:
0000
0000
0000
0000
,
0000
0000
0000
0000
,
0000
0000
0000
0000
,
0000
0000
0000
0000
,
0000
0000
0000
0000
,
0000
0000
0000
0000
,
0000
0000
0000
0000
,
0000
0000
0000
0000
,
0000
0000
0000
0000
,
0001
0001
1000
1000
,
0002
1000
1003
0000
,
0200
1300
0010
0100
,
0020
0100
0130
0000
,
2000
3010
0200
0301
,
0002
0000
0000
1000
2003
0000
0000
0100
,
3200
0000
0000
0010
0320
0000
0000
0001
,
0032
0000
0000
1000
2003
0000
0000
0000
,
3001
1000
0100
0010
,
0001
0100
0001
0001
,
0001
0000
0010
0000
0000
1000
1000
0000
,
0001
0000
0010
0000
0000
1000
1000
0000
,
0001
0000
0010
0000
0000
1000
1000
0000
,
1000
0010
1000
0001
,
1000
0010
1000
0001
,
1000
0000
0100
0010
0100
0000
0001
0000
,
1000
0000
0001
0000
1000
0001
0010
0000
,
1000
1000
0100
1000
,
1000
0100
0010
0011
,
0001
0001
0100
0001
,
0001
0100
0010
1010
,
0100
0100
0010
0100
,
0011
0010
1010
0010
,
1001
0000
0000
0002
2000
0000
0000
0000
,
3003
0000
0000
0000
,
1000
1000
0100
1000
,
1000
0100
0010
0011
,
0001
0000
0001
0000
0010
0000
0100
0100
,
0100
0010
1010
0011
,
0020
0000
0030
0001
0002
0000
0003
1000
,
2000
0000
3000
0100
0200
0000
0300
0010
,
0020
0000
0000
0030
,
0001
0000
1000
0000
,
1001
0000
0000
0110
2002
0000
0000
0000
,
3003
0010
0001
1000
,
0001
0010
0001
0000
,
1000
0010
1000
0000
0001
0000
0000
0000
,
0100
0000
0100
0000
,
0001
0000
0100
0000
0010
0000
1000
0001
,
0002
0000
0000
1000
2003
0000
0000
0000
,
3001
0010
0100
1000
,
0001
1000
0001
1000
0000
0000
0000
0000
,
0200
0320
2030
3002
,
1003
0010
1000
0000
,
0001
0010
0001
0000
1000
0000
0000
0000
,
0100
0000
0100
0000
,
1000
0000
0100
0000
0010
0000
0001
1000
,
2000
0000
0000
0001
3002
0000
0000
0100
,
0203
0000
0000
0010
0320
0000
0000
1000
,
2030
0000
0000
0001
3002
0000
0000
0000
,
1003
0010
0100
0001
,
1000
0100
1000
1000
,
1000
0000
0010
0000
0000
0001
0001
0000
,
1000
0000
0010
0000
0000
0001
0001
0000
,
1000
0000
0010
0000
0000
0001
0001
0000
,
0001
0010
0001
1000
,
0001
0010
0001
1000
,
0001
0000
0100
0010
0100
0000
1000
0000
,
0001
0000
1000
0000
0001
1000
0010
0000
,
1001
0000
0000
0000
;

//---------------dance-single - ----------------
#NOTES:
     dance-single:
     :
     Hard:
     8:
     0.418,0.482,0.151,0.452,0.013:
0000
0000
0000
0000
,
0000
0000
0000
0000
,
0000
0000
0000
0000
,
0000
0000
0000
0000
,
0000
0000
0000
0000
,
0000
0000
0000
0000
,
0000
0000
0000
0000
,
0000
0000
0000
0000
,
0000
0000
0000
0000
,
2000
3200
2300
3002
,
2003
0000
0000
0001
3001
0000
0000
0000
,
0020
0000
0031
0010
0100
1000
0010
0000
,
0200
0000
0000
0010
0310
0000
0110
0000
,
0002
0103
0020
1030
,
2000
0000
0000
0100
3200
0000
0000
0001
,
0302
0000
0000
0100
0203
0000
0000
1000
,
2300
0000
0000
0001
3002
0000
0000
0000
,
2003
3002
0023
0230
,
1300
0000
0010
0000
1000
0100
1000
0000
,
1000
0000
1000
0100
0001
0000
0001
0000
,
1000
0000
1000
0100
0001
0000
0001
0000
,
1000
0000
1000
0100
0001
0000
0001
0000
,
0001
0000
0100
0000
0001
0010
0001
0000
,
0001
0000
0100
0000
0001
0010
0001
0000
,
0001
0000
0010
0100
0010
0000
0001
0010
,
0001
0000
1000
0000
0001
0010
0100
1000
,
0001
0001
0010
0001
,
0001
0010
0000
1000
0100
0000
1100
0000
,
1000
1000
0010
1000
,
1000
0010
0000
0001
0100
0000
0101
0000
,
0010
0010
0100
0010
,
1100
1100
0101
0101
,
1001
0000
0000
2000
0002
0000
0000
0000
,
3003
0000
0000
0000
,
0001
0001
0010
0001
,
0001
0010
0000
1000
0100
0000
1100
0000
,
1000
0000
1000
0000
0100
0000
0010
0010
,
0011
1100
0101
1100
,
0200
0000
0000
0000
0300
0000
1000
0000
0020
0000
0000
0100
0030
0000
0001
0000
,
0020
0000
0000
0100
0030
0000
1000
0000
0200
0000
0000
0010
0300
0000
0001
0000
,
0200
0000
0000
0000
0000
0000
0300
0001
,
0001
0100
0010
1000
,
1001
0000
0000
0110
2002
0000
0000
0000
,
3003
0200
2300
3002
,
1003
0100
0000
0010
0000
0001
1000
0000
,
0001
0100
0001
0100
0000
1000
0000
0100
,
0010
0000
0000
0001
0010
0000
0000
0100
,
1000
0000
0010
0000
0100
0000
0001
1000
,
2000
0000
0000
0100
3200
0000
0000
0001
,
0302
0203
0320
0032
,
1003
0001
1000
0001
0000
0000
0000
0000
,
0020
0230
0302
2003
,
3001
0100
0000
0010
0000
1000
0001
0000
,
1000
0100
1000
0100
0000
0001
0000
0100
,
0010
0000
0000
1000
0010
0000
0000
0100
,
0001
0000
0010
0000
0100
0000
1000
0001
,
0002
0000
0000
0100
0203
0000
0000
1000
,
2300
0000
0000
0100
3200
0000
0000
0001
,
0302
0000
0000
1000
2003
0000
0000
0000
,
3002
0203
0320
2030
,
3001
0000
0010
0000
0001
0100
0001
0000
,
0001
0000
0001
0100
1000
0000
1000
0000
,
0001
0000
0001
0100
1000
0000
1000
0000
,
0001
0000
0001
0100
1000
0000
1000
0000
,
1000
0000
0100
0000
1000
0010
1000
0000
,
1000
0000
0100
0000
1000
0010
1000
0000
,
1000
0000
0010
0100
0010
0000
1000
0010
,
1000
0000
0001
0000
1000
0010
0100
0001
,
1001
0000
0000
0000
;

//---------------dance-single - ----------------
#NOTES:
     dance-single:
     :
     Challenge:
     10:
     0.501,0.603,0.115,0.168,0.089:
0000
0000
0000
0000
,
0000
0000
0000
0000
,
0000
0000
0000
0000
,
0000
0000
0000
0000
,
0000
0000
0000
0000
,
0000
0000
0000
0000
,
0000
0000
0000
0000
,
0000
0000
0000
0000
,
0000
0000
0000
0000
,
1000
0001
0100
0100
,
0001
0020
0000
0100
0000
0130
0000
0000
,
1000
0010
1000
0200
0000
0310
0000
0000
,
0001
0100
0000
0020
0000
1030
0100
0000
,
1000
0010
1000
0200
0000
0310
0001
0010
,
1000
0000
0010
0100
0000
0010
0001
0000
,
0001
0100
0000
0100
0000
0010
1000
0010
,
1000
0100
0010
0001
,
1000
0001
1000
0000
0110
0000
1001
0000
,
1000
0000
0100
0010
0001
0010
0100
0000
,
1000
0000
0010
0100
1000
0100
0001
0100
,
0001
0000
0010
0100
0001
0100
1000
0100
,
1000
0000
0010
0100
1000
0100
0001
0100
,
1000
0000
0010
0100
1000
0100
0001
0000
,
0010
0000
0100
0010
1000
0010
0001
0000
,
0100
0000
0100
0010
0001
0000
0001
1000
,
0010
1000
0100
0010
0100
1000
1001
0000
,
1000
0000
0010
0000
1000
0100
0001
0000
,
0100
1000
0001
0010
0001
0000
0011
0000
,
0001
0000
0010
0000
0001
0100
1000
0000
,
0100
0001
1000
0010
1000
0000
1010
0000
,
1000
0000
0100
0000
1000
0010
0001
0000
,
0010
0000
1000
0100
1000
0010
0100
0001
,
0002
0000
0020
0003
0200
0030
2000
0300
,
0001
3000
0001
0000
0001
0000
0000
0000
,
1000
0000
0010
0000
1000
0100
0001
0000
,
0100
1000
0001
0010
0001
0000
0011
0000
,
0001
0000
0010
0000
0001
0010
1000
0000
,
0001
0100
0001
0010
0100
1000
0100
0000
,
1002
0000
0000
0000
0003
0000
0100
0000
0020
0000
0000
1000
0030
0000
0100
0000
,
0002
0000
0000
0100
0000
0003
1000
0000
0020
0000
0000
0001
0030
0000
0010
0000
,
0100
0001
1000
0100
0001
0100
1000
0001
,
1000
0100
1000
0000
0001
0010
0001
0000
0100
0000
0010
1000
0010
0000
1000
0000
,
0001
0000
1000
0002
0200
0000
0000
0000
,
0000
0303
0000
0000
,
1000
0000
0001
0000
0100
0000
0000
0000
0001
0000
0000
0010
0100
0000
1000
0000
,
0001
0100
0001
0000
0010
0000
0100
0000
0010
0000
0001
0000
1100
0000
0000
0000
,
1000
0100
1000
0010
0100
0010
1000
0000
,
0010
0100
0010
0000
1000
0000
0001
0000
0100
0000
0010
0000
1000
0000
0100
0000
,
0010
0000
0000
0001
0100
0000
0010
0000
1000
0000
0000
0100
0010
0000
0001
0000
,
0200
0301
0200
1300
,
1000
0100
1000
0000
0001
0100
0001
0000
,
2100
0000
0000
0000
3020
0000
0000
0030
1000
0000
0000
0000
0101
0000
0000
0000
,
0001
0000
1000
0000
0100
0000
0000
0000
1000
0000
0000
0010
0100
0000
0001
0000
,
1000
0100
1000
0000
0010
0000
0100
0000
0010
0000
1000
0000
0101
0000
0000
0000
,
0001
0100
0001
0010
0100
0010
0001
0000
,
0010
0100
0010
0000
0001
0000
1000
0000
0100
0000
0010
0000
0001
0000
0100
0000
,
0010
0000
0000
1000
0100
0000
0010
0000
0001
0000
0000
0100
0010
0000
1000
0000
,
0100
1000
0100
0000
0010
0000
0100
0000
0001
0010
0001
0000
0100
0000
0010
0000
,
2000
0010
3001
0100
,
0001
0010
0001
0000
0010
0000
0100
0000
1000
0000
0010
0000
0100
0001
0100
0000
,
0001
0000
0100
0010
1000
0010
0100
0000
,
0001
0000
0010
0100
0001
0100
1000
0100
,
1000
0000
0010
0100
1000
0100
0001
0100
,
0001
0000
0010
0100
0001
0100
1000
0100
,
0001
0000
0010
0100
0001
0100
1000
0000
,
0010
0000
0100
0010
0001
0010
1000
0000
,
0100
0000
0100
0010
1000
0000
1000
0001
,
0010
0001
0100
0010
0100
0001
1001
0000
,
1001
0000
0000
0000
;

//---------------dance-double - ----------------
#NOTES:
     dance-double:
     :
     Medium:
     7:
     0.349,0.422,0.195,0.266,0.000:
00000000
00000000
00000000
00000000
,
00000000
00000000
00000000
00000000
,
00000000
00000000
00000000
00000000
,
00000000
00000000
00000000
00000000
,
00000000
00000000
00000000
00000000
,
00000000
00000000
00000000
00000000
,
00000000
00000000
00000000
00000000
,
00000000
00000000
00000000
00000000
,
00000000
00000000
00000000
00000000
,
00000100
00001000
00010000
00100000
,
20000000
00000000
30200000
00000000
,
01300000
00001000
00010000
00000100
,
00000020
00000000
00000230
00000000
,
00010300
00000010
00001000
00000001
,
00000200
00000000
00001300
00001000
,
00020000
00000000
01030000
00010000
,
00002000
00000000
00023000
00000000
,
00031000
00001100
00010000
01010000
,
10010000
00100000
01000000
00001000
,
00010000
00100000
01000000
00001000
,
00010000
00100000
01000000
00001000
,
00001000
00000010
00000100
00010000
,
00011000
00000100
00000001
00001000
,
00011000
00000100
00000001
00001000
,
00011000
01000000
10010000
00010000
,
00110000
01000000
10000000
00010000
,
01000000
00000000
00100000
00000000
00010000
00001000
00010000
00000000
,
00000020
00010030
00000020
00001030
,
00000100
00000000
00010000
00000000
00001000
00010000
00001000
00000000
,
00200000
00301000
02000000
03010000
,
01000000
00100000
00010000
00010000
,
00001000
00000000
00001000
00000000
00000100
00000010
00000100
00000000
,
00000001
00002000
00000200
00000000
,
00003300
00000000
00000000
00000000
,
00000100
00000000
00000010
00000000
00001000
00010000
00001000
00000000
,
00200000
00301000
00200000
00310000
,
01000000
00000000
00100000
00000000
00001000
00010000
00001000
00010000
,
00002000
00000000
00203000
00000000
,
01300000
10000000
00100000
00010000
,
00001000
00000010
00000001
00000010
,
00001000
00000000
00010000
00000000
00001000
00010000
00001000
00000000
,
00020000
00030020
00002030
00003200
,
00020300
00000000
00002000
00000000
,
00033000
00000000
00000000
00000000
,
00000010
00000000
00000001
00000000
00001000
00000100
00010000
00000000
,
00011000
00000000
01000000
00100000
01000000
00000000
00010000
00000000
,
10000000
00000000
01000000
00000000
00100000
00010000
00100000
00000000
,
00001000
00010000
00000010
00000100
,
00000002
00000000
00000100
00000103
,
00002000
00000000
00010000
00013000
,
02000000
00000000
00100000
03100000
,
00010000
01010000
10000000
10100000
,
01100000
00000000
10000000
00000000
00010000
01000000
00001000
00000000
,
00011000
00000000
00000100
00000010
00000100
00000000
00001001
00000000
,
00000001
00000000
00000101
00000000
00000010
00001000
00000010
00000000
,
00010000
00000000
00001000
00000000
00100000
00010000
01000000
00000000
,
20000000
00000000
01000000
31000000
,
00020000
00000000
00001000
00031000
,
00000020
00000000
00000001
00000031
,
00000010
00001000
00010000
00100000
,
10010000
00100000
01000000
00001000
,
00010000
00100000
01000000
00001000
,
00010000
00100000
01000000
00001000
,
00001000
00000010
00000100
00010000
,
00011000
00000100
00000001
00001000
,
00011000
00000100
00000001
00001000
,
00011000
01000000
10010000
00010000
,
00110000
01000000
10000000
00010000
,
10010000
00000000
00000000
00000000
;

//---------------dance-double - ----------------
#NOTES:
     dance-double:
     :
     Hard:
     10:
     0.429,0.512,0.239,0.151,0.000:
00000000
00000000
00000000
00000000
,
00000000
00000000
00000000
00000000
,
00000000
00000000
00000000
00000000
,
00000000
00000000
00000000
00000000
,
00000000
00000000
00000000
00000000
,
00000000
00000000
00000000
00000000
,
00000000
00000000
00000000
00000000
,
00000000
00000000
00000000
00000000
,
00000000
00000000
00000000
00000000
,
01000000
00010000
00001000
00000010
,
00000002
00000000
00000100
00001003
,
00000010
00010000
00001000
00000000
00000010
00000000
00000100
00000000
,
00020000
00000000
00100000
00031000
,
00000010
00001000
00010000
00000000
00100000
00000000
01000000
00000000
,
00002000
00100000
00013000
01000000
,
00200000
00010000
00301000
00010000
,
00000200
00000010
00000020
00000330
,
00001010
00011000
00010100
00101000
,
10010000
00000000
01000000
00100000
00010000
00000000
00001000
00000000
,
00010000
00000000
01000000
00100000
00010000
00000000
00001000
00000000
,
00010000
00000000
01000000
00100000
00010000
00000000
00001000
00000000
,
00001000
00000000
00000100
00000010
00001000
00000000
00010000
00000000
,
00000010
00001000
00000001
00000000
00000010
00001000
00010000
00000000
,
00000010
00001000
00000001
00000000
00000010
00001000
00010000
00000000
,
00100000
10000000
00010000
00000000
00100000
00010000
00001000
00000100
,
00000010
00001000
00000001
00000000
00000010
00001000
00011000
00000000
,
00000010
00000000
00001000
00000000
00000100
00000010
00000001
00000000
,
00000100
00001000
00010000
00000000
00001000
00000000
00011000
00000000
,
00100000
00000000
00010000
00001000
01000000
00100000
10000000
00000000
,
01000000
00010000
00001000
00000000
00010000
00001000
00011000
00000000
,
00100000
10000000
00010000
00000000
01000000
00100000
10000000
00000000
,
01010000
00101000
00011000
00010010
,
00000011
00000000
00001000
00000020
00000200
00000000
00000000
00000000
,
00000330
00000000
00000000
00000000
,
00000010
00000000
00001000
00000000
00000100
00000010
00000001
00000000
,
00000100
00001000
00010000
00000000
00001000
00000000
00011000
00000000
,
00100000
00000000
00010000
00000000
01000000
00100000
10000000
00100000
,
00020000
00000010
00001000
01030000
,
10000000
00000000
00100000
00010000
00001000
00000000
00010000
01000000
,
00100000
00000000
00001000
00010000
00000010
00000000
00000100
00000001
,
00000010
00000100
00010000
00001000
00010000
00001000
01000000
00100000
,
00010000
00000000
00001000
00000000
00010000
00000000
01000000
00100000
,
00010000
00000000
01000000
00200000
20000000
00000000
00000000
00000000
,
30300000
01000000
00100000
01000000
,
01100000
00000000
00100000
00001000
00010000
00001000
00100000
01000000
,
10000000
00100000
00010000
00010000
00000100
00001000
00000010
00000000
,
00001001
00000000
00000001
00000100
00001000
00010000
00100000
10000000
,
01000000
00100000
00100000
00001000
00000000
00010000
00001000
00000000
,
00020000
00000000
10000000
00100000
,
00032000
00000000
00000010
00010000
,
00003010
00000100
00010000
01000000
,
10000000
00110000
00001000
00001010
,
00000110
00000000
00000010
00010000
00001000
00010000
00000010
00001000
,
00000100
00000010
00001000
00001000
01000000
00010000
00100000
00000000
,
10010000
00000000
10000000
01000000
00010000
00001000
00000100
00000001
,
00000100
00000010
00000010
00010000
00001000
00001000
00010000
00000000
,
00002000
00000000
00000001
00000100
,
00023000
00000000
00100000
00100000
,
00032000
00000000
00020000
00033000
,
00001010
00011000
00110000
01100000
,
10010000
00000000
01000000
00100000
00010000
00000000
00001000
00000000
,
00010000
00000000
01000000
00100000
00010000
00000000
00001000
00000000
,
00010000
00000000
01000000
00100000
00010000
00000000
00001000
00000000
,
00001000
00000000
00000100
00000010
00001000
00000000
00010000
00000000
,
00000010
00001000
00000001
00000000
00000010
00001000
00010000
00000000
,
00000010
00001000
00000001
00000000
00000010
00001000
00010000
00000000
,
00100000
10000000
00010000
00000000
00100000
00010000
00001000
00000100
,
00000010
00001000
00000001
00000000
00000010
00001000
00011000
00000000
,
00011000
00000000
00000000
00000000
;

//---------------dance-double - ----------------
#NOTES:
     dance-double:
     :
     Challenge:
     12:
     0.532,0.603,0.168,0.213,0.075:
00000000
00000000
00000000
00000000
,
00000000
00000000
00000000
00000000
,
00000000
00000000
00000000
00000000
,
00000000
00000000
00000000
00000000
,
00000000
00000000
00000000
00000000
,
00000000
00000000
00000000
00000000
,
00000000
00000000
00000000
00000000
,
00000000
00000000
00000000
00000000
,
00000000
00000000
00000000
00000000
,
00000100
00001000
00010000
00100000
,
20000000
00000000
01000000
30010000
,
00100000
00001000
00010000
00000000
00100000
00000000
01000000
00000000
,
00002000
00000000
00000010
00013000
,
00100000
00010000
00001000
00000000
00000010
00000000
00000100
00000000
,
00020000
00000010
00031000
00000100
,
00000020
00001000
00010030
00001000
,
02000000
00100000
00200000
03300000
,
00110000
00011000
01001000
00010010
,
00001001
00000000
00000100
00000010
00001000
00000100
00010000
00000010
,
00010000
00000000
01000000
00100000
00010000
01000000
00001000
00010000
,
00001000
00000000
00000100
00000010
00001000
00000100
00010000
00000010
,
00010000
00000000
01000000
00100000
00010000
01000000
00001000
00100000
,
00100000
00010000
10000000
01000000
00100000
00010000
00001000
00000000
,
00000010
00001000
00000001
00000100
00000010
00001000
00010000
00000000
,
00100000
00010000
10000000
01000000
00100000
00010000
00001000
00010000
,
00000010
00000001
00000100
00000000
00001000
00010000
00011000
00000000
,
01000000
00100000
01000000
00001000
00010000
00000100
00000010
00000000
,
00001000
00010000
00000100
00010000
00100000
00010000
00001000
00000000
,
00000100
00000010
00000100
00010000
00001000
01000000
00100000
00100000
,
00010000
00001000
00100000
00001000
00000010
00001000
00010000
00000000
,
01000000
00100000
01000000
00000000
00010000
00000100
00000010
00000000
,
00000001
00000100
00000010
00000000
00010000
00001000
00100000
00000000
,
00020000
01000000
00032000
00000010
,
00003200
00000001
00001300
00011000
,
01000000
00100000
01000000
00001000
00010000
00000100
00000010
00000000
,
00001000
00010000
00000100
00010000
00100000
00010000
00001000
00000000
,
00000100
00000010
00000100
00010000
00001000
01000000
00100000
01000000
,
00002000
00100000
00010000
00003100
,
00000001
00000000
00000000
00000000
00000010
00000000
00001000
00000000
00020000
00000000
00000000
01000000
00030000
00000000
00010000
00000000
,
00002000
00000000
00000000
00000100
00003000
00000000
00001000
00000000
00020000
00000000
00000000
01000000
00030000
00000000
00010000
00000000
,
00001000
00000100
00001000
00010000
00100000
10000000
01000000
00010000
,
00001000
00000010
00001000
00000000
00000010
00000001
00000010
00000000
00000001
00000100
00000001
00000000
00001000
00000000
00000100
00000000
,
00010000
00000010
00001000
00000002
00000200
00000000
00000000
00000000
,
00000303
00000010
00000010
00000010
,
00000110
00000000
00000010
00010000
00001000
00010000
00000010
00000010
,
00000001
00000000
00000010
00000000
00001000
00000100
00001000
00000000
00000100
00000000
00010000
00001000
01000000
00000000
00010000
00000000
,
10010000
00000000
10000000
01000000
00010000
00001000
00000010
00000001
,
00000100
00000000
00000010
00001000
00000010
00000000
00010000
00000000
00001000
00010000
00001000
00000000
00010000
00000000
00000000
00000000
,
00002000
00000000
01003000
00010000
00200000
00000000
00301000
01000000
,
00100000
00010000
00001000
00010000
02000000
00000000
03010000
00001000
,
00000010
00000010
00000200
00000000
00001300
00000001
00000100
00000000
,
00000001
00001010
00000100
00101000
,
01100000
00000000
00100000
00001000
00010000
00001000
00100000
00100000
,
10000000
00000000
00100000
00000000
00010000
01000000
00010000
00000000
00100000
00000000
00001000
00010000
00000100
00000000
00001000
00000000
,
00001001
00000000
00000001
00000100
00001000
00010000
01000000
10000000
,
01000000
00000000
00100000
00010000
00100000
00000000
00001000
00000000
00010000
00001000
00010000
00000000
00011000
00000000
00000000
00000000
,
00020000
00000000
00030100
00001000
00001020
00000000
00010030
00000100
,
00000010
00001000
00010000
00001000
00001200
00000000
00001300
00010000
,
00020000
00000000
00002000
00033000
,
00100000
00010000
00100000
00000000
00001000
00010000
00001000
00000000
00000100
00000010
00000100
00000000
00000010
00000000
00001000
00000000
,
00001001
00000000
00000100
00000010
00001000
00000100
00010000
00000010
,
00010000
00000000
01000000
00100000
00010000
01000000
00001000
00100000
,
00001000
00000000
00000100
00000010
00001000
00000100
00010000
00000010
,
00010000
00000000
01000000
00100000
00010000
01000000
00001000
00100000
,
00100000
00010000
10000000
01000000
00100000
00010000
00001000
00000000
,
00000010
00001000
00000001
00000100
00000010
00001000
00010000
00000000
,
00100000
00010000
10000000
01000000
00100000
00010000
00001000
00010000
,
00000010
00000001
00000100
00000000
00001000
00010000
00011000
00000000
,
00011000
00000000
00000000
00000000
;

//---------------dance-single - Copied from----------------
#NOTES:
     dance-single:
     Copied from:
     Edit:
     15:
     0.748,0.753,0.319,0.470,0.381: // measure 1
0000
0000
0000
0000
,  // measure 2
0000
0000
0000
0000
,  // measure 3
2001
0000
0000
3002
0000
0013
0100
1000
,  // measure 4
0100
0010
0001
0200
0000
0310
1000
0001
,  // measure 5
0200
0000
0000
0320
0000
1030
0100
1000
,  // measure 6
0001
0010
0001
0200
0000
0310
1000
0010
,  // measure 7
0200
0000
0000
0301
2000
0000
0000
3100
,  // measure 8
0020
0032
0203
2300
,  // measure 9
3100
0001
2000
0002
0000
0000
3003
0000
,  // measure 10
1001
0101
0110
1001
,  // measure 11
1010
0000
0000
2001
0000
3001
0010
0100
,  // measure 12
1000
0010
0001
2000
0000
3100
0001
0010
,  // measure 13
0002
0000
0000
0023
0000
0130
1000
0001
,  // measure 14
0100
0010
1000
0200
0000
0310
0001
1000
,  // measure 15
2100
0000
0000
3100
0120
0000
0000
0031
,  // measure 16
2001
0000
0000
3001
0201
0000
0000
0310
,  // measure 17
2010
0000
0000
3010
0210
0000
0000
0301
,  // measure 18
1001
0101
0110
1001
,  // measure 19
1000
0100
1000
0000
0001
0010
0001
0000
0100
0000
0010
0100
0010
0000
1000
0000
,  // measure 20
0001
1000
0001
0000
0010
0100
0010
0000
0100
0000
1000
0001
1000
0000
0100
0000
,  // measure 21
0010
0001
1000
0000
0010
0100
0001
0000
0010
0000
0100
1000
0001
0000
0100
0000
,  // measure 22
0010
1000
0010
0000
0100
0001
0100
0000
0010
0000
1000
0100
0010
0000
0001
0000
,  // measure 23
0010
0100
1000
0000
0010
0100
0001
0000
1000
0000
0100
0010
0100
0000
0010
0000
,  // measure 24
0100
1000
0100
0000
0010
0001
0010
0000
0100
0000
1000
0001
0100
0000
0010
0000
,  // measure 25
0100
0001
1000
0000
0100
0010
0001
0000
1000
0000
0010
0100
0001
0000
1000
0000
,  // measure 26
0010
0100
0010
0000
1000
0001
1000
0000
0010
0000
0100
0001
0010
0000
0100
0000
,  // measure 27
1001
0000
0001
0000
1000
0000
0010
0000
0100
0010
0000
0100
0010
0000
1000
0000
,  // measure 28
0001
0000
0100
0000
0001
0000
0010
0000
0001
1000
0000
0010
0100
0000
0001
0000
,  // measure 29
1000
0000
0100
0000
0010
0000
0001
0000
0010
0100
0000
1000
0010
0000
0100
0000
,  // measure 30
0010
0000
1000
0000
0001
0000
0010
0000
0100
1000
0000
0100
1000
0000
0001
0000
,  // measure 31
1000
0010
0100
0002
0000
1003
0001
0010
,  // measure 32
0200
2300
3002
0203
,  // measure 33
0320
0000
0030
2000
0002
0000
0000
0003
,  // measure 34
3010
0000
0100
0000
1000
0000
0001
0000
0100
0010
0000
1000
0000
0000
0010
0000
,  // measure 35
0100
0001
1000
0200
0000
0310
0001
0010
,  // measure 36
1000
0001
0100
1000
0001
0000
1100
0000
,  // measure 37
0100
0010
0001
0020
0000
0130
1000
0010
,  // measure 38
0012
0000
0023
0000
2030
3000
1200
0300
,  // measure 39
1002
0000
0000
0000
0003
0000
0100
0000
0020
0000
0000
1000
0030
0000
0100
0000
,  // measure 40
0002
0000
0000
0100
0000
0003
1000
0000
0020
0000
0000
0001
0030
0000
0010
0000
,  // measure 41
0100
0001
1000
0100
0001
0100
1000
0001
,  // measure 42
1000
0100
1000
0000
0001
0010
0001
0000
0010
0100
0010
0000
0100
1000
0100
0000
,  // measure 43
1002
0000
0000
0100
0200
0000
0000
0000
,  // measure 44
0000
0303
0110
0000
1001
0000
0110
0000
,  // measure 45
1001
0000
0000
0001
0100
0000
0010
0000
1000
0000
0100
0000
0010
0000
0001
0000
,  // measure 46
0010
0100
1000
0000
0010
0000
0100
0000
0010
0000
1000
0000
0001
0000
0100
0000
,  // measure 47
0110
0000
0000
0001
1000
0000
0001
0000
0010
0000
0100
0000
1000
0000
0100
0000
,  // measure 48
0010
0001
0010
0000
0100
0000
1000
0000
0001
0000
1000
0000
0010
0000
0100
0000
,  // measure 49
0010
0000
0000
1000
0001
0000
0100
0000
0010
0000
0000
0100
0010
0000
1000
0000
,  // measure 50
0200
0320
0032
2003
,  // measure 51
3010
0000
0100
0000
1000
0000
0100
0000
0001
0000
0000
0100
0010
0000
1000
0000
,  // measure 52
2100
3020
1000
0001
,  // measure 53
1030
0000
0000
0100
0010
0000
0001
0000
1000
0000
0010
0000
0100
0000
0001
0000
,  // measure 54
1000
0100
1000
0000
0010
0000
0100
0000
0010
0000
1000
0000
0100
0000
0010
0000
,  // measure 55
0101
0000
0000
1000
0001
0000
0010
0000
0100
0000
0010
0000
0001
0000
1000
0000
,  // measure 56
0010
0100
0010
0000
1000
0000
0001
0000
0100
0000
0010
0000
1000
0000
0001
0000
,  // measure 57
0100
0000
0000
1000
0100
0000
0010
0000
1010
0000
0000
1000
0001
0000
0010
0000
,  // measure 58
1100
0000
0000
0100
0010
0000
0001
0000
0011
0000
0000
0001
0100
0000
0010
0000
,  // measure 59
1010
0000
0000
1000
0001
0000
0100
0000
0220
0000
0000
0000
0000
0000
0330
0000
,  // measure 60
1000
0010
0100
0000
0001
1000
0100
0000
0010
0001
1000
0000
0100
1000
0001
0000
,  // measure 61
1000
0100
1000
0000
0001
0010
0001
0000
0100
0000
0010
0100
0010
0000
1000
0000
,  // measure 62
0001
1000
0001
0000
0010
0100
0010
0000
0100
0000
1000
0001
1000
0000
0100
0000
,  // measure 63
0010
0001
1000
0000
0010
0100
0001
0000
0010
0000
0100
1000
0001
0000
0100
0000
,  // measure 64
0010
1000
0010
0000
0100
0001
0100
0000
0010
0000
1000
0100
0010
0000
0001
0000
,  // measure 65
0010
0100
1000
0000
0010
0100
0001
0000
1000
0000
0100
0010
0100
0000
0010
0000
,  // measure 66
0100
1000
0100
0000
0010
0001
0010
0000
0100
0000
1000
0001
0100
0000
0010
0000
,  // measure 67
0100
0000
1000
0000
0100
0000
0001
0000
0010
0000
1000
0000
0010
0001
0100
0000
,  // measure 68
0010
1000
0001
0010
0100
1000
0010
0100
0001
0010
0100
1000
0010
0000
1000
0000
,  // measure 69
1001
0000
0000
0000
;
