#TITLE:2020;
#SUBTITLE:;
#ARTIST:Ω;
#TITLETRANSLIT:2020;
#SUBTITLETRANSLIT:;
#ARTISTTRANSLIT:Omega;
#GENRE:;
#CREDIT:;
#BANNER:;
#BACKGROUND:;
#LYRICSPATH:;
#CDTITLE:;
#MUSIC:2020.mp3;
#OFFSET:-0.260000;
#SAMPLESTART:11.079986;
#SAMPLELENGTH:12.000000;
#SELECTABLE:YES;
#BPMS:0.000000=148.009995
;
#STOPS:
;
#BGCHANGES:;
#KEYSOUNDS:;
#ATTACKS:;

//---------------dance-single - ----------------
#NOTES:
     dance-single:
     :
     Hard:
     15:
     0.691354,0.999421,0.076682,0.604935,0.796640,568.000000,559.000000,9.000000,71.000000,0.000000,0.000000,0.691354,0.999421,0.076682,0.604935,0.796640,568.000000,559.000000,9.000000,71.000000,0.000000,0.000000:
0000
0000
0000
0000
,
1000
0020
0000
0200
0030
0002
0300
0020
,
0003
0200
0030
2000
0300
0200
3000
0002
,
0300
0200
0003
2000
0300
0020
3000
0002
,
0030
2000
0003
0200
3000
0020
0300
1030
,
0001
0200
0000
0002
0300
0020
0003
2000
,
0030
0002
3000
0200
0003
2000
0300
0020
,
3000
0200
0030
0002
0300
2003
0000
0020
,
3000
0200
0030
2000
0300
0200
3000
0301
,
1000
0010
0100
0001
0010
0100
1000
0010
,
1000
0001
0010
0001
1000
0100
1000
0010
,
0100
0000
0010
1000
0001
0000
1000
0001
0100
0000
0001
0000
0010
0000
0100
0000
,
1000
0010
0100
0001
1000
0100
0010
0100
,
1000
0000
0001
0010
0100
0000
1000
0010
0100
0000
0001
1000
0001
0000
0010
1000
,
0001
0000
0100
1000
0100
0000
1000
0001
0010
0000
0001
0100
0010
0000
1000
0010
,
0100
0000
0001
0010
0100
0000
1000
0001
1000
0000
0010
0100
0001
0000
0010
0100
,
1000
0000
1001
0000
0000
0000
0001
0100
0010
0000
0110
0000
0000
0000
0010
0000
,
0200
0000
0000
0000
0302
0000
0000
0000
1003
0000
0000
1000
0000
0000
0010
0000
,
0100
0000
0000
0001
2000
0000
0000
0000
3100
0000
0000
0100
0000
0000
0010
0001
,
1000
0000
0000
1000
0020
0000
0000
0000
0130
0000
0000
0100
0000
0000
0010
0000
,
1000
0000
0000
0100
2000
0000
0000
0000
3100
0000
0010
0001
1000
0000
0010
0100
,
0002
0000
1000
0000
2003
0000
0000
0000
3001
0000
0000
1000
0001
0000
0001
0000
,
0010
0000
0100
0010
0002
0000
0000
0000
0013
0000
0000
0001
1000
0000
0100
1000
,
0010
0000
0000
0010
0200
0000
0000
0000
0310
0000
0000
1000
0001
0000
0100
0001
,
1000
0000
0000
0010
0200
0000
0000
0000
0301
0000
1000
0001
0100
0000
0000
0000
,
0100
0001
0000
1000
0010
0000
1000
0001
0000
0001
0000
0010
0100
1000
0000
0010
,
0100
0001
0000
1000
0010
0000
1000
0100
0000
0010
0000
0010
0001
0000
1000
0000
,
0100
0010
0000
0001
1000
0000
0010
0100
0000
0100
0000
0010
1000
0001
0000
0100
,
0001
0000
0000
1000
0000
0000
0000
0000
0000
0010
0000
0000
0100
0000
0000
0000
0000
0000
0001
0000
0000
0010
0000
0000
0000
0000
0000
0100
0000
0000
1000
0000
0001
0000
1000
0000
0001
0000
0000
0000
0000
0000
0100
0000
0000
0000
0000
0000
,
0010
1000
0000
0001
0100
0000
0001
1000
0000
1000
0000
0100
0010
0001
0000
0100
,
0010
1000
0000
0001
0100
0000
0001
0010
0000
0100
0000
0100
1000
0000
0001
0000
,
0010
0100
0000
1000
0001
0000
0100
0010
0000
0010
0000
0100
0001
1000
0000
0010
,
1000
0000
0000
0001
0000
0000
0000
0000
0000
0010
0000
0000
0100
0000
0000
0000
0000
0000
1000
0000
0100
0000
0010
0000
0000
0000
0000
0000
0000
0000
0001
0000
0000
0000
0000
0000
1000
0000
0000
0000
0000
0000
0001
0000
0000
0000
0000
0000
,
0110
0200
0000
0002
0300
0020
0003
2000
,
0030
0000
0200
0000
3000
0000
0002
0000
0300
0000
2000
0000
0003
0000
3010
0100
,
0001
1000
0100
0000
1010
0000
0010
0100
,
0001
0000
0010
0000
1100
1000
0100
0010
,
0011
0000
0100
0000
0110
0000
0010
1000
,
0001
0000
0010
0000
1001
0100
0010
1000
,
0001
0000
1000
0000
0101
0000
0100
0010
,
1000
0002
0000
0200
0003
0020
0300
1030
,
0001
0010
0000
0100
1000
0010
0000
1000
0001
0000
1000
0010
0000
0100
0010
0000
,
0001
0010
0000
1000
0001
0000
0010
0000
0100
1000
0001
0000
0010
0100
0000
1000
,
0001
0100
0000
0010
1000
0001
0000
0100
0001
0000
1000
0010
0000
1000
0100
0000
,
0001
0010
0000
0100
1000
0000
0001
0000
1000
0010
0100
0000
0001
1000
0000
0010
,
0100
0001
0000
1000
0010
0100
0000
0001
0010
0000
0001
1000
0000
0010
0100
0000
,
0001
1000
0000
0010
0100
0000
0001
0000
0010
0100
1000
0000
0010
0100
0000
0001
,
1000
0100
0000
0010
0001
0100
0000
0001
1000
0000
0001
0010
0000
0001
1000
0000
,
0100
0010
0000
0100
1000
0000
0010
1000
0010
0100
0001
0010
0001
0100
0010
1000
,
0020
0000
1000
0000
2030
0000
0000
0000
3001
0000
0000
1000
0001
0000
0100
0000
,
0010
0000
0000
1000
0002
0000
0000
0000
0013
0000
0000
0001
1000
0000
0100
1000
,
0001
0000
0000
0001
0200
0000
0000
0000
0310
0000
0000
1000
0010
0000
0100
0000
,
0001
0000
0000
0010
0002
0000
0000
0000
0013
0000
0100
1000
0001
0000
0100
0010
,
2000
0000
0001
0000
3002
0000
0000
0000
1003
0000
0000
0001
1000
0000
1000
0000
,
0010
0000
0000
0010
2000
0000
0000
0000
3100
0000
1000
0000
0001
0100
0010
1000
,
0001
0000
0000
0100
0020
0000
0000
0000
0130
0000
0000
0001
1000
0000
0010
1000
,
0001
0000
0000
0100
0020
0000
0000
0000
1030
0000
0001
1000
0010
0000
0000
0000
,
0200
0000
0000
0000
0302
0000
0000
0000
1003
0000
0000
1000
0000
0000
0001
0000
,
0100
0000
0000
0000
0020
0000
0000
0000
0130
0000
0000
0100
0000
0000
0001
0000
,
0010
0000
0000
0000
0200
0000
0000
0000
1300
0000
0000
1000
0000
0000
0100
0000
,
0010
0000
0000
0000
0002
0000
0000
0000
1003
0000
1000
0010
0100
0000
0010
0100
,
0002
0000
0000
0000
2003
0000
0000
0000
3010
0000
0000
0010
0000
0000
0100
0000
,
0001
0000
0000
0000
2000
0000
0000
0000
3100
0000
0000
0100
0000
0000
0010
0000
,
0001
0000
0000
0000
0020
0000
0000
0000
0031
0000
0000
0001
0000
0000
1000
0000
,
0001
0000
0200
0000
0010
0000
0020
0330
,
0100
0000
0000
0010
0000
0000
1000
0000
0000
0001
0000
0000
1000
0000
0000
0100
0000
0000
1000
0000
0000
0001
0000
0000
0010
0000
0000
0001
0000
0000
0100
0000
0000
0010
0000
0000
0100
0000
0001
0000
1000
0000
0001
0000
0000
0010
0000
0000
,
0100
0000
0000
1000
0000
0000
0001
0000
0000
1000
0000
0000
0010
0000
0000
0100
0000
0000
0010
0000
0000
1000
0000
0000
0100
0000
0000
1000
0000
0000
0001
0000
0000
0010
0000
0000
0001
0000
0000
0000
0000
0000
0100
0000
0010
0000
1000
0000
,
0001
0000
0000
0010
0000
0000
0001
0000
0000
1000
0000
0000
0010
0000
0000
1000
0000
0000
0100
0000
0000
0010
0000
0000
0100
0000
0000
1000
0000
0000
0001
0000
0000
0010
0000
0000
0001
0000
0010
0000
0001
0000
0100
0000
0000
1000
0000
0000
,
0100
0000
0000
0010
0000
0000
1000
0000
0000
0001
0000
0000
0100
0000
0000
1000
0000
0000
0100
0000
0000
0010
0000
0000
0001
0000
0000
0010
0000
0000
0100
0000
0000
0000
0000
0000
0001
0000
0000
0000
0000
0000
1000
0000
0001
0000
0010
0000
,
0100
0000
0000
0000
;

//---------------dance-single - ----------------
#NOTES:
     dance-single:
     :
     Medium:
     11:
     0.500258,0.559512,0.034081,0.153364,0.144844,411.000000,407.000000,4.000000,18.000000,0.000000,0.000000,0.500258,0.559512,0.034081,0.153364,0.144844,411.000000,407.000000,4.000000,18.000000,0.000000,0.000000:
0000
0000
0000
0000
,
0001
0010
0000
0100
0000
1000
0000
0010
,
0000
0100
0000
0001
0000
1000
0000
0010
,
0000
1000
0000
0001
0000
0010
0000
0001
,
0000
1000
0000
0100
0000
1000
0000
0010
,
0100
0001
0000
0010
0000
0100
0000
1000
,
0000
0010
0000
0100
0000
0001
0000
1000
,
0000
0010
0000
0100
0000
0001
0000
0010
,
0000
0001
0000
1000
0000
0100
0000
1000
,
0001
0010
0001
1000
0010
1000
0001
0100
,
0001
0010
0100
0010
0001
1000
0100
1000
,
0010
0100
0010
1000
0001
0010
0001
1000
,
0100
1000
0010
0100
0010
1000
0001
0100
,
0001
0010
0100
1000
0010
0100
0001
1000
,
0100
0010
0100
1000
0010
0100
0010
1000
,
0100
0010
0001
0010
0100
0010
0001
1000
,
0010
0010
0000
0100
0001
0001
0000
1000
,
0020
0000
0000
0000
0030
0000
0000
0000
1000
0000
0000
1000
0000
0000
0010
0000
,
0200
0000
0000
0000
0300
0000
0000
0000
0001
0000
0000
0001
0000
0000
0010
0000
,
0200
0000
0000
0000
0300
0000
0000
0000
1000
0000
0000
1000
0000
0000
0100
0000
,
0020
0000
0000
0000
0030
0000
0000
0000
0001
0000
0000
0001
0000
0000
0100
0000
,
0020
0000
0000
0000
0030
0000
0000
0000
1000
0000
0000
1000
0000
0000
0001
0000
,
0200
0000
0000
0000
0300
0000
0000
0000
0010
0000
0000
0010
0000
0000
1000
0000
,
0002
0000
0000
0000
0003
0000
0000
0000
0010
0000
0000
0010
0000
0000
0100
0000
,
2000
3000
1001
0000
,
1000
0001
0000
1000
0001
0000
0100
0000
0010
0000
1000
0000
0001
0000
1000
0000
,
0001
0010
0000
0100
1000
0000
0100
0000
0010
0000
0001
0000
0010
0000
0100
0000
,
1000
0100
0000
1000
0100
0000
0010
0000
0001
0000
1000
0000
0010
0000
0100
0000
,
0001
1000
0000
0010
0100
0000
0001
0000
0010
0000
0100
0000
1000
0000
0100
0000
,
0010
0001
0000
0010
0001
0000
1000
0000
0010
0000
1000
0000
0001
0000
0100
0000
,
0010
1000
0000
0010
0100
0000
0001
0000
0010
0000
0100
0000
0010
0000
0001
0000
,
1000
0010
0000
1000
0010
0000
0100
0000
0001
0000
0010
0000
0001
0000
1000
0000
,
0010
0100
0000
0010
0100
0000
0001
0000
1000
0000
0010
0000
0100
0000
0001
0000
,
1000
0100
0000
0010
0000
0001
0000
1000
,
0000
0010
0000
0100
0000
0001
0000
1000
,
0001
1000
0010
0000
0100
0000
0010
0100
,
0001
0000
0010
0000
0100
1000
0001
0100
,
0110
0000
0010
0000
1010
0000
1000
0001
,
0100
0000
0001
0000
1000
0010
1000
0001
,
0010
0000
0100
0000
1000
0000
0010
0100
,
0001
1000
0000
0010
0000
0100
0000
0001
,
0010
0100
1000
0100
0010
0001
1000
0100
,
0010
0001
0010
0100
1000
0100
0010
0100
,
1000
0010
0100
0001
1000
0010
0100
0001
,
0010
0001
1000
0100
1000
0010
0100
0010
,
1000
0001
1000
0010
1000
0100
1000
0010
,
1000
0001
1000
0010
0100
0001
0100
0010
,
0100
0001
1000
0010
1000
0100
0010
0001
,
1000
0010
1000
0001
0010
0001
1000
0100
,
2000
0000
0000
0000
3000
0000
0000
0000
0001
0000
0000
0001
0000
0000
0100
0000
,
0020
0000
0000
0000
0030
0000
0000
0000
1000
0000
0000
1000
0000
0000
0001
0000
,
0200
0000
0000
0000
0300
0000
0000
0000
0010
0000
0000
0010
0000
0000
1000
0000
,
0002
0000
0003
0000
0010
0001
0010
0100
,
2000
0000
0000
0000
3000
0000
0000
0000
0100
0000
0000
0100
0000
0000
0010
0000
,
0002
0000
1003
0000
0000
0010
0000
0000
,
0100
0000
0000
0000
0000
0000
0000
0000
0010
0000
0000
0010
0000
0000
1000
0000
,
0002
0003
1001
0000
,
0200
0000
0000
0000
0310
0000
0000
0000
1000
0000
0000
0001
0000
0000
0010
0000
,
0100
0000
0000
0000
1000
0000
0000
0000
0100
0000
0000
0010
0000
0000
0001
0000
,
0100
0000
0000
0000
0010
0000
0000
0000
1000
0000
0000
0001
0000
0000
1000
0000
,
0010
0000
0100
0000
0001
0010
0100
0010
,
0002
0000
0000
0000
1003
0000
0000
0000
0010
0000
0000
0100
0000
0000
0010
0000
,
1000
0000
0000
0000
0001
0000
0000
0000
0100
0000
0000
0010
0000
0000
1000
0000
,
0100
0000
0000
0000
0010
0000
0000
0000
0001
0000
0000
1000
0000
0000
0010
0000
,
0100
0001
0010
0100
,
1000
0001
1000
0001
0100
0001
0010
0100
,
0010
1000
0010
0100
0010
0001
0100
0010
,
0001
0010
1000
0100
0001
0100
1000
0010
,
0100
1000
0100
0001
1000
0010
0100
0001
,
2000
3000
0000
0000
0000
0000
0000
0000
;

//---------------dance-single - ----------------
#NOTES:
     dance-single:
     :
     Easy:
     4:
     0.320116,0.382824,0.017040,0.170404,0.000000,263.000000,261.000000,2.000000,20.000000,0.000000,0.000000,0.320116,0.382824,0.017040,0.170404,0.000000,263.000000,261.000000,2.000000,20.000000,0.000000,0.000000:
0000
0000
0000
0000
,
1000
0100
0000
0000
0000
0001
0000
0000
,
0000
0010
0000
0000
0000
0001
0000
0000
,
0000
0001
0000
0000
0000
0100
0000
0000
,
0000
0001
0000
0000
0000
0001
0000
0000
,
0010
0000
0000
0100
0000
0000
0000
0001
,
0000
0000
0000
0010
0000
0000
0000
0001
,
0000
0000
0000
0010
0000
0000
0000
0100
,
0000
0000
0000
0001
0000
0000
0000
0001
,
1000
0010
1000
0000
0001
0100
0001
0000
,
1000
0001
1000
0000
0001
0100
0010
0000
,
0100
0001
1000
0100
,
0010
0001
0100
0010
,
1000
0001
0100
0001
,
1000
0100
1000
0100
,
0010
0001
0100
0010
,
0200
0300
0002
0003
,
2000
0000
3000
0000
0001
0000
0000
0100
,
0020
0000
0030
0000
1000
0000
0000
0100
,
0020
0000
0030
0000
0001
0000
0000
0010
,
0200
0000
0300
0000
1000
0000
0000
0010
,
0200
0000
0300
0000
0001
0000
0000
1000
,
0020
0000
0030
0000
0100
0000
0000
0001
,
2000
0000
3000
0000
0100
0000
0000
0010
,
0002
0003
1001
0000
,
0001
1000
0100
0010
,
0001
0100
0010
1000
,
0001
0010
0001
1000
,
0100
1000
0010
0100
,
0010
1000
0001
0100
,
0010
0100
0001
0010
,
0100
1000
0100
0010
,
0001
0100
0010
0100
,
0001
0000
0000
0100
0000
0000
0000
0001
,
0000
0000
0000
0010
0000
0000
0000
0000
,
1000
0100
0010
0000
0001
0000
0010
0100
,
1000
0000
0001
0000
1000
0001
1000
0001
,
0010
0000
0100
0000
1000
0000
0100
0010
,
0001
0000
0100
0000
0010
1000
0010
1000
,
0010
0000
0100
0000
0001
0000
1000
0001
,
1000
0000
0000
0100
0000
0000
0000
0000
,
0100
0001
1000
0001
,
0010
0000
0100
0000
1000
0010
1000
0000
,
0001
0100
0001
1000
,
0010
0000
0100
0000
0001
0100
0001
0000
,
1000
0001
0100
0010
,
1000
0000
0100
0000
0010
0001
0010
0000
,
0100
1000
0001
0100
,
0010
0000
1000
0000
0100
0000
0010
0001
,
0020
0000
0030
0000
1000
0000
0000
0010
,
0200
0000
0300
0000
0001
0000
0000
1000
,
0020
0000
0030
0000
0100
0000
0000
0001
,
2000
3000
0100
1000
,
0002
0000
0003
0000
0010
0000
0000
0100
,
2000
0000
3001
0000
0000
0100
0000
0000
,
0010
0000
0000
0000
0100
0000
0000
0001
,
2000
3000
1001
0000
,
0020
0000
0130
0000
0001
0000
0010
0100
,
0010
0000
0001
0000
0010
0000
0100
1000
,
0100
0000
0010
0000
0001
0000
1000
0001
,
1000
0000
0010
0000
0100
0010
0100
0010
,
2000
0000
3001
0000
0100
0000
0001
0100
,
0001
0000
1000
0000
0010
0000
1000
0001
,
1000
0000
0100
0000
0010
0000
0001
0010
,
0001
1000
0010
0100
,
0001
1000
0001
0000
0010
0000
0100
0000
,
1000
0100
1000
0000
0100
0000
0010
0000
,
0001
0100
0001
0000
1000
0000
0001
0000
,
0010
0001
0010
0000
1000
0000
0010
0000
,
0002
0003
0000
0000
0000
0000
0000
0000
;

//---------------dance-single - ----------------
#NOTES:
     dance-single:
     :
     Beginner:
     2:
     0.171621,0.176688,0.017040,0.170404,0.000000,141.000000,139.000000,2.000000,20.000000,0.000000,0.000000,0.171621,0.176688,0.017040,0.170404,0.000000,141.000000,139.000000,2.000000,20.000000,0.000000,0.000000:
// measure 0
0000
0000
0000
0000
,  // measure 1
0001
0000
0000
0000
0000
1000
0000
0000
,  // measure 2
0000
0100
0000
0000
0000
1000
0000
0000
,  // measure 3
0000
1000
0000
0000
0000
0010
0000
0000
,  // measure 4
0000
1000
0000
0000
0000
1000
0000
0000
,  // measure 5
0100
0000
0000
0010
0000
0000
0000
1000
,  // measure 6
0000
0000
0000
0100
0000
0000
0000
1000
,  // measure 7
0000
0000
0000
0100
0000
0000
0000
0010
,  // measure 8
0000
0000
0000
1000
0000
0000
0000
0000
,  // measure 9
0001
0000
1000
0000
,  // measure 10
0001
0000
1000
0000
,  // measure 11
0010
0000
0001
0000
,  // measure 12
0100
0000
0010
0000
,  // measure 13
0001
0000
0010
0000
,  // measure 14
0001
0000
0001
0000
,  // measure 15
0100
0000
0010
0000
,  // measure 16
0020
0030
2000
3000
,  // measure 17
0002
0003
1000
0000
,  // measure 18
0200
0300
0001
0000
,  // measure 19
0200
0300
1000
0000
,  // measure 20
0020
0030
0001
0000
,  // measure 21
0020
0030
1000
0000
,  // measure 22
0200
0300
0010
0000
,  // measure 23
0002
0003
0010
0000
,  // measure 24
2000
3000
1001
0000
,  // measure 25
1000
0000
0010
0000
,  // measure 26
1000
0000
0100
0000
,  // measure 27
1000
0000
1000
0000
,  // measure 28
0010
0000
0100
0000
,  // measure 29
0100
0000
1000
0000
,  // measure 30
0100
0000
1000
0000
,  // measure 31
0010
0000
0010
0000
,  // measure 32
1000
0000
0100
0000
,  // measure 33
1000
0000
0000
0010
0000
0000
0000
1000
,  // measure 34
0000
0000
0000
0100
0000
0000
0000
0000
,  // measure 35
0001
0000
1000
0000
,  // measure 36
0001
0000
0001
0000
,  // measure 37
0100
0000
0001
0000
,  // measure 38
1000
0000
0100
0000
,  // measure 39
0010
0000
1000
0000
,  // measure 40
0001
0000
0000
0010
0000
0000
0000
0000
,  // measure 41
0010
0000
0001
0000
,  // measure 42
0100
0000
0001
0000
,  // measure 43
1000
0000
1000
0000
,  // measure 44
0100
0000
1000
0000
,  // measure 45
0001
0000
0010
0000
,  // measure 46
0001
0000
0100
0000
,  // measure 47
0010
0000
1000
0000
,  // measure 48
0100
0000
0010
0000
,  // measure 49
0200
0300
0001
0000
,  // measure 50
0020
0030
1000
0000
,  // measure 51
0200
0300
0010
0000
,  // measure 52
0002
0003
0010
0001
,  // measure 53
2000
3000
0100
0000
,  // measure 54
0002
1003
0000
0000
,  // measure 55
0100
0000
0010
0000
,  // measure 56
0002
0003
1001
0000
,  // measure 57
0200
0300
1000
0000
,  // measure 58
0100
0000
0100
0000
,  // measure 59
0010
0000
1000
0000
,  // measure 60
0001
0000
0100
0000
,  // measure 61
0002
1003
0000
1000
,  // measure 62
0000
0001
0000
0001
,  // measure 63
0000
0010
0000
1000
,  // measure 64
0000
0001
0000
0010
,  // measure 65
0000
1000
0000
0010
,  // measure 66
0000
0001
0000
0100
,  // measure 67
0000
1000
0000
1000
,  // measure 68
0000
0100
0000
0001
,  // measure 69
2000
3000
0000
0000
0000
0000
0000
0000
;
