#TITLE:19, November;
#SUBTITLE:;
#ARTIST:good-cool;
#TITLETRANSLIT:;
#SUBTITLETRANSLIT:;
#ARTISTTRANSLIT:;
#CREDIT:;
#BANNER:19, November.png;
#BACKGROUND:19, November-bg.png;
#LYRICSPATH:;
#CDTITLE:./CDTITLES/BEATMANIA IIDX.PNG;
#MUSIC:19, November.mp3;
#OFFSET:-1.398;
#SAMPLESTART:55.110;
#SAMPLELENGTH:12.000;
#SELECTABLE:YES;
#DISPLAYBPM:125.000;
#BPMS:0.000=125.000;
#STOPS:;
#BGCHANGES:;

//---------------dance-single - ----------------
#NOTES:
     dance-single:
     :
     Beginner:
     1:
     0.136,0.193,0.121,0.000,0.000:
0000
0000
0000
0000
,
0000
0000
0000
0000
,
0000
0000
0000
0000
,
0000
0000
0000
0000
,
0000
0010
0000
0001
,
0000
0100
0000
1000
,
0000
1000
0000
0001
,
0000
1001
0000
0000
,
0010
0000
0010
0000
,
0001
0000
1000
0000
,
1000
0000
0100
0000
,
1001
0000
0000
0000
,
0100
0000
1000
0000
,
0010
0000
0100
0000
,
0100
0000
1000
0000
,
0001
0000
1001
0000
,
0001
0000
1000
0000
,
0001
0000
1000
0000
,
0001
0000
0001
0000
,
0100
0000
1000
0000
,
0110
0000
0110
0000
,
0110
0000
0001
0000
,
1000
0000
0001
0000
,
1000
0000
1000
0000
,
0010
0000
0001
0000
,
0001
0000
1000
0000
,
0110
0000
0110
0000
,
1000
0000
0110
0000
,
1000
0000
0001
0000
,
0010
0000
1000
0000
,
0001
0000
1000
0000
,
0100
0000
0001
0000
,
1000
0000
0001
0000
,
0100
0000
0001
0000
,
0010
0000
0100
0000
,
1001
0000
1001
0000
,
1001
0000
0000
0000
,
0100
0000
0000
0000
,
1000
0000
0000
0000
,
0001
0000
0000
0000
,
1000
0000
0000
0000
,
1000
0000
0000
0000
,
0001
0000
0000
0000
,
0001
0000
0100
0000
,
1001
0000
0100
0000
,
0001
0000
0100
0000
,
1000
0000
0001
0000
,
1000
0000
0001
0000
,
1001
0000
0000
0001
,
0000
1000
0000
1000
,
0000
0001
0000
1000
,
0000
0010
0000
0100
,
0000
0001
0000
1000
,
0000
0100
0000
1000
,
0000
0001
0000
0100
,
0000
0100
0000
0100
,
0000
1000
0000
0010
,
0000
1000
0000
1000
,
0000
1000
0000
1000
,
0000
0001
0000
1001
;

//---------------dance-single - ----------------
#NOTES:
     dance-single:
     :
     Easy:
     3:
     0.250,0.319,0.153,0.145,0.000:
0000
0000
0000
0000
,
0000
0000
0000
0000
,
0000
0000
0000
0000
,
0000
0000
0000
0000
,
0000
0010
0000
0001
,
0000
0100
0000
1000
,
0000
1000
0000
0001
,
0000
1001
0000
0000
,
0010
0010
0010
0001
,
0001
0001
1000
1000
,
1000
0001
0100
1000
,
2002
0000
0000
3003
,
0100
0010
1000
0100
,
0010
0001
0100
0001
,
0200
0300
2000
0000
,
3001
1000
1001
1001
,
0001
0100
1000
0100
,
0001
0100
1000
1000
,
0001
1000
0001
0001
,
0100
0100
1000
1000
,
0110
0001
0110
1000
,
0220
0330
0001
0001
,
1000
0010
0001
0200
,
1000
0001
1300
1000
,
0010
0001
0001
1000
,
0001
0001
1000
1000
,
1100
0000
0101
0000
,
1000
0001
1100
0101
,
1000
1000
0002
0003
,
0010
0100
1000
1000
,
0001
0001
2000
3000
,
0100
0010
0002
0000
,
1003
0100
0001
0001
,
0100
1000
0001
1000
,
0010
0010
0100
0100
,
1001
0000
1001
0000
,
1001
0000
0000
0000
,
0100
0002
0000
0003
,
1000
0200
0000
0300
,
0001
0020
0000
0030
,
1000
0200
0000
0300
,
1000
0020
0000
0030
,
0001
2000
0000
3000
,
0001
1000
0100
0100
,
1001
0000
0100
0000
,
0001
0000
0100
0000
,
1000
0100
0001
0010
,
1000
1000
0001
0001
,
1001
0001
0000
0001
,
0000
1000
0000
1000
,
0001
0001
1000
1000
,
0010
0010
0100
0100
,
1001
0001
1001
1000
,
0100
0100
1000
1000
,
0001
0001
0100
0100
,
0001
0100
0001
0100
,
1000
1000
0010
0010
,
0001
1000
0001
1000
,
0100
1000
0100
1000
,
0100
0001
0010
2002
,
0000
0000
0000
3003
;

//---------------dance-single - ----------------
#NOTES:
     dance-single:
     :
     Medium:
     5:
     0.318,0.343,0.113,0.178,0.000:
0000
0000
0000
0000
,
0000
0000
0000
0000
,
0000
0000
0000
0000
,
0000
0000
0000
0000
,
1000
0001
1000
0000
0200
0000
0300
0000
,
0001
1000
0001
0000
0200
0000
0300
0000
,
0010
0100
0010
0000
2000
0000
3000
0000
,
0010
0100
0010
0000
0002
0000
0003
0000
,
0001
1000
0001
0000
0000
0001
1000
0000
,
0100
0010
0100
0000
0000
0100
0010
0000
,
0001
1000
0001
0000
0000
0001
1000
0000
,
0010
0100
0010
0100
0000
1000
0001
0000
,
0001
0110
1000
0001
,
0100
0010
1000
0001
,
0010
1000
0010
0001
,
1000
0000
0001
0000
0100
0000
1000
0010
,
1000
0110
0001
1000
,
0100
0010
0001
1000
,
0010
0001
0010
1000
,
0001
0000
1000
0000
0100
0000
0001
1000
,
0001
0000
0100
0000
1000
0000
0100
0001
,
1000
0000
0010
0000
0100
0000
0010
1000
,
0100
0000
0001
0000
1000
0000
0010
0001
,
0100
0000
1000
0000
0010
0000
0100
0001
,
0010
0000
0100
0000
0001
0000
1000
0100
,
0001
0000
0100
0000
1000
0000
0001
0100
,
1000
0000
0100
0000
0001
0000
1000
0001
,
1000
0000
0100
0000
0000
0010
0010
0000
,
1000
0010
1000
0010
2000
0000
0000
0000
,
0001
3002
1000
0000
,
1003
0100
1000
0100
2000
0000
0000
0000
,
0001
3002
1000
0000
,
0103
0010
0100
0010
0200
0000
0000
0000
,
0010
0320
0100
0000
,
0031
0100
0001
0100
0002
0000
0000
0000
,
1000
2003
3002
2003
,
3001
0001
0001
0001
,
0101
1000
1000
1000
,
1100
0010
0010
0010
,
0011
0001
0001
0001
,
0101
0010
1000
0100
,
1001
0010
0001
0100
,
1001
1000
0010
0001
,
0110
2000
3002
1003
,
0001
1001
0010
0010
,
0100
0000
0001
0000
0001
1000
0001
0000
,
0100
1001
0010
0010
,
0100
0000
0100
0000
1000
0000
1000
0001
,
1000
0110
1000
1000
,
0001
0000
0001
0000
0010
0000
0010
0100
,
0010
0110
0001
0001
,
1000
0000
1000
0000
0010
0000
0010
0100
,
0010
0010
0002
0000
,
1000
0000
1000
0000
,
0013
0001
2000
0000
,
0001
0000
0001
0000
,
3001
0000
0010
0200
0001
0000
0001
0000
,
0001
1000
1000
1000
,
1300
0000
0010
0200
1000
0000
1000
0000
,
1000
0000
0001
0000
0301
0000
0010
2002
,
0000
0000
0000
3003
;

//---------------dance-single - ----------------
#NOTES:
     dance-single:
     :
     Hard:
     8:
     0.457,0.466,0.291,0.121,0.170:
0000
0000
0000
0000
,
0000
0000
0000
0000
,
0000
0000
0000
0000
,
0000
0000
0000
0000
,
1001
0000
0000
0100
0000
0000
0001
0000
0000
0000
0000
0001
1000
0000
0100
0000
,
1000
0000
0000
0100
0000
0000
2002
0000
0000
0000
0000
0000
3003
0000
0000
0000
,
1001
0000
0000
1000
0000
0000
0010
0000
0000
0000
0000
0010
1000
0000
0100
0000
,
1000
0000
0000
0001
0000
0000
0110
0000
0000
0000
0000
0000
1001
0000
0000
0000
,
1000
0000
0100
0000
1000
0000
0100
1000
0000
1000
0100
0000
0010
0000
0010
0000
,
0001
0000
0010
0000
0001
0000
0010
0001
0000
0001
0010
0000
0100
0000
0100
0000
,
0010
0000
0100
0000
0010
0000
0010
0100
0000
0100
0010
0000
0001
0000
1000
0000
,
1000
0100
0000
1001
0000
0100
1001
0000
,
0001
0000
0000
0100
0000
0000
0100
0000
0010
0000
0000
1000
0000
0000
1000
0000
,
0001
0000
0000
0100
0000
0000
0100
0000
0001
0000
0000
1000
0000
0000
1000
0000
,
0001
0000
1000
0001
0000
0000
0001
0000
0100
0000
0100
0010
0000
0000
0010
0000
,
0010
0000
1000
0001
0000
0000
0001
0000
1000
0000
1000
0000
0001
0000
0001
0000
,
1000
0000
0000
0100
0000
0000
0100
0000
0010
0000
0000
0010
0000
0000
0100
0000
,
0100
0000
0000
1000
0000
0000
1000
0000
0001
0000
0000
0001
0000
0000
1000
0000
,
0001
0000
0001
1000
0000
0000
1000
0000
0100
0000
0100
0010
0000
0000
0010
0000
,
0001
0000
0000
1000
0000
0000
1100
0000
0000
0001
0000
0000
1001
0000
0000
0000
,
0010
0000
0100
0000
0001
0100
0001
0010
,
0000
0220
0000
0000
0330
0000
1000
0001
,
1000
0000
0001
1000
0010
1000
0010
1010
,
0000
1001
0000
1100
0000
0000
1000
0010
,
0100
0000
0001
0010
0100
1000
0010
0100
,
0000
0000
0220
0000
0000
0000
0000
0330
0000
0000
0000
0000
0010
0000
0100
0000
,
0001
0000
1000
0001
1000
0100
0010
0011
,
0000
0010
0001
0100
0000
0001
1001
0000
,
1000
0000
0001
0000
1000
0000
0001
1000
0000
0000
0000
0000
0010
0000
1000
0000
,
0100
0000
0000
0010
0000
0000
0100
0000
0000
0010
0000
0000
0110
0000
0000
0000
,
0001
0000
1000
0000
0001
0000
1000
0001
0000
0000
0000
0000
0100
0000
0010
0000
,
1000
0000
0000
0001
0000
0000
2002
0000
0000
0000
0000
0000
3003
0000
0000
0000
,
0010
0000
0001
0000
1000
0000
0001
1000
0000
0000
0000
0000
0010
0000
1000
0000
,
0010
0000
0000
1000
0000
0000
0001
0000
0000
1000
0000
0000
1001
0000
0000
0000
,
0010
0000
0100
0000
0010
0000
0100
0010
0000
0000
0000
0000
1000
0000
0001
0000
,
2000
0000
3001
0000
0000
0010
0010
0010
,
0001
1000
0100
0010
0001
0100
0010
1000
,
0001
0010
0100
0001
0100
0010
0001
1000
,
0010
1000
0100
0001
0100
1000
0010
0100
,
0001
0010
0001
0100
1000
0100
0010
1000
,
0001
0010
0001
0010
0001
0100
0001
0100
,
0010
0100
0010
0100
0010
1000
0010
1000
,
0100
1000
0100
1000
0100
0001
0100
0001
,
0100
0010
0100
0010
0100
0010
0001
0000
,
1001
0000
0000
1000
0000
0000
0001
0000
1000
0000
0001
0000
0000
0000
0000
0000
,
0010
0100
0001
0100
0010
0100
0001
0000
,
1000
1000
0100
1000
0001
0001
1000
0000
,
0100
0100
0010
0100
1000
1000
0001
0000
,
0110
0000
0000
0010
0000
0000
0100
0000
0010
0000
0100
0000
0000
0000
0000
0000
,
0001
1000
0001
0010
0100
1000
0001
0000
,
1000
1000
0100
0010
0001
0001
0010
0100
,
1000
1000
0010
0100
0010
0100
0010
0000
,
1100
0000
0000
1001
0000
0000
0202
0000
0000
0000
0000
0000
0000
0000
0000
0000
,
0000
0000
0000
0000
0303
0000
0000
0010
,
0011
0000
0000
1001
0000
0000
2200
0000
0000
0000
0000
3300
0000
0000
0000
0000
,
1000
0000
0000
1100
0000
0000
0010
0000
0000
0011
0000
0000
0100
0000
0000
0000
,
1000
0001
1001
0000
0100
0101
0000
0010
,
1000
0100
1100
0000
0100
0110
0000
0001
,
1000
0001
1001
0000
0100
0110
0000
1000
,
0100
0010
0001
0000
0010
0001
0100
0202
,
0000
0000
0000
0303
;

//---------------dance-double - ----------------
#NOTES:
     dance-double:
     :
     Beginner:
     1:
     0.112,0.145,0.048,0.000,0.000:
00000000
00000000
00000000
00000000
,
00000000
00000000
00000000
00000000
,
00000000
00000000
00000000
00000000
,
00000000
00000000
00000000
00000000
,
00000000
00000010
00000000
00000001
,
00000000
00000100
00000000
00000100
,
00000000
00001000
00000000
00010000
,
00000000
00100000
00000000
10000000
,
00000000
10000000
00000000
00010000
,
00000000
00001000
00000000
00000001
,
00000000
00000001
00000000
00001000
,
00000000
00000000
00000000
00000000
,
00000000
01000000
00000000
00010000
,
00000000
00001000
00000000
00000100
,
00000000
00000000
00000000
00000000
,
00001000
00000000
00000000
00000000
,
00000000
00000100
00000000
00001000
,
00000000
00010000
00000000
01000000
,
00000000
00000000
00000000
00000000
,
00010000
00000000
00000000
00000000
,
00011000
00000000
00000000
00000010
,
00000000
00000100
00000000
00001000
,
00000000
00010000
00000000
00100000
,
00000000
01000000
00000000
00100000
,
00000000
00100000
00000000
00010000
,
00000000
00001000
00000000
00000010
,
00000000
00000010
00000000
00001000
,
00000000
00000000
00000000
00000000
,
00100000
00000000
00000000
00000000
,
00010000
00000000
00000000
00000000
,
00000010
00000000
00000000
00000000
,
00001000
00000000
00000000
00000000
,
01000000
00000000
00000000
00000000
,
00010000
00000000
00000000
00000000
,
00000100
00000000
00000000
00000000
,
00001000
00000000
00000000
00000000
,
00010000
00000000
10000000
00000000
,
10000000
00000000
00010000
00000000
,
00001000
00000000
00000001
00000000
,
00000001
00000000
00001000
00000000
,
00010000
00000000
00001000
00000000
,
00000110
00000000
00000000
00000000
,
00001000
00000000
00010000
00000000
,
01100000
00000000
00000000
00000000
,
00100000
00000000
01000000
00000000
,
00001000
00000000
00000001
00000000
,
00000001
00000000
00000001
00000000
,
00000010
00000000
00000010
00000000
,
00000010
00000000
00000100
00000000
,
00010000
00000000
10000000
00000000
,
10000000
00000000
10000000
00000000
,
00100000
00000000
00100000
00000000
,
10010000
00000000
00000000
00000000
,
01000000
00000000
00001000
00000000
,
00001001
00000000
00000000
00000000
,
00000100
00000000
00010000
00000000
,
10000000
00000000
01000000
00000000
,
01000000
00000000
00010000
00000000
,
00001000
00000000
00000100
00000000
,
00000100
00000000
00001000
00000000
,
00011000
00000000
00000000
00000000
;

//---------------dance-double - ----------------
#NOTES:
     dance-double:
     :
     Easy:
     3:
     0.189,0.245,0.081,0.202,0.000:
00000000
00000000
00000000
00000000
,
00000000
00000000
00000000
00000000
,
00000000
00000000
00000000
00000000
,
00000000
00000000
00000000
00000000
,
00000000
00000010
00000000
00000001
,
00000000
00000100
00000000
00000100
,
00000000
00001000
00000000
00010000
,
00000000
00100000
00000000
10000000
,
00000000
10000000
00000000
00010000
,
00000000
00001000
00000000
00000001
,
00000000
00000001
00000000
00001000
,
00020000
00000000
00000000
00030000
,
00000000
01000000
00000000
00010000
,
00000000
00001000
00000000
00000100
,
00000002
00000000
00000003
00000000
,
00002000
00000000
00003000
00000000
,
00000000
00000100
00000000
00001000
,
00000000
00010000
00000000
01000000
,
20000000
00000000
00000000
30000000
,
00020000
00000000
00000000
00030000
,
00011000
00000100
00000000
00000010
,
00000000
00000100
00000000
00001000
,
00011000
00010000
00000000
00100000
,
00000000
01000000
00000000
00100000
,
10010000
00100000
00000000
00010000
,
00000000
00001000
00000000
00000010
,
00001001
00000010
00000000
00001000
,
00022000
00000000
00000000
00033000
,
00200000
00000000
00000000
00300000
,
00020000
00000000
00000000
00030000
,
00000020
00000000
00000000
00000030
,
00002000
00000000
00000000
00003000
,
02000000
00000000
00000000
03000000
,
00020000
00000000
00000000
00030000
,
00000200
00000000
00000000
00000300
,
00002000
00000000
00000000
00003000
,
00010000
00100000
10000000
00000000
,
10000000
01000000
00010000
00000000
,
00001000
00000100
00000001
00000000
,
00000001
00000010
00001000
00000000
,
00010000
00100000
00001000
00000000
,
00000220
00000000
00000000
00000330
,
00001000
00000010
00010000
00000000
,
02200000
00000000
00000000
03300000
,
00100000
10000000
01000000
00010000
,
00001000
00000100
00000001
00000010
,
00000001
00001000
00000001
00001000
,
00000010
00000100
00000010
00000100
,
00000010
00000001
00000100
00001000
,
00010000
01000000
10000000
00100000
,
10000000
00010000
10000000
00010000
,
00100000
01000000
00100000
01000000
,
20200000
00000000
00000000
30300000
,
01000000
00010000
00001000
00000010
,
00000022
00000000
00000000
00000033
,
00000100
00001000
00010000
00100000
,
10000000
00100000
01000000
00000000
,
01000000
00001000
00010000
00000000
,
00001000
00000010
00000100
00000000
,
00000100
00010000
00001000
00000000
,
00022000
00000000
00000000
00033000
;

//---------------dance-double - ----------------
#NOTES:
     dance-double:
     :
     Medium:
     5:
     0.333,0.368,0.234,0.073,0.016:
00000000
00000000
00000000
00000000
,
00000000
00000000
00000000
00000000
,
00000000
00000000
00000000
00000000
,
00000000
00000000
00000000
00000000
,
10000000
00000000
00010000
00000000
01100000
00000000
01000000
00010000
,
01000000
00010000
00011000
00000000
,
00001000
00000000
00000100
00000000
00001001
00000000
00000001
00000100
,
00000001
00000100
00000101
00000000
,
00000010
00000001
00000010
00000000
00001000
00000000
00000001
00000000
,
00000100
00001000
00000100
00000000
00001000
00000000
00000100
00000000
,
00001000
00010000
00001000
00000000
00001000
00000000
00010000
00000000
,
00000000
01000000
00000000
10000000
00000000
01000000
00010000
00000000
,
00100000
00010000
01000000
00010000
,
00100000
00000000
00010000
00000000
01000000
00010000
01000000
00000000
,
00010000
00001000
00010000
00001000
,
00000100
00000000
00000001
00000000
00000100
00001000
00000100
00000000
,
00000001
00000010
00001000
00000010
,
00001000
00000000
00010000
00000000
01000000
00010000
01000000
00000000
,
10000000
01000000
10000000
01000000
,
10000000
00000000
00000000
01000000
00000000
00000000
00010000
00000000
00000000
01000000
00000000
00000000
00010000
00000000
00000000
00000000
,
00011000
00000000
00001000
00000000
00001000
00000100
00001000
00000000
,
00000001
00000100
00000001
00000000
00000100
00000000
00000010
00000000
,
00000100
00000000
00000010
00000000
00001000
00000100
00001000
00000000
,
00010000
00001000
00010000
00000000
00001000
00000000
00010000
00001000
,
00010000
00000000
00011000
00000000
00010000
01000000
00010000
00000000
,
10000000
01000000
10000000
00000000
01000000
00000000
10000000
01000000
,
00010000
00000000
01000000
00000000
00100000
00010000
00001000
00000000
,
00010000
00001000
00000100
00000000
00001000
00000000
00000100
00000000
,
00002000
00000000
00000100
00000000
,
00003100
00001000
00000001
00001000
,
00000100
00000000
00011000
00000000
,
00011000
00000000
01000000
00000000
00100000
00010000
01000000
00000000
,
01100000
00000000
10010000
00000000
,
00010000
01000000
00010000
01000000
,
10000000
01000000
00010000
00000000
00001000
00000000
00000100
00000000
,
00000001
00000010
00000001
00000010
,
00000100
00001000
00000100
00000000
00001000
00010000
00001000
00000000
,
00010000
00000000
00001000
00000000
00000100
00001000
00000100
00000000
,
00000001
00000100
00000001
00000000
00000010
00000100
00000010
00000000
,
00001001
00000000
00000110
00000000
00000010
00000001
00000100
00000000
,
00000100
00001000
00010000
00000000
00001000
00000000
00011000
00000000
,
00010000
01000000
10000000
00000000
10000000
00000000
11000000
00000000
,
01000000
00010000
01000000
00000000
00010000
00000000
01010000
00000000
,
00100000
01000000
00010000
00000000
10010000
00000000
01100000
00000000
,
00020000
00032000
00003200
00000320
,
00000031
00001000
00000100
00000000
00001000
00000001
00000100
00000000
,
00001000
00001001
00000110
00001100
,
00011000
00000000
00010000
00000000
00010000
01000000
10000000
00000000
,
01000000
00000000
01100000
00000000
00100000
10000000
01000000
00000000
,
00100000
00010000
01000000
00000000
00100000
10000000
01000000
00000000
,
00010000
00001000
00010000
00001000
,
00000100
00000000
00000001
00000000
00000001
00000100
00001000
00000000
,
00001000
00000000
00000000
00000100
00000000
00000000
00000002
00000000
00000000
00000000
00000000
00000000
00000000
00000000
00000000
00000000
,
00000000
00000000
00000000
00000000
00000003
00000000
00000000
00000100
,
00001000
00000000
00000000
00010000
00000000
00000000
02000000
00000000
00000000
00000000
00000000
00000000
00000000
00000000
00000000
00000000
,
00000000
00000000
03000000
00000000
,
00100000
10000000
01000000
00000000
10010000
00000000
01100000
00000000
,
00100000
01000000
00010000
00000000
00011000
00000000
00011000
00000000
,
00001000
00000100
00000001
00000000
00000110
00000000
00001001
00000000
,
00000001
00000100
00001000
00000000
00010000
00001000
00010000
00022000
,
00000000
00000000
00000000
00033000
;

//---------------dance-double - ----------------
#NOTES:
     dance-double:
     :
     Hard:
     7:
     0.342,0.368,0.048,0.097,0.065:
00000000
00000000
00000000
00000000
,
00000000
00000000
00000000
00000000
,
00000000
00000000
00000000
00000000
,
00000000
00000000
00000000
00000000
,
00010000
01000000
00010000
00000000
00100000
00000000
01000000
00000000
,
10000000
01000000
00010000
00000000
00001000
00000000
00000100
00000000
,
00000010
00001000
00000100
00000000
00000010
00000000
00000001
00000000
,
00001000
00000001
00001000
00000000
00000010
00000100
00000010
00000000
,
00001000
00000000
00001000
00000000
00000000
00000100
00010000
00000000
,
00001000
00000000
00001000
00000000
00000000
01000000
00010000
00000000
,
10000000
00000000
10000000
00000000
00000000
00100000
01000000
00000000
,
00010000
00100000
01000000
10000000
00000000
00010000
00100000
01000000
,
10000000
00000000
00000000
00010000
00000000
00000000
01000000
00000000
01000000
00000000
00000000
00100000
00000000
00000000
10000000
00000000
,
10000000
00000000
00000000
01000000
00000000
00000000
00100000
00000000
00100000
00000000
00000000
00010000
00000000
00000000
10000000
00000000
,
00020000
00000000
00000000
20000000
00000000
00000000
00030000
00000000
,
00000000
01000000
00000000
31000000
,
00010000
00000000
00000000
00001000
00000000
00000000
00000100
00000000
00000100
00000000
00000000
00000010
00000000
00000000
00001000
00000000
,
00001000
00000000
00000000
00000001
00000000
00000000
00000010
00000000
00000010
00000000
00000000
00000001
00000000
00000000
00001000
00000000
,
00000002
00000000
00000000
00002000
00000000
00000000
00000003
00000000
,
00000000
00000000
00000001
00000000
00000000
00000000
00003001
00000100
,
00000010
00000000
00001000
00000000
00000001
00001000
00000001
00000100
,
00000000
00000020
00000000
00000000
00000000
00000000
00001000
00001000
,
00001030
00000000
00000001
00000000
00000100
00001000
00010000
01000000
,
00000000
10000000
00000000
00020000
00000000
00000000
00100000
00100000
,
00130000
00000000
00001000
00000000
00010000
00001000
00010000
00001000
,
00000000
00020000
00000000
00000000
00000000
00000000
00001000
00001000
,
00031000
00000000
00000100
00000000
00000001
00000010
00000001
00001000
,
00000000
00000010
00000100
00000010
00000000
00001000
00000001
00000000
,
00001000
00000000
00000100
00000000
00001000
00000000
00000001
00000200
00000000
00000000
00000000
00000000
00000000
00000000
00000000
00000000
,
00000000
00000010
00000000
00000010
00000000
00000310
00000000
00000000
,
00001000
00000000
00000001
00000000
00000010
00000000
00000001
00002000
00000000
00000000
00000000
00000000
00000000
00000000
00000000
00000000
,
00000000
00000100
00000000
00000100
00000000
00003100
00000000
00000000
,
00010000
00000000
00001000
00000000
01000000
00000000
00010000
20000000
00000000
00000000
00000000
00000000
00000000
00000000
00000000
00000000
,
00000000
00100000
00000000
00100000
00000000
30100000
00000000
00000000
,
10000000
00000000
00010000
00000000
01000000
00000000
00100000
10000000
00000000
00000000
01000000
00000000
00010000
00000000
00001000
00000000
,
00010000
00000000
00011000
00000000
00000000
00010000
00010000
00010000
,
01000000
10000000
00100000
01000000
00010000
00000000
00010000
00000000
,
10010000
10010000
00000000
00000000
,
00001000
00010000
00001000
00000100
00000001
00000000
00001000
00000000
,
00001001
00001001
00000000
00000000
,
00010000
00000000
00001000
00000000
00010000
00001000
00010000
00000000
,
01000000
00000000
10000000
00000000
00100000
10000000
00100000
00000000
,
01000000
01000000
00010000
00000000
00010000
00010000
10000000
00000000
,
00100000
10000000
01000000
00010000
01000000
10000000
00100000
00010000
,
00100000
01000000
00010000
00100000
,
00010000
10000000
01000000
00000000
10000000
00010000
01000000
00000000
,
00100000
00010000
00001000
00000100
,
00000001
00001000
00000100
00000000
00001000
00000001
00000100
00000000
,
00000010
00001000
00000001
00000000
00001000
00000100
00000010
00000000
,
00000010
00001000
00010000
00000000
00001000
00010000
01000000
00000000
,
00010000
01000000
10000000
00100000
10000000
01000000
00010000
00000000
,
00001000
00000100
00000001
00000010
00000001
00000100
00001000
00000000
,
00010000
00000000
00000000
00000000
00001000
00000000
00000000
00010000
00000000
00000000
00001000
00000000
00000000
00000000
00000100
00000000
,
00000100
00000000
00000000
00000000
00000010
00000000
00000000
00001000
00000000
00000000
00000001
00000000
00000000
00000000
00001000
00000000
,
00001000
00000000
00000000
00000000
00000010
00000000
00000000
00000100
00000000
00000000
00000001
00000000
00000000
00000000
00000100
00000000
,
00000100
00000000
00000000
00000000
00001000
00000000
00000000
00010000
00000000
00000000
01000000
00000000
00000000
00000000
10000000
00000000
,
10000000
00000000
00010000
00000000
00100000
01000000
00100000
00000000
,
00010000
00000000
10000000
00000000
01000000
00100000
01000000
00000000
,
00010000
00000000
00001000
00000000
00010000
00001000
00010000
00000000
,
00001000
00000100
00000010
00001000
00000100
00000010
00000001
00002002
,
00000000
00000000
00000000
00003003
;

//---------------dance-single - Copied from----------------
#NOTES:
     dance-single:
     Copied from:
     Challenge:
     9:
     0.716,0.810,0.194,0.121,0.804: // measure 1
0001
0010
0000
0001
0100
0000
0001
0010
0000
0001
0100
0000
0010
0000
0010
0000
,  // measure 2
1000
0100
0000
1000
0010
0000
1000
0100
0000
1000
0010
0000
0100
0000
0100
0000
,  // measure 3
0001
0010
0000
0100
1000
0000
0100
0010
0000
0001
0010
0000
0100
0000
0100
0000
,  // measure 4
1000
0010
0100
0001
1000
0010
0100
0001
1000
0010
0100
0001
1000
0010
0100
0001
,  // measure 5
1000
0100
0000
1000
0010
0000
1000
0100
0000
1000
0010
0000
0100
0000
0100
0000
,  // measure 6
0001
0010
0000
0001
0100
0000
0001
0010
0000
0001
0100
0000
0010
0000
0010
0000
,  // measure 7
1000
0100
0000
0010
0001
0000
0010
0100
0000
1000
0100
0000
0010
0000
0010
0000
,  // measure 8
0001
0010
0100
1000
0100
0010
0001
0010
0100
1000
0100
0010
0001
0010
0100
1000
,  // measure 9
0001
0000
0100
0000
1000
0000
0100
1000
0000
1000
0100
0000
0010
0000
0010
0000
,  // measure 10
1000
0000
0010
0000
1000
0000
0010
0100
0000
0100
0010
0000
1000
0000
1000
0000
,  // measure 11
0001
0000
0100
0000
0010
0000
0010
0100
0000
0100
0010
0000
1000
0000
0001
0000
,  // measure 12
1000
0100
0010
1001
1000
0010
0110
0100
,  // measure 13
0001
0000
0000
0100
0010
0000
1000
0000
0010
0000
0000
0100
0001
0000
0010
0000
,  // measure 14
0100
0000
0000
1000
0100
0000
0010
0000
0001
0000
0000
0010
0100
0000
1000
0000
,  // measure 15
0001
0000
0010
0001
0000
0001
0010
0000
0100
0000
0010
0100
0000
0100
1000
0000
,  // measure 16
0001
0000
1000
0010
0000
0010
0100
0000
0001
0000
0100
0000
0010
0000
1000
0000
,  // measure 17
1000
0000
0000
0100
0010
0000
0001
0000
0100
0000
0000
0001
0010
0000
0100
0000
,  // measure 18
1000
0000
0000
0100
0010
0000
0001
0000
1000
0000
0000
0010
0100
0000
0001
0000
,  // measure 19
1000
0000
0100
1000
0000
1000
0100
0000
0010
0000
0100
0010
0000
0010
0001
0000
,  // measure 20
1000
0010
1000
0010
0100
0010
0100
0001
0100
0001
0010
0001
0010
0001
1000
0001
,  // measure 21
1000
0000
0000
0000
0010
0000
0000
0100
0001
0000
1000
0000
0001
0000
0010
0000
,  // measure 22
0000
0220
0000
0000
0330
0000
1000
0001
,  // measure 23
2000
0000
0000
0000
3001
0000
0000
0100
0010
0000
1000
0000
0010
0000
1010
0000
,  // measure 24
0000
1001
0000
1100
0000
0000
1000
0010
,  // measure 25
0200
0000
0000
0000
0301
0000
0000
0010
0100
0000
1000
0000
0010
0000
0100
0000
,  // measure 26
0000
0000
0220
0000
0000
0000
0000
0330
0000
0000
0000
0000
0010
0000
0100
0000
,  // measure 27
0002
0000
0000
0000
1003
0000
0000
0001
1000
0000
0100
0000
0010
0000
0011
0000
,  // measure 28
0001
0100
0001
0100
0001
0100
0001
0100
0001
0100
0001
0100
0001
0100
0001
0100
,  // measure 29
0001
0000
1000
0000
0010
0000
0100
0010
0000
1000
0000
0010
0100
0000
0010
0000
,  // measure 30
0100
0010
0000
0100
0001
0000
0100
0010
0000
0100
0001
0000
0100
0000
0100
0000
,  // measure 31
0001
0000
1000
0000
0001
0000
0100
0001
0000
1000
0000
0010
0100
0000
0010
0000
,  // measure 32
1000
0010
1000
0100
1000
0010
1000
0100
1000
0010
1000
0100
1000
0010
1000
0100
,  // measure 33
1000
0000
0001
0000
0100
0000
0010
0100
0000
0001
0000
0100
0010
0000
0100
0000
,  // measure 34
0010
0100
0000
0010
1000
0000
0010
0100
0000
0010
1000
0000
0010
0000
0010
0000
,  // measure 35
1000
0000
0001
0000
1000
0000
0010
1000
0000
0001
0000
0100
0010
0000
0100
0000
,  // measure 36
0002
0000
2000
0000
0003
0010
0010
3010
,  // measure 37
0100
0001
1000
0010
0100
0001
0010
0000
0100
0000
0100
0000
0010
0100
1000
0100
,  // measure 38
0010
0001
0010
0100
1000
0100
0010
0000
0001
0000
0001
0000
0010
0100
1000
0001
,  // measure 39
0010
0001
1000
0100
1000
0010
0100
0000
0010
0000
0010
0000
0100
1000
0100
0010
,  // measure 40
0100
0001
0010
0100
1000
0001
0100
0000
0010
0000
0010
0000
0100
0010
1000
0001
,  // measure 41
1000
0100
0010
0001
0010
0001
0100
0000
0010
0000
0010
0000
1000
0001
1000
0010
,  // measure 42
0100
0010
1000
0001
0100
0010
1000
0000
0100
0000
0100
0000
0010
0001
1000
0010
,  // measure 43
0100
0001
1000
0100
0010
0001
0010
0000
0100
0000
0100
0000
1001
0000
1000
0000
,  // measure 44
0010
0100
0010
0100
0010
0000
0010
1000
0000
1000
0100
0000
0100
0010
0001
1000
,  // measure 45
0001
0000
0000
1000
0000
0000
0001
0000
1000
0000
0001
0000
0000
0000
0000
0000
,  // measure 46
0100
0000
0001
0000
1000
0000
0010
0100
0010
0000
1000
0000
0001
0000
0000
0010
,  // measure 47
0001
0010
0100
1000
0010
0100
0001
1000
0001
0010
0100
1000
0010
0100
0001
1000
,  // measure 48
0100
0010
0100
1000
0001
0100
0010
1000
0001
0010
0100
1000
0100
1000
0001
0100
,  // measure 49
0010
0000
0000
0010
0000
0000
0100
0000
0010
0000
1000
0000
0000
0000
0000
0000
,  // measure 50
0001
0000
1000
0000
0001
0000
0010
0100
0010
0000
0001
0000
1000
0000
0000
0100
,  // measure 51
1000
0100
0010
0001
0100
0010
1000
0001
1000
0100
0010
0001
0100
0010
1000
0001
,  // measure 52
0010
0100
0010
0001
1000
0010
0100
0001
1000
0100
0010
0001
0010
0001
1000
0010
,  // measure 53
0100
0000
0000
1001
0000
0000
0202
0000
0000
0000
0000
0000
0000
0000
0000
0000
,  // measure 54
0000
0000
0000
0000
0303
0000
0000
0010
,  // measure 55
0011
0000
0000
1001
0000
0000
2200
0000
0000
0000
0000
3300
0000
0000
0000
0000
,  // measure 56
0100
1000
0100
1000
0100
0000
0100
0010
0000
0010
0001
0000
0001
0010
0100
1000
,  // measure 57
0001
1000
1001
0001
0100
0101
0001
0100
,  // measure 58
1000
0100
1100
1000
0100
0101
0001
0100
,  // measure 59
0110
0010
1010
1000
0100
0110
0010
0001
,  // measure 60
0011
0000
0010
0000
0001
0000
0010
0100
0000
1000
0010
0000
0110
0000
0202
0000
,  // measure 61
0000
0000
0000
0303
;
