#VERSION:0.81;
#TITLE:Dadadadadadadadadada;
#SUBTITLE:;
#ARTIST:Higedoraiba join. SELEN;
#TITLETRANSLIT:Dadadadadadadadadada;
#SUBTITLETRANSLIT:;
#ARTISTTRANSLIT:Higedoraiba join. SELEN;
#GENRE:;
#ORIGIN:;
#CREDIT:;
#BANNER:;
#BACKGROUND:;
#PREVIEWVID:;
#JACKET:Dadadadadadadadadada.png;
#CDIMAGE:;
#DISCIMAGE:;
#LYRICSPATH:;
#CDTITLE:;
#MUSIC:Dadadadadadadadadada.mp3;
#OFFSET:0.040000;
#SAMPLESTART:16.539991;
#SAMPLELENGTH:12.000000;
#SELECTABLE:YES;
#BPMS:0.000=156.000;
#STOPS:;
#DELAYS:;
#WARPS:;
#TIMESIGNATURES:0.000=4=4;
#TICKCOUNTS:0.000=4;
#COMBOS:0.000=1;
#SPEEDS:0.000=1.000=0.000=0;
#SCROLLS:0.000=1.000;
#FAKES:;
#LABELS:0.000=Song Start;
#BGCHANGES:;
#KEYSOUNDS:;
#ATTACKS:
;

//---------------dance-single - ----------------
#NOTEDATA:;
#CHARTNAME:;
#STEPSTYPE:dance-single;
#DESCRIPTION:;
#CHARTSTYLE:;
#DIFFICULTY:Hard;
#METER:15;
#RADARVALUES:0.762006,0.765816,0.314328,0.133351,0.885832,513.000000,33.000000,14.000000,0.000000,0.000000,0.000000,0.000000,0.000000,0.762006,0.765816,0.314328,0.133351,0.885832,513.000000,33.000000,14.000000,0.000000,0.000000,0.000000,0.000000,0.000000;
#CREDIT:;
#NOTES:
0000
0000
0000
0000
,
0000
0000
0000
0000
,
0000
0000
0000
0000
,
0000
0000
0000
0000
,
0000
0000
0000
0000
,
0000
0000
0000
0000
0000
0000
0000
0000
0000
0010
0100
0010
,
0100
0000
0000
0000
0010
0000
0000
0000
0100
0000
0000
0000
0010
0000
0000
0000
0100
0000
0000
0000
0010
0000
0000
0000
0100
0000
0000
0000
0000
0000
0000
0000
0000
0000
0000
0000
0010
0000
0000
1000
0000
0000
0000
0000
0000
0001
0000
0000
,
0000
0000
1000
0000
0100
0010
0000
0001
0000
0000
0100
0000
0010
0001
0000
0010
,
0000
0000
1000
0000
0010
0000
0010
0000
0101
0000
0000
0000
1000
0010
0000
0010
,
0000
0000
0100
0000
0001
1000
0000
1000
0000
0000
0100
0000
0010
0001
0000
0001
,
0000
0000
0010
0000
0100
0000
0100
0000
1001
0000
0010
0000
1000
0001
0000
0100
,
0000
0000
0010
0000
1000
0001
0000
0010
0000
0000
0100
0000
1000
0100
0000
0010
,
0000
0000
0001
0000
0100
0000
0100
0000
1010
0000
0000
0000
0001
0100
0000
0100
,
0000
0000
0010
0000
1000
0001
0000
0001
0000
0000
0010
0000
0100
1000
0000
1000
,
0000
0000
0100
0000
0010
0000
0001
0000
0101
0000
0000
0000
1000
0010
1000
0000
,
0010
0000
0100
0010
0000
0100
0000
0001
1000
0000
0001
0000
1000
0001
0100
0001
,
0100
0010
1000
0010
1000
0100
0010
0001
0010
0000
0100
0000
0010
0000
1000
0000
,
0010
0001
0100
1000
0100
0001
0010
0001
,
1000
0000
0100
0000
1000
0000
0010
0000
0100
0000
1000
0000
0100
0010
0100
0000
,
0001
1000
0000
0010
1000
0000
0010
0000
0100
0000
0100
0000
0010
1000
0001
1000
,
0001
0010
0100
1000
0100
0010
0001
0010
0100
0000
1000
0000
0001
0000
0100
0000
,
0010
0100
0001
0100
1000
0100
0001
0010
,
0100
0000
1000
0000
1100
0000
0000
0000
1001
0000
0000
0000
0001
0000
0000
1001
,
0000
0000
1000
0000
0100
0000
0000
0110
0000
0000
0010
0000
0001
0000
0000
0011
,
0000
0000
0010
0000
0100
0000
0100
0000
1100
0000
0000
0000
1000
0000
0000
1001
,
0000
0000
0010
0000
0100
0000
0000
0101
0000
0000
0001
0000
1000
0000
0000
1010
,
0000
0000
0100
0000
0001
0000
0100
0000
0110
0000
0000
0000
0010
0000
0000
0100
,
0001
0000
0010
0000
0100
0000
0000
1000
0010
0000
0001
0000
0010
0000
0000
0100
,
0001
0000
0010
0000
0100
0000
0100
0000
1100
0000
0000
0000
1000
0000
0000
0010
,
0100
0000
0001
0000
0010
0000
0000
0100
1000
0000
0001
0000
0010
0000
0000
0100
,
1000
0000
0001
0000
0100
0010
0100
0001
0010
0100
1000
0100
0010
0000
0001
0000
,
1000
0000
0010
1000
0000
0010
0100
0001
0100
0000
1000
0000
0100
0001
0010
0100
,
0010
0001
1000
0010
0100
0001
0100
0010
1000
0000
0010
0000
1000
0000
0001
0000
,
1000
0001
0100
0010
1000
0001
0100
0001
,
1000
0000
0100
0000
0010
0000
0001
0000
0010
0000
0100
0000
1000
0100
0000
0100
,
0000
0000
0010
0000
0001
0010
0000
0100
0000
0000
1000
0000
0100
0010
0100
1000
,
0100
0010
0001
0100
1000
0100
0001
0010
0100
0000
1000
0000
0010
0000
0100
0000
,
1000
0100
0001
0010
0001
0010
0200
0000
,
1000
0000
0000
0000
2300
0000
0000
0000
0000
0000
3010
0000
1001
0000
0000
0110
,
0000
0000
0100
0000
0001
0000
0000
1000
0000
0000
0010
0000
1000
0000
0000
0101
,
0000
0001
0010
0100
2000
0000
0000
3010
,
0100
0000
1000
0000
0100
0000
0000
0001
0000
0000
0010
0000
0100
0000
0001
0000
,
0001
0000
0100
0000
0100
0000
1000
0001
1000
0000
0100
0000
1001
0000
0000
0110
,
0000
0000
0001
0000
1000
0000
0000
0011
0000
0000
0100
0000
1000
0000
0000
1010
,
0000
0000
0001
0000
0100
0000
0010
0000
1000
0000
0010
0000
0100
0010
0000
0010
,
0100
0000
1001
0000
0010
0100
0000
0100
0001
0000
0101
0000
0010
1000
0000
1000
,
0200
0320
0032
2003
,
0000
0000
3001
0000
2002
0000
0000
0000
0000
0000
3003
0000
0100
0010
0100
0010
,
0100
0000
0000
0010
0000
0000
0100
0000
0000
0010
0000
0000
2000
0000
0000
0000
0000
0000
0000
0000
0000
0000
0000
0000
3001
0000
0000
0000
0000
0000
0000
0000
0000
0000
0000
0000
0010
0000
0000
0000
0100
0000
0000
0000
0001
0000
0000
0000
,
0010
0100
1000
0010
0100
0010
1001
0000
0000
0001
0010
0100
,
1000
0010
0001
0010
1000
0010
1001
0000
0000
0010
0100
0001
,
0100
1000
0100
0001
0010
1000
0001
1000
0010
0001
0100
1000
,
0001
0010
1000
0010
0100
0010
0100
0010
0100
0001
0010
1000
,
0001
0100
0010
0001
0100
1000
0100
0000
0000
1000
0100
0001
,
0100
1000
0001
0010
1000
0001
0010
0000
0000
1000
0010
0001
,
1000
0010
0001
1000
0100
0001
1000
0100
0001
1000
0010
0010
,
0001
0100
0100
0010
0000
0000
1001
0000
0000
0010
0100
0100
,
0002
0000
0000
1003
0010
0010
0200
0000
0000
0301
0010
0100
,
1000
0000
0000
0000
0100
0000
0010
0000
0001
0000
0000
0000
0010
0000
0000
0000
0000
0000
0000
0000
0000
0000
0000
0000
0011
0000
0000
0000
0000
0000
0000
0000
0000
0000
0000
0000
0100
0000
0000
0001
0000
0000
0000
0000
0000
1000
0000
0000
,
0000
0000
0010
0000
1000
0001
0000
0100
0000
0000
0010
0000
0100
1000
0000
0100
,
0000
0000
0010
0000
0100
0000
0100
0000
0110
0000
0000
0000
0001
0100
0000
0100
,
0000
0000
0010
0000
1000
0001
0000
0001
0000
0000
0010
0000
0100
1000
0000
1000
,
0000
0000
0100
0000
1000
0000
1000
0000
1001
0000
0100
0000
0001
1000
0000
0010
,
0000
0000
0100
0000
0001
1000
0000
0100
0000
0000
0010
0000
0001
0010
0000
0100
,
0000
0000
1000
0000
0010
0000
0010
0000
0110
0000
0000
0000
1000
0010
0000
0010
,
0000
0000
0100
0000
0001
1000
0000
1000
0000
0000
0100
0000
0010
0001
0000
0001
,
0000
0010
0100
0010
2002
0000
0000
0000
,
3003
0000
0000
0000
;

//---------------dance-single - ----------------
#NOTEDATA:;
#CHARTNAME:;
#STEPSTYPE:dance-single;
#DESCRIPTION:;
#CHARTSTYLE:;
#DIFFICULTY:Medium;
#METER:11;
#RADARVALUES:0.499386,0.478635,0.095251,0.485779,0.057150,306.000000,10.000000,51.000000,0.000000,0.000000,0.000000,0.000000,0.000000,0.499386,0.478635,0.095251,0.485779,0.057150,306.000000,10.000000,51.000000,0.000000,0.000000,0.000000,0.000000,0.000000;
#CREDIT:;
#NOTES:
0000
0000
0000
0000
,
0000
0000
0000
0000
,
0000
0000
0000
0000
,
0000
0000
0000
0000
,
0000
0000
0000
0000
,
0000
0000
0000
0002
,
2003
3002
0203
0310
,
0001
1000
0010
0100
,
0001
0000
0100
0100
0100
0000
0001
0000
,
0010
0100
1000
0100
,
0010
0000
0001
0001
0001
1000
0010
0000
,
0100
0001
0010
0100
,
1000
0000
0001
0001
0001
0000
0100
0000
,
0010
0100
0001
1000
,
0100
0000
0010
0010
0010
0000
1000
0001
,
1000
0000
0001
0100
0001
0000
1000
0010
,
1000
0010
1000
0001
0100
0001
0200
0000
,
0320
0000
1030
0001
1000
0000
0002
0000
,
2003
0000
3010
0100
0010
0000
1000
0010
,
0100
0000
0001
1000
0100
0000
0010
0001
,
0010
0001
0100
0001
0100
0001
2000
0000
,
3002
0000
1003
0001
0100
0000
0002
0000
,
2003
0000
0000
0000
3001
0000
0000
0000
1001
0000
0000
0000
0100
0000
0000
0100
,
0000
0000
0100
0000
0010
0000
0000
0010
0000
0000
0010
0000
1000
0000
0000
1000
,
0000
0000
1000
0000
0001
0000
1000
0000
0002
0000
0000
0000
0013
0000
0000
0010
,
0000
0000
0010
0000
0100
0000
0000
0100
0000
0000
0100
0000
1000
0000
0000
1000
,
0000
0000
1000
0000
0100
0000
0010
0000
0200
0000
0000
0000
0310
0000
0000
0001
,
0000
0000
1000
0000
0100
0000
0000
1000
0000
0000
0001
0000
0010
0000
0000
0001
,
0000
0000
1000
0000
0010
0000
0100
0000
0020
0000
0000
0000
0130
0000
0000
0010
,
0000
0000
1000
0000
0001
0000
0000
1000
0000
0000
0010
0000
0100
0000
0000
0001
,
0000
0100
0010
0100
0010
0100
0010
1000
,
0001
0000
1000
0001
0100
0000
0001
1000
,
0001
1000
0010
0100
0010
0100
0002
0000
,
0203
0000
0310
1000
0001
0000
0020
0000
,
0230
0000
1300
0010
1000
0000
0001
0100
,
0001
0000
1000
0010
1000
0000
0010
1000
,
0010
1000
0001
0100
0001
0100
0020
0000
,
2030
0000
3001
0100
0001
0000
0200
0000
,
0000
0000
0301
0000
0000
0001
1000
0000
,
0010
0000
0100
0000
0001
1000
0001
0000
,
0100
0000
0010
0100
0020
0000
0000
0130
,
0010
0000
1000
0000
0001
1000
0100
0000
,
0010
0000
0001
1000
0100
0000
0010
0000
,
0001
1000
0100
0000
0010
0000
0001
0010
,
0100
0000
1000
0000
0010
0100
0020
0000
,
2030
3002
0023
0230
,
2300
3002
0203
0320
,
0000
0030
2002
0000
0000
3003
0200
0000
,
0000
0300
2002
0000
3003
0000
0020
0000
,
0230
0301
1001
2000
,
3020
0130
1001
0002
,
0100
1000
0203
0010
,
0001
0310
0000
2000
,
3020
0130
0101
0002
,
0203
0310
1010
2000
,
0001
0010
3002
1000
,
0100
0000
1003
0000
1001
0000
0010
0100
,
0010
0000
0100
0010
0100
0000
0001
1000
,
0001
1000
0001
0000
0110
0000
0010
0000
,
1000
0001
0100
0010
,
1000
0000
0010
0010
0010
0000
1000
0000
,
0100
0010
0001
0010
,
0100
0000
1000
1000
1000
0001
0100
0000
,
0010
1000
0100
0010
,
0001
0000
1000
1000
1000
0000
0010
0000
,
0100
0010
1000
0001
,
0100
0000
0001
1000
2002
0000
0000
0000
,
3003
0000
0000
0000
;

//---------------dance-single - ----------------
#NOTEDATA:;
#CHARTNAME:;
#STEPSTYPE:dance-single;
#DESCRIPTION:;
#CHARTSTYLE:;
#DIFFICULTY:Easy;
#METER:5;
#RADARVALUES:0.333378,0.348380,0.057150,0.438154,0.000000,193.000000,6.000000,46.000000,0.000000,0.000000,0.000000,0.000000,0.000000,0.333378,0.348380,0.057150,0.438154,0.000000,193.000000,6.000000,46.000000,0.000000,0.000000,0.000000,0.000000,0.000000;
#CREDIT:;
#NOTES:
0000
0000
0000
0000
,
0000
0000
0000
0000
,
0000
0000
0000
0000
,
0000
0000
0000
0000
,
0000
0000
0000
0000
,
0000
0000
0000
0002
,
2003
3002
0203
0310
,
0000
1000
0000
0100
,
0000
0200
0310
1000
,
0000
0100
0000
0001
,
0000
2000
3001
0010
,
0000
0001
0000
0100
,
0000
0002
1003
0100
,
0000
0100
0000
1000
,
0000
0020
0130
1000
,
1000
0001
0001
0100
,
0100
0010
0010
0100
,
0100
0001
1000
0001
,
1000
0010
0010
0100
,
0100
0001
1000
0010
,
0100
0010
0100
0001
,
1000
0001
0100
0010
,
0100
0010
1001
0200
,
0000
0320
0000
2030
,
0000
3001
0002
0023
,
0000
0230
0000
2300
,
0000
3100
0200
0320
,
0030
0002
0003
2000
,
3000
0010
0020
0230
,
0300
0002
0003
2000
,
3000
0000
0220
0000
0000
0330
0001
0000
,
0001
1000
1000
0010
,
0010
0100
0100
0010
,
0010
1000
0001
1000
,
0001
0100
0100
0010
,
0010
1000
0001
0100
,
0010
0100
0010
1000
,
0001
1000
0010
2000
,
0000
0000
3001
0000
0000
0100
0100
0000
,
0010
0000
1000
0000
0001
0001
0000
0000
,
0100
0000
0010
0000
0200
0000
0000
0310
,
0010
1000
0001
1000
,
1000
0000
0002
0000
0003
0100
0100
0000
,
0001
1000
0010
0100
,
0001
0100
0002
0000
,
0013
1000
0001
0100
,
0100
0002
0203
0320
,
0000
0230
0000
0320
,
0000
0230
0300
0010
,
0010
0010
1001
0100
,
0100
0100
1001
0002
,
0000
1000
2003
0000
,
0001
3001
0000
0100
,
0100
0100
0110
0010
,
0010
0010
0110
2000
,
0000
0001
3002
0000
,
1000
1003
0000
0020
,
0030
0200
0300
0010
,
0010
0010
0200
0310
,
0000
0001
0000
0010
,
0000
0020
0130
0001
,
0000
0010
0000
1000
,
0000
0002
1003
0100
,
0000
1000
0000
0010
,
0000
2000
3001
0010
,
0000
0010
0000
0001
,
0000
0200
0310
0000
;

//---------------dance-single - ----------------
#NOTEDATA:;
#CHARTNAME:;
#STEPSTYPE:dance-single;
#DESCRIPTION:;
#CHARTSTYLE:;
#DIFFICULTY:Beginner;
#METER:3;
#RADARVALUES:0.225880,0.316709,0.000000,0.371478,0.000000,127.000000,0.000000,39.000000,0.000000,0.000000,0.000000,0.000000,0.000000,0.225880,0.316709,0.000000,0.371478,0.000000,127.000000,0.000000,39.000000,0.000000,0.000000,0.000000,0.000000,0.000000;
#CREDIT:;
#NOTES:
// measure 0
0000
0000
0000
0000
,  // measure 1
0000
0000
0000
0000
,  // measure 2
0000
0000
0000
0000
,  // measure 3
0000
0000
0000
0000
,  // measure 4
0000
0000
0000
0000
,  // measure 5
0000
0000
0000
0200
,  // measure 6
0000
0000
0000
0310
,  // measure 7
0000
0001
0000
0010
,  // measure 8
0000
0020
0130
0001
,  // measure 9
0000
0010
0000
1000
,  // measure 10
0000
0002
1003
0100
,  // measure 11
0000
1000
0000
0010
,  // measure 12
0000
2000
3001
0010
,  // measure 13
0000
0010
0000
0001
,  // measure 14
0000
0200
0310
1000
,  // measure 15
0000
0010
0000
0100
,  // measure 16
0000
0010
0000
0100
,  // measure 17
0000
0010
0000
1000
,  // measure 18
0000
0100
0000
0001
,  // measure 19
0000
1000
0000
0010
,  // measure 20
0000
0100
0000
1000
,  // measure 21
0000
0001
0000
0100
,  // measure 22
0000
0010
0000
0020
,  // measure 23
0000
0230
0000
0302
,  // measure 24
0000
2003
0000
3200
,  // measure 25
0000
0320
0000
0032
,  // measure 26
0000
0023
0000
0130
,  // measure 27
0000
1000
0000
0001
,  // measure 28
0000
0200
0000
0310
,  // measure 29
0000
1000
0000
0001
,  // measure 30
0000
0020
0000
1030
,  // measure 31
0000
0001
0000
0100
,  // measure 32
0000
0010
0000
0100
,  // measure 33
0000
0010
0000
0001
,  // measure 34
0000
0010
0000
0100
,  // measure 35
0000
1000
0000
0010
,  // measure 36
0000
0100
0000
0001
,  // measure 37
0000
1000
0000
0002
,  // measure 38
0000
1003
0000
0010
,  // measure 39
0000
0001
0000
1000
,  // measure 40
0000
0002
0000
0103
,  // measure 41
0000
0001
0000
0001
,  // measure 42
0000
2000
3000
0010
,  // measure 43
0000
0001
0000
0010
,  // measure 44
0000
1000
2000
0000
,  // measure 45
3000
0000
0000
0010
,  // measure 46
0010
0010
0020
0230
,  // measure 47
0000
0302
0000
2003
,  // measure 48
0000
3010
0000
0200
,  // measure 49
0000
0000
0310
0200
,  // measure 50
0000
0000
0301
2000
,  // measure 51
0000
0000
3002
0000
,  // measure 52
0000
1003
0000
0020
,  // measure 53
0000
0000
0130
0200
,  // measure 54
0000
0000
0310
0002
,  // measure 55
0000
0000
2003
0000
,  // measure 56
0000
3001
0000
0200
,  // measure 57
0300
0020
0030
2000
,  // measure 58
0000
3000
0020
0130
,  // measure 59
0000
0001
0000
0100
,  // measure 60
0000
0200
0310
1000
,  // measure 61
0000
0100
0000
0001
,  // measure 62
0000
2000
3001
0010
,  // measure 63
0000
0001
0000
0100
,  // measure 64
0000
0002
1003
0100
,  // measure 65
0000
0100
0000
1000
,  // measure 66
0000
0020
0030
0000
;
