#TITLE:Shut Me Up;
#SUBTITLE:;
#ARTIST:Mindless Self Indulgence;
#TITLETRANSLIT:;
#SUBTITLETRANSLIT:;
#ARTISTTRANSLIT:;
#GENRE:Industrial Jungle Pussy Punk;
#CREDIT:N00b_Saib0t;
#BANNER:Shut Me Up.png;
#BACKGROUND:Shut Me Up-bg.png;
#LYRICSPATH:;
#MUSIC:Shut Me Up.ogg;
#OFFSET:0.004;
#SAMPLESTART:11.277000;
#SAMPLELENGTH:23.340000;
#SELECTABLE:YES;
#BPMS:0.000000=174.000000;
#STOPS:29.000000=0.200000
,30.500000=0.160000
,95.000000=0.200000
,187.500000=0.160000
,253.500000=0.160000
,378.500000=0.180000
,380.000000=0.180000
,409.500000=0.180000
,411.000000=0.180000
;
#DELAYS:;
#TIMESIGNATURES:0.000000=4=4
;
#BGCHANGES:;
#KEYSOUNDS:;
#ATTACKS:;

//---------------dance-single - N00b_Saib0t----------------
#NOTES:
     dance-single:
     N00b_Saib0t:
     Challenge:
     15:
     0.747,0.667,0.886,0.000,0.035,740.000,151.000,0.000,0.000,0.000,0.000,0.000,0.747,0.667,0.886,0.000,0.035,740.000,151.000,0.000,0.000,0.000,0.000,0.000:
0000
0000
0010
0100
0010
0100
1010
1010
,
0000
0000
0001
0010
0001
0010
1100
1100
,
0000
0000
1000
0100
1000
0100
0011
0011
,
0000
0000
1000
0010
1000
0010
0110
0110
,
0000
0000
1100
0010
1000
0010
1001
1001
,
0000
0000
0011
0100
0010
0100
1001
1001
,
0000
0000
0001
0100
1000
0100
1001
1001
,
0000
0000
0100
0000
0000
0010
0000
0100
,
1010
0000
0000
0100
0011
0000
0000
0001
,
1100
0000
0000
1000
0101
0010
0000
0010
,
0100
0001
0110
0110
1000
0000
0001
0000
,
1010
0000
0001
0000
1100
0010
0001
0100
,
1010
0000
0000
0100
0011
0000
0000
0001
,
1100
0000
0000
1000
0101
0010
0000
0010
,
1100
0001
0010
0100
1000
0000
0001
0000
,
1010
0000
0001
0000
1000
0100
1000
0000
,
0001
0010
0100
0001
1000
0100
0001
1000
,
0110
1001
0110
0110
,
1001
0000
0001
0010
0001
0100
0010
0001
,
0010
0000
0010
0100
1000
0010
0100
1000
,
0001
1000
0010
0100
0001
0010
1000
0001
,
0100
1000
0001
0000
1010
0000
1010
0000
,
0101
0000
1100
0001
1000
0100
0001
1000
,
0001
0000
0001
1000
0010
0100
0000
0010
,
0100
1000
0010
0001
1000
0010
0100
0001
,
1000
0010
1000
0010
0100
0010
0100
0001
,
1000
0000
0010
0000
0001
0000
0100
0000
0010
0000
0000
0000
1000
0100
0000
0000
,
0000
0100
0010
0000
0000
0000
0010
0000
0000
0000
0010
0000
0000
0000
1010
0000
,
0100
0001
0010
0100
0010
1000
0001
0010
,
1000
0001
0100
0010
1000
0001
0010
0000
,
0000
1001
0000
0010
0001
0010
0000
1000
,
0010
0100
0000
0010
0100
1010
0000
0001
,
0100
1000
0010
0001
1000
0001
0100
1000
,
0001
0010
1000
0010
0100
0010
0100
0001
,
1000
0000
0010
0000
0001
0000
0100
0000
0010
0000
0000
0000
1000
0100
0000
0000
,
0000
0100
0010
0000
0000
0000
0010
0000
0000
0000
0010
0000
0000
0000
0010
0000
,
0100
1000
0010
0001
0010
1000
0100
0001
,
0010
1000
0100
0001
1000
0001
1000
0000
,
0000
1001
0000
0010
1000
0010
0000
0101
,
0100
0101
0000
1010
0010
1010
0000
1001
,
0100
1000
0100
1000
0100
1000
0100
0010
,
0100
0010
0100
0010
0000
1100
0010
0001
,
0010
0001
0010
0001
0010
0001
0010
1000
,
0010
1000
0010
1000
0000
1001
1000
0001
,
1000
0001
1000
0001
1000
0001
1000
0100
,
1000
0010
1000
0100
0000
1001
0010
0100
,
0010
0100
0010
0100
0010
0100
0010
0100
,
0000
1000
0011
0000
0000
0010
0101
0000
,
0000
0010
1100
0000
0000
1000
0011
0000
,
0000
0001
1010
0100
0000
0100
0011
1000
,
0010
0100
0001
0000
1000
0000
0101
0000
,
1000
0000
0011
0100
0001
0010
0100
0000
,
0000
0010
1100
0000
0000
1000
0011
0000
,
0000
0001
1010
0100
0000
0100
0011
1000
,
0010
0001
1000
0000
1000
0000
0101
0000
,
1000
0000
0010
0100
0001
0000
0010
0100
,
0010
1000
0001
0010
0100
0001
0100
0000
,
0001
0110
0110
1001
,
1010
0100
0010
1000
0100
0001
0100
0000
,
1000
0010
0001
0100
0010
1000
0010
0001
,
1000
0010
0001
0100
0010
1000
0010
0001
,
1000
0101
0101
1010
,
0011
1000
0010
1000
0100
0010
0000
0000
,
1000
0001
0010
0100
0000
0001
0010
1001
,
0100
0010
0001
1000
0100
0010
1000
0010
,
0001
1000
0010
0001
0010
1000
0001
0100
,
1000
0000
0010
0000
0100
0000
0000
0000
0001
0010
0000
0000
0000
0010
0100
0000
,
0000
1100
0000
1100
0000
0101
0010
0001
,
0100
1000
0100
0010
0001
0100
0001
1001
,
0010
1100
0001
1010
0101
0000
0000
1001
,
0000
0100
1001
0100
0000
1010
0010
1010
,
0000
0101
0100
0101
0000
1001
0010
1000
,
0100
0010
0001
1000
0010
1000
0100
0010
,
0001
1000
0010
0100
0010
1000
0010
0100
,
1000
0000
0010
0000
1100
0000
0000
0000
0001
0010
0000
0000
0000
0010
0100
0000
,
0000
1100
0000
1100
0000
0101
0010
1000
,
0100
1000
0100
0001
0010
0001
0100
1001
,
0010
0100
0001
1000
0101
0000
0000
1001
,
0000
0100
1000
0100
0000
1010
0010
1010
,
0000
0101
0100
0101
0000
1000
0000
1000
,
0000
1000
0010
0100
0010
0001
0000
0001
,
0000
0001
1000
0010
1000
0010
0000
0010
,
0000
0010
0001
0100
0001
1000
0000
1000
,
0000
1000
0100
1000
0100
0010
0000
0010
,
0000
0010
1000
0010
1000
0100
0000
0100
,
0000
0100
0010
1000
0010
0100
0000
0100
,
0000
0100
0001
0010
0001
1000
0000
1000
,
0000
1000
0100
1000
0100
1000
0000
0110
,
0000
1100
0000
0100
1010
0000
0010
0101
,
0000
0100
0000
1001
0000
1001
0000
0100
,
0010
0100
0010
0100
0010
0000
0100
0010
,
0000
1100
0000
0011
0000
1100
0000
0001
,
0010
0001
0010
0001
0010
0000
0101
0010
,
0000
0101
0000
1001
0000
1001
0000
0010
,
0000
1001
0000
1000
0100
0011
0000
0100
,
0011
0000
0100
0011
0000
0110
0000
0011
,
0000
0100
0101
0000
0010
1010
0000
0010
,
0000
1001
0000
1001
0000
0001
0100
0001
,
0100
0001
0100
0000
0011
0100
0000
0011
,
0000
1100
0000
0011
0000
0010
0100
0010
,
0100
0010
0100
0000
1010
0100
0000
1010
,
0000
1001
0000
1001
0000
0100
0000
1001
,
0000
0001
0010
1100
0000
0010
1100
0000
,
0010
1000
0100
1000
0010
0001
1000
0010
,
0100
0001
1000
0010
1000
0001
0100
0010
,
0001
0010
0100
0010
0001
0100
0011
0000
,
1000
0100
0000
0000
0000
0100
0010
0000
0000
0000
0001
0000
0000
0000
0010
0000
,
0000
0010
0100
1001
0010
0001
0010
0101
,
0101
1000
0010
1001
0100
0010
0001
0100
,
0011
0000
0000
1001
0000
0010
0001
0010
,
0000
0101
0100
0101
0000
1010
0010
1010
,
0000
0001
0100
1000
0010
0001
1000
0010
,
0100
0001
1000
0010
1000
0010
0100
0010
,
0100
0001
0100
0010
0001
0100
0010
0000
,
1000
0100
0000
0000
0000
0100
0010
0000
0000
0000
0001
0000
0000
0000
0010
0000
,
0000
0010
0100
1001
0010
0100
0010
0100
,
1000
0001
0010
0001
0100
0010
1000
0001
,
0010
0000
0000
1001
0000
0010
1000
0010
,
0000
0101
0100
0101
0000
1010
0010
1010
,
0000
0101
0000
0000
0001
1100
0000
0000
;

//---------------dance-single - N00b_Saib0t----------------
#NOTES:
     dance-single:
     N00b_Saib0t:
     Hard:
     13:
     0.564,0.633,0.282,0.076,0.000,612.000,48.000,13.000,0.000,0.000,0.000,0.000,0.564,0.633,0.282,0.076,0.000,612.000,48.000,13.000,0.000,0.000,0.000,0.000:
0000
0000
0001
1000
0001
0100
0010
1000
,
0000
0000
1000
0001
1000
0010
0100
0001
,
0000
0000
1000
0100
1000
0100
0010
0001
,
0000
0000
0100
0010
0100
0010
1000
0001
,
0000
0000
0001
0010
0100
0010
0001
1000
,
0000
0000
1000
0010
0100
0010
1000
0001
,
0000
0000
1000
0100
1000
0100
1000
0001
,
0000
0000
1100
0000
0000
0011
0000
1000
,
0001
0000
0000
0100
0010
0000
0000
0010
,
0100
0000
0000
1000
0100
1000
0000
0010
,
0100
0001
0010
0100
1000
0000
0100
0000
,
0010
0000
0001
0000
1000
0100
0001
0100
,
1000
0000
0000
0100
0010
0000
0000
0001
,
1000
0000
0000
0010
0100
0010
0000
0001
,
0010
0001
0010
0001
0100
0000
0010
0000
,
0001
0000
0001
0000
0010
0100
0010
0000
,
0001
0010
0001
1000
,
0010
0110
1001
0101
,
1100
0001
0001
0010
,
1000
0010
1000
0100
,
0001
0010
0001
1000
,
0100
0001
1010
1010
,
0101
1100
1000
1001
,
1000
0000
0001
0000
1000
0010
0000
1000
,
0100
0010
0001
0010
0001
0010
0100
1000
,
0001
0100
0010
1000
0100
0010
0100
1000
,
0010
0100
0001
0100
0010
0000
0100
0000
,
0001
0000
1100
0000
0011
0000
0000
0100
,
0010
0001
0010
0100
0010
0001
1000
0010
,
0100
0001
0100
0010
1000
0100
2002
0000
,
0000
0000
0000
0000
0000
0000
3003
0110
,
0000
0000
0000
1010
0000
0000
0000
0101
,
1000
0001
0010
0001
1000
0001
0100
0001
,
1000
0010
1000
0010
0100
0010
0100
0001
,
1000
0010
1000
0100
0010
0000
0001
0000
,
1000
0000
1010
0000
0000
0101
0000
0010
,
0100
1000
0100
1000
0001
1000
0100
0010
,
0100
1000
0001
0100
0010
1000
0200
0000
,
0000
0000
0000
0000
0000
0000
0000
0301
,
0000
0000
0000
0001
0000
0000
0000
2001
,
0000
0000
0000
0001
,
0001
0000
0001
3000
0000
0000
0000
0200
,
0000
0000
0000
0001
,
0001
0000
0301
0000
0000
0000
0000
0002
,
0000
0000
0000
1000
,
1000
0000
1003
0000
0000
0000
0000
0002
,
0000
0000
0000
0000
0000
0000
0000
1000
,
0003
1000
0010
0000
0000
0010
1000
0000
,
0000
0010
0100
0000
0000
1000
0100
0000
,
0000
0001
0010
0100
0000
1000
0010
0100
,
0010
0100
0001
0000
0001
0000
0100
0000
,
0001
0000
0010
0100
1000
0010
1000
0000
,
0000
1000
1000
0000
0000
0100
0100
0000
,
0000
0010
0010
0010
0000
1000
0001
1000
,
0010
1000
0001
0000
1000
0000
0100
0000
,
0010
0000
0010
0100
1000
0000
0010
0000
,
0010
0001
0001
1001
,
0110
1100
0011
1010
,
1000
0010
0100
0100
,
1000
0001
0010
0010
,
1000
0001
0010
0010
,
1000
0101
0101
1010
,
0011
0010
0100
0001
,
1000
0000
0010
0000
0000
1000
0100
1000
,
0100
0010
0001
0100
0010
0100
0001
1000
,
0100
0001
0100
1000
0100
0010
1000
0010
,
0001
0100
0010
0000
1000
0000
0100
0000
,
0000
0100
0000
0010
0000
1000
0010
1000
,
0100
1000
0001
0010
0001
0100
0001
1000
,
0010
1000
0001
1000
0200
0000
0000
0000
,
0000
0000
0000
0000
0300
1010
0000
0000
,
0000
0101
0000
0000
0000
1001
0100
0010
,
0100
0010
0001
1000
0001
1000
0100
1000
,
0001
0100
0010
0100
0010
1000
0010
1000
,
0001
0010
0100
0000
0001
0000
0100
0000
,
0000
0110
0000
1001
0000
1000
0010
1000
,
0100
1000
0100
0010
0100
1000
0001
1000
,
0010
0100
0010
0100
0002
0000
0000
0000
,
0000
0000
0000
0003
0000
1010
0000
0000
,
0000
0101
0000
0000
0000
1000
0000
1000
,
0000
1000
0001
1000
0001
1000
0000
1000
,
0000
1000
0010
1000
0010
1000
0000
0001
,
0000
0001
1000
0001
1000
0001
0000
0001
,
0000
0001
0100
0001
0100
0001
0000
0100
,
0000
0100
0010
0100
0010
0100
0000
0100
,
0000
0100
0001
0100
0001
0100
0000
0010
,
0000
0010
1000
0010
1000
0010
0000
0010
,
0000
0010
0100
0010
0100
0010
0000
1000
,
0000
1000
0000
1000
0001
1000
0001
1000
,
0000
1000
0000
1000
0010
1000
0010
1000
,
0000
0001
0000
0001
1000
0001
1000
0001
,
0000
0001
0000
0001
0100
0001
0100
0001
,
0000
0100
0000
0100
0010
0100
0010
0100
,
0000
0100
0000
0100
0001
0100
0001
0100
,
0000
0010
0000
0010
1000
0100
0000
0010
,
0001
0000
0100
0010
0000
1000
0000
1000
,
0000
1000
0001
1000
0001
1000
0000
1000
,
0000
1000
0010
1000
0010
1000
0000
0001
,
0000
0001
1000
0001
1000
0001
0000
0001
,
0000
0001
0100
0001
0100
0001
0000
0100
,
0000
0100
0010
0100
0010
0100
0000
0100
,
0000
0100
0001
0100
0001
0100
0000
0010
,
0000
0010
1000
1000
0000
0010
0010
0000
,
0100
0100
0010
1000
0001
1000
0100
0010
,
0100
0010
0001
0100
0010
1000
0100
0010
,
0001
1000
0001
0010
0001
0100
0001
0000
,
1000
0000
0100
0000
0000
1001
0000
0110
,
0000
1000
0100
1000
0010
1000
0010
0100
,
0001
1000
0010
1000
0100
0010
0001
0100
,
0020
0000
0000
0000
0000
0000
0000
0030
,
0000
0101
0000
0000
0000
1010
0000
0000
,
0000
1001
0100
1000
0010
1000
0010
0100
,
0001
0100
0010
1000
0100
0010
0100
0010
,
0100
0001
0100
0010
0001
0100
0010
0000
,
0010
0000
0100
0000
0000
1100
0000
0011
,
0000
1000
0001
0100
0010
0100
0001
0100
,
0001
0010
0100
0001
0100
0010
0001
1000
,
0200
0000
0000
0000
0000
0000
0000
0300
,
0000
0101
0000
0000
0000
1010
0000
0000
,
0000
0101
0000
0000
0101
2200
0000
3300
;

//---------------dance-single - N00b_Saib0t----------------
#NOTES:
     dance-single:
     N00b_Saib0t:
     Medium:
     9:
     0.374,0.387,0.158,0.106,0.000,401.000,27.000,18.000,0.000,0.000,0.000,0.000,0.374,0.387,0.158,0.106,0.000,401.000,27.000,18.000,0.000,0.000,0.000,0.000:
0000
0000
0010
0000
0010
0000
0010
1000
,
0000
0000
0100
0000
0100
0000
0100
0001
,
0000
0000
0001
0000
0001
0000
0001
0100
,
0000
0000
1000
0000
1000
0000
1000
0001
,
0000
0000
0001
0000
1000
0000
0001
1000
,
0000
0000
1000
0000
0001
0000
1000
0001
,
0000
0000
1000
0000
0100
0000
1000
0001
,
0000
0000
0010
0000
0000
0010
0000
0000
,
1000
0000
0010
0000
,
0100
0000
0000
0000
0100
0000
0000
1000
,
0100
1000
0200
0000
1300
0000
0010
0000
,
0010
0010
0010
1000
,
1000
0000
0001
0000
,
0001
0000
0000
1000
0010
1000
0000
0000
,
0010
1000
0100
0010
,
0001
0001
0010
1000
,
0001
0010
0001
1000
,
0010
0001
1000
0100
,
0100
0001
0001
0010
,
0001
0010
0100
0100
,
0001
0010
1000
1000
,
0010
0001
0010
1000
,
0001
0100
1000
0001
,
1000
0000
0001
0000
1000
0000
0000
1000
,
0000
0010
0000
0010
0000
0010
0000
1000
,
0000
0100
0000
1000
0000
0010
0000
1000
,
0000
0100
0000
0100
0000
0000
0100
0000
,
0001
0000
1000
0000
0010
0000
0000
0100
,
0000
0001
0000
0100
0000
0001
0000
0010
,
0000
0001
0000
0010
0000
0002
0000
0000
,
0000
0000
0000
0000
0000
0003
0000
1100
,
0000
0000
0000
1100
0000
0000
0000
1100
,
0000
0001
0000
1000
0000
0100
0000
0010
,
0000
0100
0000
1000
0000
0010
0000
0100
,
0000
0010
0000
0000
0010
0000
0001
0000
,
1000
0000
0010
0000
0000
1001
0000
0010
,
0000
1000
0000
0001
0000
1000
0000
0010
,
0000
1000
0000
0100
0000
2002
0000
0000
,
0000
0000
0000
0000
0000
0000
0000
3003
,
0000
0000
0000
0010
0000
0000
0000
2002
,
0000
0000
0000
0000
,
0000
0000
0000
3003
0000
0000
0000
0202
,
0000
0000
0000
0000
,
0000
0000
0303
0000
0000
0000
0000
2002
,
0000
0000
0000
0000
,
0000
0000
3003
0000
0000
0000
0000
0022
,
0000
0000
0000
0000
0000
0000
0000
0033
,
0000
0010
0000
1000
,
0000
0100
0000
0010
,
0000
0000
0010
0000
0000
0001
0010
0001
,
0010
0001
0010
0000
1000
0000
0100
0000
,
0001
0000
1000
0100
1000
0100
1000
0000
,
0000
0001
0000
0100
,
0000
1000
0000
0001
,
0010
0001
1000
0100
,
0010
0100
1000
0010
,
0001
1000
0100
0001
,
0100
1000
0010
1000
,
0100
0010
0001
1000
,
0010
1000
0100
0010
,
0100
0001
0010
0001
,
0100
0001
0100
1000
,
0001
1000
0001
1000
,
0010
0100
0000
0100
,
1000
0001
0100
0001
,
1000
0001
0100
1000
,
0001
0010
1000
0100
,
0000
0100
0000
0010
0000
0000
0010
0000
,
0100
1000
0010
1000
,
0001
1000
0002
0000
,
0000
0000
0003
0000
0000
1010
0000
0000
,
0000
1010
0000
0000
0000
1010
0000
1000
,
0000
0001
0000
1000
0000
0001
0000
1000
,
0000
0100
0000
0010
0000
1000
0000
0001
,
0000
1000
0000
0000
0001
0000
0100
0000
,
0000
0110
0000
0110
0000
1000
0000
1000
,
0000
1000
0000
0010
0000
1000
0000
0100
,
0000
0001
0000
0200
0000
0000
0000
0000
,
0000
0000
0000
0300
0000
1010
0000
0000
,
0000
0101
0000
0000
0000
1000
0000
1000
,
0000
1000
0000
1000
0000
1000
0000
1000
,
0000
1000
0000
1000
0000
1000
0000
0001
,
0000
0001
0000
0001
0000
0001
0000
0001
,
0000
0001
0000
0001
0000
0001
0000
0100
,
0000
0100
0000
0100
0000
0100
0000
0100
,
0000
0100
0000
0100
0000
0100
0000
0010
,
0000
0010
0000
0010
0000
0010
0000
0010
,
0000
0010
0000
0010
0000
0010
0000
1000
,
0000
1000
0000
1000
0000
1000
0000
1000
,
0000
1000
0000
1000
0000
1000
0000
1000
,
0000
0001
0000
0001
0000
0001
0000
0001
,
0000
0001
0000
0001
0000
0001
0000
0001
,
0000
0100
0000
0100
0000
0100
0000
0100
,
0000
0100
0000
0100
0000
0100
0000
0100
,
0000
0010
0000
0010
1000
0100
0000
0010
,
1000
0000
1000
0010
0000
1000
0000
1000
,
0000
1000
0000
1000
0000
1000
0000
1000
,
0000
1000
0000
1000
0000
1000
0000
0001
,
0000
0001
0000
0001
0000
0001
0000
0001
,
0000
0001
0000
0001
0000
0001
0000
0100
,
0000
0100
0000
0100
0000
0100
0000
0100
,
0000
0100
0000
0100
0000
0100
0000
0010
,
0000
0010
1000
0100
0000
0010
0001
0000
,
1000
0100
0000
1000
0000
1000
0000
0010
,
0000
0010
0000
0100
0000
1000
0000
0010
,
0000
1000
0000
0010
0000
0100
0000
0000
,
0000
0000
0000
0000
0000
0110
0000
0110
,
0000
1000
0000
0001
0000
1000
0000
0100
,
0000
1000
0000
1000
0000
0001
0000
2000
,
0000
0000
0000
0000
0000
0000
0000
3000
,
0000
0101
0000
0000
0000
0101
0000
0000
,
0000
0101
0000
1000
0000
1000
0000
0100
,
0000
0100
0000
1000
0000
0010
0000
0010
,
0000
0001
0000
0010
0000
0100
0000
0000
,
1000
0000
0001
0000
0000
1001
0000
1001
,
0000
1000
0000
0100
0000
0100
0000
0100
,
0000
0010
0000
0001
0000
0010
0000
2000
,
0000
0000
0000
0000
0000
0000
0000
3000
,
0000
1100
0000
0000
0000
0011
0000
0000
,
0000
0101
0000
0000
0000
2020
0000
3030
;

//---------------dance-single - N00b_Saib0t----------------
#NOTES:
     dance-single:
     N00b_Saib0t:
     Easy:
     7:
     0.184,0.246,0.018,0.176,0.000,186.000,3.000,30.000,0.000,0.000,0.000,0.000,0.184,0.246,0.018,0.176,0.000,186.000,3.000,30.000,0.000,0.000,0.000,0.000:
0000
0010
0000
0010
,
0000
0100
0000
0100
,
0000
0001
0000
0001
,
0000
1000
0000
1000
,
0000
0001
0000
0001
,
0000
1000
0000
1000
,
0000
0001
0000
0001
,
0000
0000
0010
0000
0000
0010
0000
0000
,
1000
0000
0010
0000
,
0100
0000
0100
0000
,
0100
0100
0100
0000
,
0010
0010
0010
0000
,
1000
0000
0001
0000
,
0001
0000
0010
0000
,
0010
1000
0000
0010
,
0000
0001
0000
1000
,
0000
0010
0000
1000
,
0000
0001
0000
0100
,
0000
0001
0000
0010
,
0000
0010
0000
0100
,
0000
0010
0000
1000
,
0000
0001
0000
1000
,
0000
0100
0000
0001
,
0000
0000
0001
0000
1000
0000
0000
1000
,
0000
0010
0000
0000
0000
0010
0000
0000
,
0000
0100
0000
0000
0000
0010
0000
0000
,
0000
0200
0000
0000
0000
0000
0000
0000
,
0000
0000
0000
0000
0300
0000
0000
0100
,
0000
0000
0000
0100
0000
0000
0000
0010
,
0000
0000
0000
0010
0000
0000
0000
2000
,
0000
0000
0000
0000
,
0000
0000
0000
0000
0000
0000
0000
3000
,
0000
0001
0000
0000
0000
0100
0000
0000
,
0000
0100
0000
0000
0000
0010
0000
0000
,
0000
0020
0000
0000
0000
0000
0000
0000
,
0000
0000
0030
0000
0000
0001
0000
0000
,
0000
1000
0000
0000
0000
0001
0000
0000
,
0000
1000
0000
0000
0000
0020
0000
0000
,
0000
0000
0000
0000
0000
0000
0000
0030
,
0000
0000
0000
0100
0000
0000
0000
0020
,
0000
0000
0000
0000
,
0000
0000
0000
0030
0000
0000
0000
2002
,
0000
0000
0000
0000
,
0000
0000
3003
0000
0000
0000
0000
2002
,
0000
0000
0000
0000
,
0000
0000
3003
0000
0000
0000
0000
2002
,
0000
0000
0000
0000
0000
0000
0000
3003
,
0000
0010
0000
1000
,
0000
0100
0000
0010
,
0000
0010
0000
1000
,
0000
0001
1000
0100
,
0001
1000
0100
1000
,
0000
0001
0000
0100
,
0000
1000
0000
0001
,
0010
0001
1000
0000
,
0010
0000
1000
0000
,
0001
0000
0100
0000
,
0100
0000
0010
0000
,
0100
0000
0001
0000
,
0010
0000
0100
0000
,
0100
0000
0010
0000
,
0100
0000
0100
0000
,
0001
0000
0001
0000
,
0010
0100
0000
0100
,
0000
0001
0000
0001
,
0000
0001
0000
1000
,
0000
2000
0000
0000
,
0000
0000
0000
3000
0000
0000
0010
0000
,
0000
1000
0000
1000
,
0000
1000
0002
0000
,
0000
0000
0003
0000
0000
1000
0000
0000
,
0000
1000
0000
0000
0000
1000
0000
0000
,
0000
0001
0000
0000
0000
0001
0000
0000
,
0000
0100
0000
0000
0000
2000
0000
0000
,
0000
0000
0000
0000
0000
0000
0000
3000
,
0000
0010
0000
0010
0000
1000
0000
0000
,
0000
1000
0000
0000
0000
1000
0000
0000
,
0000
0200
0000
0000
0000
0000
0000
0000
,
0000
0000
0000
0300
0000
0001
0000
0000
,
0000
0001
0000
0000
0000
2000
0000
0000
,
0000
0000
0000
0000
,
0000
0000
0000
0000
0000
3000
0000
0002
,
0000
0000
0000
0000
,
0000
0000
0000
0000
0000
0003
0000
0200
,
0000
0000
0000
0000
,
0000
0000
0000
0000
0000
0300
0000
0020
,
0000
0000
0000
0000
,
0000
0000
0000
0000
0000
0030
0000
2000
,
0000
0000
0000
0000
,
0000
0000
0000
0000
0000
0000
0000
3000
,
0000
0002
0000
0000
0000
0000
0000
0000
,
0000
0000
0000
0000
0000
0000
0000
0003
,
0000
0200
0000
0000
0000
0000
0000
0000
,
0000
0000
0000
0000
0000
0000
0000
0300
,
0000
0000
1000
0000
,
1000
0000
1000
0000
0000
2000
0000
0000
,
0000
0000
0000
0000
,
0000
0000
0000
0000
0000
3000
0000
0002
,
0000
0000
0000
0000
,
0000
0000
0000
0000
0000
0003
0000
0200
,
0000
0000
0000
0000
,
0000
0000
0000
0000
0000
0000
0000
0300
,
0000
1000
0000
0001
,
1000
0000
0000
1000
0000
0000
0000
0010
,
0000
0000
0000
0100
0000
0000
0000
0010
,
0000
0000
0000
0020
0000
0000
0000
0000
,
0000
0000
0000
0030
0000
0100
0000
0100
,
0000
1000
0000
0000
0000
0001
0000
0000
,
0000
0100
0000
0000
0000
2000
0000
0000
,
0000
0000
0000
0000
0000
0000
0000
3000
,
0000
0001
0000
0000
0000
0001
0000
0000
,
0000
0001
0000
1000
0000
0000
0000
0100
,
0000
0000
0000
1000
0000
0000
0000
0010
,
0000
0000
0000
0002
0000
0000
0000
0000
,
0000
0000
0000
0003
0000
1000
0000
1000
,
0000
0000
0000
0100
0000
0000
0000
0100
,
0000
0000
0000
0001
0000
2000
0000
0000
,
0000
0000
0000
0000
0000
0000
0000
3000
,
0000
1000
0000
0000
0000
0010
0000
0000
,
0000
0001
0000
0000
0000
0200
0000
0300
;

//---------------dance-single - N00b_Saib0t----------------
#NOTES:
     dance-single:
     N00b_Saib0t:
     Beginner:
     3:
     0.085,0.141,0.000,0.000,0.000,102.000,0.000,0.000,0.000,0.000,0.000,0.000,0.085,0.141,0.000,0.000,0.000,102.000,0.000,0.000,0.000,0.000,0.000,0.000: // measure 1
0000
0010
0000
0000
,  // measure 2
0000
0100
0000
0000
,  // measure 3
0000
0001
0000
0000
,  // measure 4
0000
1000
0000
0000
,  // measure 5
0000
0001
0000
0000
,  // measure 6
0000
1000
0000
0000
,  // measure 7
0000
0001
0000
0000
,  // measure 8
0000
0010
0000
0000
,  // measure 9
1000
0000
0000
0000
,  // measure 10
0100
0000
0000
0000
,  // measure 11
0100
0000
0000
0000
,  // measure 12
0010
0000
0000
0000
,  // measure 13
1000
0000
0000
0000
,  // measure 14
0001
0000
0000
0000
,  // measure 15
0010
0000
0000
0000
,  // measure 16
0010
0000
0000
0000
,  // measure 17
1000
0000
0000
0000
,  // measure 18
1000
0000
0000
0000
,  // measure 19
0100
0000
0000
0000
,  // measure 20
0010
0000
0000
0000
,  // measure 21
0100
0000
0000
0000
,  // measure 22
1000
0000
0000
0000
,  // measure 23
0001
0000
0000
0000
,  // measure 24
0100
0000
0000
0000
1000
0000
0000
1000
,  // measure 25
0000
0000
0000
0000
0000
0000
0000
1000
,  // measure 26
0000
0000
0000
0000
0000
0000
0000
0001
,  // measure 27
0000
0000
0000
0000
,  // measure 28
0000
0000
0000
0000
0000
0000
0000
0100
,  // measure 29
0000
0000
0000
0000
0000
0000
0000
0010
,  // measure 30
0000
0000
0000
0000
0000
0000
0000
1000
,  // measure 31
0000
0000
0000
0000
,  // measure 32
0000
0000
0000
0000
,  // measure 33
0000
0001
0000
0000
0000
0000
0000
0100
,  // measure 34
0000
0000
0000
0000
0000
0000
0000
0010
,  // measure 35
0000
0000
0000
0000
,  // measure 36
0000
0000
0000
0000
0000
0000
0000
0001
,  // measure 37
0000
0000
0000
0000
0000
0000
0000
0001
,  // measure 38
0000
0000
0000
0000
0000
0000
0000
0010
,  // measure 39
0000
0000
0000
0000
,  // measure 40
0000
0000
0000
0000
0000
0000
0000
1000
,  // measure 41
0000
0000
0000
0000
,  // measure 42
0000
0000
0000
0000
0000
0000
0000
0010
,  // measure 43
0000
0000
0000
0000
,  // measure 44
0000
0000
0000
0000
0000
0000
0000
0010
,  // measure 45
0000
0000
0000
0000
,  // measure 46
0000
0000
0000
0000
0000
0000
0000
0100
,  // measure 47
0000
0000
0000
0000
,  // measure 48
0000
0010
0000
0000
,  // measure 49
0000
0100
0000
0000
,  // measure 50
0000
0010
0000
0000
,  // measure 51
0000
0001
0000
0000
,  // measure 52
0000
1000
0000
0000
,  // measure 53
0000
0001
0000
0000
,  // measure 54
0000
1000
0000
0000
,  // measure 55
0000
0001
0000
0000
,  // measure 56
0000
0000
1000
0000
,  // measure 57
0000
0000
0100
0000
,  // measure 58
0000
0000
0010
0000
,  // measure 59
0000
0000
0001
0000
,  // measure 60
0000
0000
0100
0000
,  // measure 61
0000
0000
0010
0000
,  // measure 62
0000
0000
0100
0000
,  // measure 63
0000
0000
0001
0000
,  // measure 64
0000
0100
0000
0100
,  // measure 65
0000
0000
0000
0001
,  // measure 66
0000
0000
0000
1000
,  // measure 67
0000
0000
0000
0000
,  // measure 68
0000
0000
0000
0010
,  // measure 69
0000
0000
0000
1000
,  // measure 70
0000
0000
0000
0001
,  // measure 71
0000
0000
0000
0000
0000
1000
0000
0000
,  // measure 72
0000
0000
0000
0000
0000
1000
0000
0000
,  // measure 73
0000
0000
0000
0000
0000
0001
0000
0000
,  // measure 74
0000
0000
0000
0000
0000
1000
0000
0000
,  // measure 75
0000
0000
0000
0000
,  // measure 76
0000
0010
0000
0000
0000
0000
0000
0000
,  // measure 77
0000
1000
0000
0000
0000
0000
0000
0000
,  // measure 78
0000
0100
0000
0000
0000
0000
0000
0000
,  // measure 79
0000
0000
0000
0000
0000
0001
0000
0000
,  // measure 80
0000
0000
0000
0000
0000
1000
0000
0000
,  // measure 81
0000
0000
0000
0000
,  // measure 82
0000
0000
0000
0000
0000
0000
0000
0001
,  // measure 83
0000
0000
0000
0000
,  // measure 84
0000
0000
0000
0000
0000
0000
0000
0100
,  // measure 85
0000
0000
0000
0000
,  // measure 86
0000
0000
0000
0000
0000
0000
0000
0010
,  // measure 87
0000
0000
0000
0000
,  // measure 88
0000
0000
0000
0000
0000
0000
0000
1000
,  // measure 89
0000
0000
0000
0000
,  // measure 90
0000
0000
0000
0000
,  // measure 91
0000
0001
0000
0000
0000
0000
0000
0000
,  // measure 92
0000
0000
0000
0000
,  // measure 93
0000
0100
0000
0000
0000
0000
0000
0000
,  // measure 94
0000
0000
0000
0000
,  // measure 95
0000
0000
1000
0000
,  // measure 96
0000
0000
0000
0000
0000
1000
0000
0000
,  // measure 97
0000
0000
0000
0000
,  // measure 98
0000
0000
0000
0000
0000
0000
0000
0001
,  // measure 99
0000
0000
0000
0000
,  // measure 100
0000
0000
0000
0000
0000
0000
0000
0100
,  // measure 101
0000
0000
0000
0000
,  // measure 102
0000
0000
0000
0000
,  // measure 103
0000
1000
0000
0000
,  // measure 104
1000
0000
0000
0000
0000
0000
0000
0010
,  // measure 105
0000
0000
0000
0000
0000
0000
0000
0010
,  // measure 106
0000
0000
0000
0000
0000
0000
0000
0010
,  // measure 107
0000
0000
0000
0000
0000
0000
0000
0100
,  // measure 108
0000
0000
0000
0000
0000
0000
0000
0001
,  // measure 109
0000
0000
0000
0000
0000
0000
0000
1000
,  // measure 110
0000
0000
0000
0000
0000
0000
0000
0001
,  // measure 111
0000
0000
0000
0000
0000
0000
0000
1000
,  // measure 112
0000
0000
0000
0000
0000
0000
0000
0100
,  // measure 113
0000
0000
0000
0000
0000
0000
0000
0010
,  // measure 114
0000
0000
0000
0000
0000
0000
0000
1000
,  // measure 115
0000
0000
0000
0000
0000
0000
0000
0100
,  // measure 116
0000
0000
0000
0000
0000
0000
0000
0100
,  // measure 117
0000
0000
0000
0000
0000
0000
0000
0010
,  // measure 118
0000
0000
0000
0000
0000
0000
0000
0010
,  // measure 119
0000
0000
0000
0000
0000
0000
0000
0100
,  // measure 120
0000
0000
0000
0000
0000
0000
0000
0001
;
